  0
SECTION
  2
HEADER
  9
$ACADVER
  1
AC1021
  9
$ACADMAINTVER
 70
     1
  9
$DWGCODEPAGE
  3
ANSI_932
  9
$LASTSAVEDBY
  1
ishida
  9
$INSBASE
 10
0.0
 20
0.0
 30
0.0
  9
$EXTMIN
 10
0.0
 20
0.0
 30
0.0
  9
$EXTMAX
 10
2100.0
 20
1485.0
 30
0.0
  9
$LIMMIN
 10
0.0
 20
0.0
  9
$LIMMAX
 10
2100.0
 20
1485.0
  9
$ORTHOMODE
 70
     0
  9
$REGENMODE
 70
     1
  9
$FILLMODE
 70
     1
  9
$QTEXTMODE
 70
     0
  9
$MIRRTEXT
 70
     1
  9
$LTSCALE
 40
5.0
  9
$ATTMODE
 70
     1
  9
$TEXTSIZE
 40
0.2
  9
$TRACEWID
 40
0.05
  9
$TEXTSTYLE
  7
Standard
  9
$CLAYER
  8
0
  9
$CELTYPE
  6
ByLayer
  9
$CECOLOR
 62
   256
  9
$CELTSCALE
 40
1.0
  9
$DISPSILH
 70
     0
  9
$DIMSCALE
 40
1.0
  9
$DIMASZ
 40
0.18
  9
$DIMEXO
 40
0.0625
  9
$DIMDLI
 40
0.38
  9
$DIMRND
 40
0.0
  9
$DIMDLE
 40
0.0
  9
$DIMEXE
 40
0.18
  9
$DIMTP
 40
0.0
  9
$DIMTM
 40
0.0
  9
$DIMTXT
 40
0.18
  9
$DIMCEN
 40
0.09
  9
$DIMTSZ
 40
0.0
  9
$DIMTOL
 70
     0
  9
$DIMLIM
 70
     0
  9
$DIMTIH
 70
     1
  9
$DIMTOH
 70
     1
  9
$DIMSE1
 70
     0
  9
$DIMSE2
 70
     0
  9
$DIMTAD
 70
     0
  9
$DIMZIN
 70
     0
  9
$DIMBLK
  1

  9
$DIMASO
 70
     1
  9
$DIMSHO
 70
     1
  9
$DIMPOST
  1

  9
$DIMAPOST
  1

  9
$DIMALT
 70
     0
  9
$DIMALTD
 70
     2
  9
$DIMALTF
 40
25.4
  9
$DIMLFAC
 40
1.0
  9
$DIMTOFL
 70
     0
  9
$DIMTVP
 40
0.0
  9
$DIMTIX
 70
     0
  9
$DIMSOXD
 70
     0
  9
$DIMSAH
 70
     0
  9
$DIMBLK1
  1

  9
$DIMBLK2
  1

  9
$DIMSTYLE
  2
Standard
  9
$DIMCLRD
 70
     0
  9
$DIMCLRE
 70
     0
  9
$DIMCLRT
 70
     0
  9
$DIMTFAC
 40
1.0
  9
$DIMGAP
 40
0.09
  9
$DIMJUST
 70
     0
  9
$DIMSD1
 70
     0
  9
$DIMSD2
 70
     0
  9
$DIMTOLJ
 70
     1
  9
$DIMTZIN
 70
     0
  9
$DIMALTZ
 70
     0
  9
$DIMALTTZ
 70
     0
  9
$DIMUPT
 70
     0
  9
$DIMDEC
 70
     4
  9
$DIMTDEC
 70
     4
  9
$DIMALTU
 70
     2
  9
$DIMALTTD
 70
     2
  9
$DIMTXSTY
  7
Standard
  9
$DIMAUNIT
 70
     0
  9
$DIMADEC
 70
     0
  9
$DIMALTRND
 40
0.0
  9
$DIMAZIN
 70
     0
  9
$DIMDSEP
 70
    46
  9
$DIMATFIT
 70
     3
  9
$DIMFRAC
 70
     0
  9
$DIMLDRBLK
  1

  9
$DIMLUNIT
 70
     2
  9
$DIMLWD
 70
    -2
  9
$DIMLWE
 70
    -2
  9
$DIMTMOVE
 70
     0
  9
$DIMFXL
 40
1.0
  9
$DIMFXLON
 70
     0
  9
$DIMJOGANG
 40
0.7853981633974483
  9
$DIMTFILL
 70
     0
  9
$DIMTFILLCLR
 70
     0
  9
$DIMARCSYM
 70
     0
  9
$DIMLTYPE
  6

  9
$DIMLTEX1
  6

  9
$DIMLTEX2
  6

  9
$LUNITS
 70
     2
  9
$LUPREC
 70
     4
  9
$SKETCHINC
 40
0.1
  9
$FILLETRAD
 40
0.5
  9
$AUNITS
 70
     0
  9
$AUPREC
 70
     0
  9
$MENU
  1
.
  9
$ELEVATION
 40
0.0
  9
$PELEVATION
 40
0.0
  9
$THICKNESS
 40
0.0
  9
$LIMCHECK
 70
     0
  9
$CHAMFERA
 40
0.0
  9
$CHAMFERB
 40
0.0
  9
$CHAMFERC
 40
0.0
  9
$CHAMFERD
 40
0.0
  9
$SKPOLY
 70
     0
  9
$TDCREATE
 40
2458618.618148148
  9
$TDUCREATE
 40
2458618.243148148
  9
$TDUPDATE
 40
2458619.742935602
  9
$TDUUPDATE
 40
2458619.367935602
  9
$TDINDWG
 40
0.0007744097
  9
$TDUSRTIMER
 40
0.0007744097
  9
$USRTIMER
 70
     1
  9
$ANGBASE
 50
0.0
  9
$ANGDIR
 70
     0
  9
$PDMODE
 70
     0
  9
$PDSIZE
 40
0.0
  9
$PLINEWID
 40
0.0
  9
$SPLFRAME
 70
     0
  9
$SPLINETYPE
 70
     6
  9
$SPLINESEGS
 70
     8
  9
$HANDSEED
  5
2D7
  9
$SURFTAB1
 70
     6
  9
$SURFTAB2
 70
     6
  9
$SURFTYPE
 70
     6
  9
$SURFU
 70
     6
  9
$SURFV
 70
     6
  9
$UCSBASE
  2

  9
$UCSNAME
  2

  9
$UCSORG
 10
0.0
 20
0.0
 30
0.0
  9
$UCSXDIR
 10
1.0
 20
0.0
 30
0.0
  9
$UCSYDIR
 10
0.0
 20
1.0
 30
0.0
  9
$UCSORTHOREF
  2

  9
$UCSORTHOVIEW
 70
     0
  9
$UCSORGTOP
 10
0.0
 20
0.0
 30
0.0
  9
$UCSORGBOTTOM
 10
0.0
 20
0.0
 30
0.0
  9
$UCSORGLEFT
 10
0.0
 20
0.0
 30
0.0
  9
$UCSORGRIGHT
 10
0.0
 20
0.0
 30
0.0
  9
$UCSORGFRONT
 10
0.0
 20
0.0
 30
0.0
  9
$UCSORGBACK
 10
0.0
 20
0.0
 30
0.0
  9
$PUCSBASE
  2

  9
$PUCSNAME
  2

  9
$PUCSORG
 10
0.0
 20
0.0
 30
0.0
  9
$PUCSXDIR
 10
1.0
 20
0.0
 30
0.0
  9
$PUCSYDIR
 10
0.0
 20
1.0
 30
0.0
  9
$PUCSORTHOREF
  2

  9
$PUCSORTHOVIEW
 70
     0
  9
$PUCSORGTOP
 10
0.0
 20
0.0
 30
0.0
  9
$PUCSORGBOTTOM
 10
0.0
 20
0.0
 30
0.0
  9
$PUCSORGLEFT
 10
0.0
 20
0.0
 30
0.0
  9
$PUCSORGRIGHT
 10
0.0
 20
0.0
 30
0.0
  9
$PUCSORGFRONT
 10
0.0
 20
0.0
 30
0.0
  9
$PUCSORGBACK
 10
0.0
 20
0.0
 30
0.0
  9
$USERI1
 70
     0
  9
$USERI2
 70
     0
  9
$USERI3
 70
     0
  9
$USERI4
 70
     0
  9
$USERI5
 70
     0
  9
$USERR1
 40
0.0
  9
$USERR2
 40
0.0
  9
$USERR3
 40
0.0
  9
$USERR4
 40
0.0
  9
$USERR5
 40
0.0
  9
$WORLDVIEW
 70
     1
  9
$SHADEDGE
 70
     3
  9
$SHADEDIF
 70
    70
  9
$TILEMODE
 70
     1
  9
$MAXACTVP
 70
    64
  9
$PINSBASE
 10
0.0
 20
0.0
 30
0.0
  9
$PLIMCHECK
 70
     0
  9
$PEXTMIN
 10
1.000000000000000E+20
 20
1.000000000000000E+20
 30
1.000000000000000E+20
  9
$PEXTMAX
 10
-1.000000000000000E+20
 20
-1.000000000000000E+20
 30
-1.000000000000000E+20
  9
$PLIMMIN
 10
0.0
 20
0.0
  9
$PLIMMAX
 10
12.0
 20
9.0
  9
$UNITMODE
 70
     0
  9
$VISRETAIN
 70
     1
  9
$PLINEGEN
 70
     0
  9
$PSLTSCALE
 70
     1
  9
$TREEDEPTH
 70
  3020
  9
$CMLSTYLE
  2
Standard
  9
$CMLJUST
 70
     0
  9
$CMLSCALE
 40
1.0
  9
$PROXYGRAPHICS
 70
     1
  9
$MEASUREMENT
 70
     1
  9
$CELWEIGHT
370
    -1
  9
$ENDCAPS
280
     0
  9
$JOINSTYLE
280
     0
  9
$LWDISPLAY
290
     0
  9
$INSUNITS
 70
     0
  9
$HYPERLINKBASE
  1

  9
$STYLESHEET
  1

  9
$XEDIT
290
     1
  9
$CEPSNTYPE
380
     0
  9
$PSTYLEMODE
290
     1
  9
$FINGERPRINTGUID
  2
{D6D8672A-E8BB-46AB-8AD1-2F6522404E60}
  9
$VERSIONGUID
  2
{025ED2CF-5929-487E-8962-7D8750A14F9D}
  9
$EXTNAMES
290
     1
  9
$PSVPSCALE
 40
0.0
  9
$OLESTARTUP
290
     0
  9
$SORTENTS
280
   127
  9
$INDEXCTL
280
     0
  9
$HIDETEXT
280
     1
  9
$XCLIPFRAME
290
     0
  9
$HALOGAP
280
     0
  9
$OBSCOLOR
 70
   257
  9
$OBSLTYPE
280
     0
  9
$INTERSECTIONDISPLAY
280
     0
  9
$INTERSECTIONCOLOR
 70
   257
  9
$DIMASSOC
280
     1
  9
$PROJECTNAME
  1

  9
$CAMERADISPLAY
290
     0
  9
$LENSLENGTH
 40
50.0
  9
$CAMERAHEIGHT
 40
0.0
  9
$STEPSPERSEC
 40
2.0
  9
$STEPSIZE
 40
6.0
  9
$3DDWFPREC
 40
2.0
  9
$PSOLWIDTH
 40
0.25
  9
$PSOLHEIGHT
 40
4.0
  9
$LOFTANG1
 40
1.570796326794896
  9
$LOFTANG2
 40
1.570796326794896
  9
$LOFTMAG1
 40
0.0
  9
$LOFTMAG2
 40
0.0
  9
$LOFTPARAM
 70
     7
  9
$LOFTNORMALS
280
     1
  9
$LATITUDE
 40
37.795
  9
$LONGITUDE
 40
-122.394
  9
$NORTHDIRECTION
 40
0.0
  9
$TIMEZONE
 70
 -8000
  9
$LIGHTGLYPHDISPLAY
280
     1
  9
$TILEMODELIGHTSYNCH
280
     1
  9
$CMATERIAL
347
44
  9
$SOLIDHIST
280
     0
  9
$SHOWHIST
280
     1
  9
$DWFFRAME
280
     2
  9
$DGNFRAME
280
     2
  9
$REALWORLDSCALE
290
     1
  9
$INTERFERECOLOR
 62
   256
  9
$INTERFEREOBJVS
345
33
  9
$INTERFEREVPVS
346
2C6
  9
$CSHADOW
280
     0
  9
$SHADOWPLANELOCATION
 40
0.0
  0
ENDSEC
  0
SECTION
  2
CLASSES
  0
CLASS
  1
ACDBDICTIONARYWDFLT
  2
AcDbDictionaryWithDefault
  3
ObjectDBX Classes
 90
        0
 91
        1
280
     0
281
     0
  0
CLASS
  1
VISUALSTYLE
  2
AcDbVisualStyle
  3
ObjectDBX Classes
 90
     4095
 91
       26
280
     0
281
     0
  0
CLASS
  1
MATERIAL
  2
AcDbMaterial
  3
ObjectDBX Classes
 90
     1024
 91
        3
280
     0
281
     0
  0
CLASS
  1
SCALE
  2
AcDbScale
  3
ObjectDBX Classes
 90
     1153
 91
       33
280
     0
281
     0
  0
CLASS
  1
TABLESTYLE
  2
AcDbTableStyle
  3
ObjectDBX Classes
 90
     4095
 91
        1
280
     0
281
     0
  0
CLASS
  1
MLEADERSTYLE
  2
AcDbMLeaderStyle
  3
ACDB_MLEADERSTYLE_CLASS
 90
     4095
 91
        1
280
     0
281
     0
  0
CLASS
  1
SUN
  2
AcDbSun
  3
SCENEOE
 90
     1024
 91
        1
280
     0
281
     0
  0
CLASS
  1
RASTERVARIABLES
  2
AcDbRasterVariables
  3
ISM
 90
        0
 91
        1
280
     0
281
     0
  0
CLASS
  1
DICTIONARYVAR
  2
AcDbDictionaryVar
  3
ObjectDBX Classes
 90
        0
 91
        4
280
     0
281
     0
  0
CLASS
  1
CELLSTYLEMAP
  2
AcDbCellStyleMap
  3
ObjectDBX Classes
 90
     1152
 91
        1
280
     0
281
     0
  0
ENDSEC
  0
SECTION
  2
TABLES
  0
TABLE
  2
VPORT
  5
8
330
0
100
AcDbSymbolTable
 70
     1
  0
VPORT
  5
29
330
8
100
AcDbSymbolTableRecord
100
AcDbViewportTableRecord
  2
*Active
 70
     0
 10
0.0
 20
0.0
 11
1.0
 21
1.0
 12
991.6988295550304
 22
819.1726206188775
 13
0.0
 23
0.0
 14
0.5
 24
0.5
 15
0.5
 25
0.5
 16
0.0
 26
0.0
 36
1.0
 17
0.0
 27
0.0
 37
0.0
 40
2077.1727207952
 41
1.970131421744324
 42
50.0
 43
0.0
 44
0.0
 50
0.0
 51
0.0
 71
     0
 72
   100
 73
     1
 74
     3
 75
     0
 76
     0
 77
     0
 78
     0
281
     0
 65
     1
110
0.0
120
0.0
130
0.0
111
1.0
121
0.0
131
0.0
112
0.0
122
1.0
132
0.0
 79
     0
146
0.0
348
2F
 60
     3
 61
     5
292
     1
282
     1
141
0.0
142
0.0
 63
   250
361
6D
  0
ENDTAB
  0
TABLE
  2
LTYPE
  5
5
330
0
100
AcDbSymbolTable
 70
     2
  0
LTYPE
  5
14
330
5
100
AcDbSymbolTableRecord
100
AcDbLinetypeTableRecord
  2
ByBlock
 70
     0
  3

 72
    65
 73
     0
 40
0.0
  0
LTYPE
  5
15
330
5
100
AcDbSymbolTableRecord
100
AcDbLinetypeTableRecord
  2
ByLayer
 70
     0
  3

 72
    65
 73
     0
 40
0.0
  0
LTYPE
  5
16
330
5
100
AcDbSymbolTableRecord
100
AcDbLinetypeTableRecord
  2
Continuous
 70
     0
  3
Solid line
 72
    65
 73
     0
 40
0.0
  0
LTYPE
  5
6F
330
5
100
AcDbSymbolTableRecord
100
AcDbLinetypeTableRecord
  2
レイヤ依存
 70
     0
  3
レイヤ依存
 72
    65
 73
     0
 40
0.0
  0
ENDTAB
  0
TABLE
  2
LAYER
  5
2
330
0
100
AcDbSymbolTable
 70
    11
  0
LAYER
  5
10
330
2
100
AcDbSymbolTableRecord
100
AcDbLayerTableRecord
  2
0
 70
     0
 62
     7
  6
Continuous
370
    -3
390
F
347
46
  0
LAYER
  5
71
330
2
100
AcDbSymbolTableRecord
100
AcDbLayerTableRecord
  2
V-nasSTD
 70
     0
 62
     7
  6
Continuous
370
     0
390
F
347
46
1001
AcAecLayerStandard
1000

1000

  0
LAYER
  5
72
330
2
100
AcDbSymbolTableRecord
100
AcDbLayerTableRecord
  2
D-TTL
 70
     0
 62
     2
  6
Continuous
370
   140
390
F
347
46
1001
AcAecLayerStandard
1000

1000
外枠
  0
LAYER
  5
73
330
2
100
AcDbSymbolTableRecord
100
AcDbLayerTableRecord
  2
D-TTL-FRAM
 70
     0
 62
     2
  6
Continuous
370
    13
390
F
347
46
1001
AcAecLayerStandard
1000

1000
タイトル枠、凡例図枠
  0
LAYER
  5
74
330
2
100
AcDbSymbolTableRecord
100
AcDbLayerTableRecord
  2
D-TTL-TXT
 70
     0
 62
     7
  6
Continuous
370
    13
390
F
347
46
1001
AcAecLayerStandard
1000

1000
文字列
  0
LAYER
  5
75
330
2
100
AcDbSymbolTableRecord
100
AcDbLayerTableRecord
  2
D-BGD-TXT
 70
     0
 62
     7
  6
Continuous
370
    13
390
F
347
46
1001
AcAecLayerStandard
1000

1000
文字列
  0
LAYER
  5
76
330
2
100
AcDbSymbolTableRecord
100
AcDbLayerTableRecord
  2
D-STR
 70
     0
 62
     1
  6
Continuous
370
    13
390
F
347
46
1001
AcAecLayerStandard
1000

1000
構造物外形線
  0
LAYER
  5
77
330
2
100
AcDbSymbolTableRecord
100
AcDbLayerTableRecord
  2
D-STR-DIM
 70
     0
 62
     7
  6
Continuous
370
    13
390
F
347
46
1001
AcAecLayerStandard
1000

1000
寸法線、寸法値
  0
LAYER
  5
78
330
2
100
AcDbSymbolTableRecord
100
AcDbLayerTableRecord
  2
D-STR-TXT
 70
     0
 62
     7
  6
Continuous
370
    13
390
F
347
46
1001
AcAecLayerStandard
1000

1000
文字列
  0
LAYER
  5
79
330
2
100
AcDbSymbolTableRecord
100
AcDbLayerTableRecord
  2
D-STR-HTXT
 70
     0
 62
     7
  6
Continuous
370
    13
390
F
347
46
1001
AcAecLayerStandard
1000

1000
旗上げ
  0
LAYER
  5
7A
330
2
100
AcDbSymbolTableRecord
100
AcDbLayerTableRecord
  2
D-DOC
 70
     0
 62
     7
  6
Continuous
370
    13
390
F
347
46
1001
AcAecLayerStandard
1000

1000
文章(説明、指示、参照事項等)
  0
ENDTAB
  0
TABLE
  2
STYLE
  5
3
330
0
100
AcDbSymbolTable
 70
    13
  0
STYLE
  5
11
330
3
100
AcDbSymbolTableRecord
100
AcDbTextStyleTableRecord
  2
Standard
 70
     0
 40
0.0
 41
1.0
 50
0.0
 71
     0
 42
0.2
  3
txt
  4

  0
STYLE
  5
7B
330
3
100
AcDbSymbolTableRecord
100
AcDbTextStyleTableRecord
  2
YOKO
 70
     0
 40
0.0
 41
1.0
 50
0.0
 71
     0
 42
0.2
  3
exthalf2
  4
bigfont
  0
STYLE
  5
7C
330
3
100
AcDbSymbolTableRecord
100
AcDbTextStyleTableRecord
  2
YOKO２
 70
     0
 40
0.0
 41
1.0
 50
0.0
 71
     0
 42
0.2
  3
monotxt
  4
bigfont
  0
STYLE
  5
7D
330
3
100
AcDbSymbolTableRecord
100
AcDbTextStyleTableRecord
  2
YOKO_MINCHO
 70
     0
 40
0.0
 41
1.0
 50
0.0
 71
     0
 42
0.2
  3
MS Mincho.ttf
  4

1001
ACAD
1000
MS Mincho
1071
    32785
  0
STYLE
  5
7E
330
3
100
AcDbSymbolTableRecord
100
AcDbTextStyleTableRecord
  2
YOKO_GOTHIC
 70
     0
 40
0.0
 41
1.0
 50
0.0
 71
     0
 42
0.2
  3
msgothic.ttc
  4

1001
ACAD
1000
MS Gothic
1071
    32817
  0
STYLE
  5
7F
330
3
100
AcDbSymbolTableRecord
100
AcDbTextStyleTableRecord
  2
YOKO_PMINCHO
 70
     0
 40
0.0
 41
1.0
 50
0.0
 71
     0
 42
0.2
  3
MS PMincho.ttf
  4

1001
ACAD
1000
MS PMincho
1071
    32786
  0
STYLE
  5
80
330
3
100
AcDbSymbolTableRecord
100
AcDbTextStyleTableRecord
  2
YOKO_PGOTHIC
 70
     0
 40
0.0
 41
1.0
 50
0.0
 71
     0
 42
0.2
  3
MS PGothic.ttf
  4

1001
ACAD
1000
MS PGothic
1071
    32818
  0
STYLE
  5
81
330
3
100
AcDbSymbolTableRecord
100
AcDbTextStyleTableRecord
  2
TATE
 70
     4
 40
0.0
 41
1.0
 50
0.0
 71
     0
 42
0.2
  3
exthalf2
  4
bigfont
  0
STYLE
  5
82
330
3
100
AcDbSymbolTableRecord
100
AcDbTextStyleTableRecord
  2
TATE２
 70
     4
 40
0.0
 41
1.0
 50
0.0
 71
     0
 42
0.2
  3
monotxt
  4
bigfont
  0
STYLE
  5
83
330
3
100
AcDbSymbolTableRecord
100
AcDbTextStyleTableRecord
  2
TATE_MINCHO
 70
     0
 40
0.0
 41
1.0
 50
0.0
 71
     0
 42
0.2
  3
@MS Mincho.ttf
  4

1001
ACAD
1000
@MS Mincho
1071
    32785
  0
STYLE
  5
84
330
3
100
AcDbSymbolTableRecord
100
AcDbTextStyleTableRecord
  2
TATE_GOTHIC
 70
     0
 40
0.0
 41
1.0
 50
0.0
 71
     0
 42
0.2
  3
@MS Gothic.ttf
  4

1001
ACAD
1000
@MS Gothic
1071
    32817
  0
STYLE
  5
85
330
3
100
AcDbSymbolTableRecord
100
AcDbTextStyleTableRecord
  2
TATE_PMINCHO
 70
     0
 40
0.0
 41
1.0
 50
0.0
 71
     0
 42
0.2
  3
@MS PMincho.ttf
  4

1001
ACAD
1000
@MS PMincho
1071
    32786
  0
STYLE
  5
86
330
3
100
AcDbSymbolTableRecord
100
AcDbTextStyleTableRecord
  2
TATE_PGOTHIC
 70
     0
 40
0.0
 41
1.0
 50
0.0
 71
     0
 42
0.2
  3
@MS PGothic.ttf
  4

1001
ACAD
1000
@MS PGothic
1071
    32818
  0
ENDTAB
  0
TABLE
  2
VIEW
  5
6
330
0
100
AcDbSymbolTable
 70
     0
  0
ENDTAB
  0
TABLE
  2
UCS
  5
7
330
0
100
AcDbSymbolTable
 70
     0
  0
ENDTAB
  0
TABLE
  2
APPID
  5
9
330
0
100
AcDbSymbolTable
 70
     3
  0
APPID
  5
12
330
9
100
AcDbSymbolTableRecord
100
AcDbRegAppTableRecord
  2
ACAD
 70
     0
  0
APPID
  5
70
330
9
100
AcDbSymbolTableRecord
100
AcDbRegAppTableRecord
  2
AcAecLayerStandard
 70
     0
  0
APPID
  5
2BD
330
9
100
AcDbSymbolTableRecord
100
AcDbRegAppTableRecord
  2
ACAD_MLEADERVER
 70
     0
  0
ENDTAB
  0
TABLE
  2
DIMSTYLE
  5
A
330
0
100
AcDbSymbolTable
 70
     7
100
AcDbDimStyleTable
 71
     0
  0
DIMSTYLE
105
27
330
A
100
AcDbSymbolTableRecord
100
AcDbDimStyleTableRecord
  2
Standard
 70
     0
340
11
  0
DIMSTYLE
105
87
330
A
100
AcDbSymbolTableRecord
100
AcDbDimStyleTableRecord
  2
Clair_Dim
 70
     0
 73
     0
 74
     0
 77
     1
173
     1
279
     2
340
7B
  0
DIMSTYLE
105
88
330
A
100
AcDbSymbolTableRecord
100
AcDbDimStyleTableRecord
  2
Clair_Dim２
 70
     0
 73
     0
 74
     0
 77
     1
173
     1
279
     2
340
7C
  0
DIMSTYLE
105
89
330
A
100
AcDbSymbolTableRecord
100
AcDbDimStyleTableRecord
  2
Clair_Dim_Mincho
 70
     0
 73
     0
 74
     0
 77
     1
173
     1
279
     2
340
7D
  0
DIMSTYLE
105
8A
102
{ACAD_REACTORS
330
200
330
216
330
22D
330
243
102
}
330
A
100
AcDbSymbolTableRecord
100
AcDbDimStyleTableRecord
  2
Clair_Dim_Gothic
 70
     0
 73
     0
 74
     0
 77
     1
173
     1
279
     2
340
7E
  0
DIMSTYLE
105
8B
330
A
100
AcDbSymbolTableRecord
100
AcDbDimStyleTableRecord
  2
Clair_Dim_PMincho
 70
     0
 73
     0
 74
     0
 77
     1
173
     1
279
     2
340
7F
  0
DIMSTYLE
105
8C
330
A
100
AcDbSymbolTableRecord
100
AcDbDimStyleTableRecord
  2
Clair_Dim_PGothic
 70
     0
 73
     0
 74
     0
 77
     1
173
     1
279
     2
340
80
  0
ENDTAB
  0
TABLE
  2
BLOCK_RECORD
  5
1
330
0
100
AcDbSymbolTable
 70
    32
  0
BLOCK_RECORD
  5
1F
330
1
100
AcDbSymbolTableRecord
100
AcDbBlockTableRecord
  2
*Model_Space
340
22
 70
     0
280
     1
281
     0
  0
BLOCK_RECORD
  5
1B
330
1
100
AcDbSymbolTableRecord
100
AcDbBlockTableRecord
  2
*Paper_Space
340
1E
 70
     0
280
     1
281
     0
  0
BLOCK_RECORD
  5
23
330
1
100
AcDbSymbolTableRecord
100
AcDbBlockTableRecord
  2
*Paper_Space0
340
26
 70
     0
280
     1
281
     0
  0
BLOCK_RECORD
  5
8D
330
1
100
AcDbSymbolTableRecord
100
AcDbBlockTableRecord
  2
_CLOSEDBLANK
340
0
 70
     0
280
     1
281
     0
  0
BLOCK_RECORD
  5
93
330
1
100
AcDbSymbolTableRecord
100
AcDbBlockTableRecord
  2
_BOXBLANK
340
0
 70
     0
280
     1
281
     0
  0
BLOCK_RECORD
  5
9B
330
1
100
AcDbSymbolTableRecord
100
AcDbBlockTableRecord
  2
_DOTBLANK
340
0
 70
     0
280
     1
281
     0
  0
BLOCK_RECORD
  5
A0
330
1
100
AcDbSymbolTableRecord
100
AcDbBlockTableRecord
  2
_SMALL
340
0
 70
     0
280
     1
281
     0
  0
BLOCK_RECORD
  5
A4
330
1
100
AcDbSymbolTableRecord
100
AcDbBlockTableRecord
  2
_ORIGIN
340
0
 70
     0
280
     1
281
     0
  0
BLOCK_RECORD
  5
A9
330
1
100
AcDbSymbolTableRecord
100
AcDbBlockTableRecord
  2
_BOXFILLED
340
0
 70
     0
280
     1
281
     0
  0
BLOCK_RECORD
  5
AE
330
1
100
AcDbSymbolTableRecord
100
AcDbBlockTableRecord
  2
_DOT
340
0
 70
     0
280
     1
281
     0
  0
BLOCK_RECORD
  5
B6
330
1
100
AcDbSymbolTableRecord
100
AcDbBlockTableRecord
  2
_DOTSMALL
340
0
 70
     0
280
     1
281
     0
  0
BLOCK_RECORD
  5
BD
330
1
100
AcDbSymbolTableRecord
100
AcDbBlockTableRecord
  2
HalfArrowStart
340
0
 70
     0
280
     1
281
     0
  0
BLOCK_RECORD
  5
C2
330
1
100
AcDbSymbolTableRecord
100
AcDbBlockTableRecord
  2
HalfArrowEnd
340
0
 70
     0
280
     1
281
     0
  0
BLOCK_RECORD
  5
C7
330
1
100
AcDbSymbolTableRecord
100
AcDbBlockTableRecord
  2
HalfBlankedBoxStart
340
0
 70
     0
280
     1
281
     0
  0
BLOCK_RECORD
  5
CC
330
1
100
AcDbSymbolTableRecord
100
AcDbBlockTableRecord
  2
HalfBlankedBoxEnd
340
0
 70
     0
280
     1
281
     0
  0
BLOCK_RECORD
  5
D1
330
1
100
AcDbSymbolTableRecord
100
AcDbBlockTableRecord
  2
HalfFilledBoxStart
340
0
 70
     0
280
     1
281
     0
  0
BLOCK_RECORD
  5
D6
330
1
100
AcDbSymbolTableRecord
100
AcDbBlockTableRecord
  2
HalfFilledBoxEnd
340
0
 70
     0
280
     1
281
     0
  0
BLOCK_RECORD
  5
DB
330
1
100
AcDbSymbolTableRecord
100
AcDbBlockTableRecord
  2
_INTEGRAL
340
0
 70
     0
280
     1
281
     0
  0
BLOCK_RECORD
  5
E0
330
1
100
AcDbSymbolTableRecord
100
AcDbBlockTableRecord
  2
_OPEN
340
0
 70
     0
280
     1
281
     0
  0
BLOCK_RECORD
  5
E6
330
1
100
AcDbSymbolTableRecord
100
AcDbBlockTableRecord
  2
_OBLIQUE
340
0
 70
     0
280
     1
281
     0
  0
BLOCK_RECORD
  5
EA
330
1
100
AcDbSymbolTableRecord
100
AcDbBlockTableRecord
  2
_CLOSED
340
0
 70
     0
280
     1
281
     0
  0
BLOCK_RECORD
  5
F1
330
1
100
AcDbSymbolTableRecord
100
AcDbBlockTableRecord
  2
_NONE
340
0
 70
     0
280
     1
281
     0
  0
BLOCK_RECORD
  5
201
330
1
100
AcDbSymbolTableRecord
100
AcDbBlockTableRecord
  2
*D20
340
0
 70
     0
280
     1
281
     0
  0
BLOCK_RECORD
  5
208
330
1
100
AcDbSymbolTableRecord
100
AcDbBlockTableRecord
  2
CLAIR_HATCH_PAINT1
340
0
102
{BLKREFS
331
20B
102
}
 70
     0
280
     1
281
     0
  0
BLOCK_RECORD
  5
20F
330
1
100
AcDbSymbolTableRecord
100
AcDbBlockTableRecord
  2
CLAIR_HATCH_PAINT2
340
0
102
{BLKREFS
331
212
102
}
 70
     0
280
     1
281
     0
  0
BLOCK_RECORD
  5
217
330
1
100
AcDbSymbolTableRecord
100
AcDbBlockTableRecord
  2
*D23
340
0
 70
     0
280
     1
281
     0
  0
BLOCK_RECORD
  5
21E
330
1
100
AcDbSymbolTableRecord
100
AcDbBlockTableRecord
  2
CLAIR_HATCH_PAINT3
340
0
102
{BLKREFS
331
221
102
}
 70
     0
280
     1
281
     0
  0
BLOCK_RECORD
  5
225
330
1
100
AcDbSymbolTableRecord
100
AcDbBlockTableRecord
  2
CLAIR_HATCH_PAINT4
340
0
102
{BLKREFS
331
228
102
}
 70
     0
280
     1
281
     0
  0
BLOCK_RECORD
  5
22E
330
1
100
AcDbSymbolTableRecord
100
AcDbBlockTableRecord
  2
*D26
340
0
 70
     0
280
     1
281
     0
  0
BLOCK_RECORD
  5
235
330
1
100
AcDbSymbolTableRecord
100
AcDbBlockTableRecord
  2
CLAIR_HATCH_PAINT5
340
0
102
{BLKREFS
331
238
102
}
 70
     0
280
     1
281
     0
  0
BLOCK_RECORD
  5
23C
330
1
100
AcDbSymbolTableRecord
100
AcDbBlockTableRecord
  2
CLAIR_HATCH_PAINT6
340
0
102
{BLKREFS
331
23F
102
}
 70
     0
280
     1
281
     0
  0
BLOCK_RECORD
  5
244
330
1
100
AcDbSymbolTableRecord
100
AcDbBlockTableRecord
  2
*D29
340
0
 70
     0
280
     1
281
     0
  0
BLOCK_RECORD
  5
24B
330
1
100
AcDbSymbolTableRecord
100
AcDbBlockTableRecord
  2
CLAIR_HATCH_PAINT7
340
0
102
{BLKREFS
331
24E
102
}
 70
     0
280
     1
281
     0
  0
BLOCK_RECORD
  5
252
330
1
100
AcDbSymbolTableRecord
100
AcDbBlockTableRecord
  2
CLAIR_HATCH_PAINT8
340
0
102
{BLKREFS
331
255
102
}
 70
     0
280
     1
281
     0
  0
ENDTAB
  0
ENDSEC
  0
SECTION
  2
BLOCKS
  0
BLOCK
  5
20
330
1F
100
AcDbEntity
  8
0
100
AcDbBlockBegin
  2
*Model_Space
 70
     0
 10
0.0
 20
0.0
 30
0.0
  3
*Model_Space
  1

  0
ENDBLK
  5
21
330
1F
100
AcDbEntity
  8
0
100
AcDbBlockEnd
  0
BLOCK
  5
1C
330
1B
100
AcDbEntity
 67
     1
  8
0
100
AcDbBlockBegin
  2
*Paper_Space
 70
     0
 10
0.0
 20
0.0
 30
0.0
  3
*Paper_Space
  1

  0
ENDBLK
  5
1D
330
1B
100
AcDbEntity
 67
     1
  8
0
100
AcDbBlockEnd
  0
BLOCK
  5
24
330
23
100
AcDbEntity
 67
     1
  8
0
100
AcDbBlockBegin
  2
*Paper_Space0
 70
     0
 10
0.0
 20
0.0
 30
0.0
  3
*Paper_Space0
  1

  0
ENDBLK
  5
25
330
23
100
AcDbEntity
 67
     1
  8
0
100
AcDbBlockEnd
  0
BLOCK
  5
8E
330
8D
100
AcDbEntity
  8
0
100
AcDbBlockBegin
  2
_CLOSEDBLANK
 70
     0
 10
0.0
 20
0.0
 30
0.0
  3
_CLOSEDBLANK
  1

  0
LINE
  5
90
330
8D
100
AcDbEntity
  8
0
  6
ByBlock
 62
     0
370
    -2
100
AcDbLine
 10
-1.0
 20
0.166667
 30
0.0
 11
0.0
 21
0.0
 31
0.0
  0
LINE
  5
91
330
8D
100
AcDbEntity
  8
0
  6
ByBlock
 62
     0
370
    -2
100
AcDbLine
 10
0.0
 20
0.0
 30
0.0
 11
-1.0
 21
-0.166667
 31
0.0
  0
LINE
  5
92
330
8D
100
AcDbEntity
  8
0
  6
ByBlock
 62
     0
370
    -2
100
AcDbLine
 10
-1.0
 20
0.166667
 30
0.0
 11
-1.0
 21
-0.166667
 31
0.0
  0
ENDBLK
  5
8F
330
8D
100
AcDbEntity
  8
0
100
AcDbBlockEnd
  0
BLOCK
  5
94
330
93
100
AcDbEntity
  8
0
100
AcDbBlockBegin
  2
_BOXBLANK
 70
     0
 10
0.0
 20
0.0
 30
0.0
  3
_BOXBLANK
  1

  0
LINE
  5
96
330
93
100
AcDbEntity
  8
0
  6
ByBlock
 62
     0
370
    -2
100
AcDbLine
 10
-0.5
 20
-0.5
 30
0.0
 11
0.5
 21
-0.5
 31
0.0
  0
LINE
  5
97
330
93
100
AcDbEntity
  8
0
  6
ByBlock
 62
     0
370
    -2
100
AcDbLine
 10
0.5
 20
-0.5
 30
0.0
 11
0.5
 21
0.5
 31
0.0
  0
LINE
  5
98
330
93
100
AcDbEntity
  8
0
  6
ByBlock
 62
     0
370
    -2
100
AcDbLine
 10
0.5
 20
0.5
 30
0.0
 11
-0.5
 21
0.5
 31
0.0
  0
LINE
  5
99
330
93
100
AcDbEntity
  8
0
  6
ByBlock
 62
     0
370
    -2
100
AcDbLine
 10
-0.5
 20
0.5
 30
0.0
 11
-0.5
 21
-0.5
 31
0.0
  0
LINE
  5
9A
330
93
100
AcDbEntity
  8
0
  6
ByBlock
 62
     0
370
    -2
100
AcDbLine
 10
-0.5
 20
0.0
 30
0.0
 11
-1.0
 21
0.0
 31
0.0
  0
ENDBLK
  5
95
330
93
100
AcDbEntity
  8
0
100
AcDbBlockEnd
  0
BLOCK
  5
9C
330
9B
100
AcDbEntity
  8
0
100
AcDbBlockBegin
  2
_DOTBLANK
 70
     0
 10
0.0
 20
0.0
 30
0.0
  3
_DOTBLANK
  1

  0
CIRCLE
  5
9E
330
9B
100
AcDbEntity
  8
0
  6
ByBlock
 62
     0
370
    -2
100
AcDbCircle
 10
0.0
 20
0.0
 30
0.0
 40
0.5
  0
LINE
  5
9F
330
9B
100
AcDbEntity
  8
0
  6
ByBlock
 62
     0
370
    -2
100
AcDbLine
 10
-0.5
 20
0.0
 30
0.0
 11
-1.0
 21
0.0
 31
0.0
  0
ENDBLK
  5
9D
330
9B
100
AcDbEntity
  8
0
100
AcDbBlockEnd
  0
BLOCK
  5
A1
330
A0
100
AcDbEntity
  8
0
100
AcDbBlockBegin
  2
_SMALL
 70
     0
 10
0.0
 20
0.0
 30
0.0
  3
_SMALL
  1

  0
CIRCLE
  5
A3
330
A0
100
AcDbEntity
  8
0
  6
ByBlock
 62
     0
370
    -2
100
AcDbCircle
 10
0.0
 20
0.0
 30
0.0
 40
0.25
  0
ENDBLK
  5
A2
330
A0
100
AcDbEntity
  8
0
100
AcDbBlockEnd
  0
BLOCK
  5
A5
330
A4
100
AcDbEntity
  8
0
100
AcDbBlockBegin
  2
_ORIGIN
 70
     0
 10
0.0
 20
0.0
 30
0.0
  3
_ORIGIN
  1

  0
CIRCLE
  5
A7
330
A4
100
AcDbEntity
  8
0
  6
ByBlock
 62
     0
370
    -2
100
AcDbCircle
 10
0.0
 20
0.0
 30
0.0
 40
0.5
  0
LINE
  5
A8
330
A4
100
AcDbEntity
  8
0
  6
ByBlock
 62
     0
370
    -2
100
AcDbLine
 10
0.0
 20
0.0
 30
0.0
 11
-1.0
 21
0.0
 31
0.0
  0
ENDBLK
  5
A6
330
A4
100
AcDbEntity
  8
0
100
AcDbBlockEnd
  0
BLOCK
  5
AA
330
A9
100
AcDbEntity
  8
0
100
AcDbBlockBegin
  2
_BOXFILLED
 70
     0
 10
0.0
 20
0.0
 30
0.0
  3
_BOXFILLED
  1

  0
SOLID
  5
AC
330
A9
100
AcDbEntity
  8
0
  6
ByBlock
 62
     0
100
AcDbTrace
 10
-0.5
 20
0.5
 30
0.0
 11
0.5
 21
0.5
 31
0.0
 12
-0.5
 22
-0.5
 32
0.0
 13
0.5
 23
-0.5
 33
0.0
  0
LINE
  5
AD
330
A9
100
AcDbEntity
  8
0
  6
ByBlock
 62
     0
370
    -2
100
AcDbLine
 10
-0.5
 20
0.0
 30
0.0
 11
-1.0
 21
0.0
 31
0.0
  0
ENDBLK
  5
AB
330
A9
100
AcDbEntity
  8
0
100
AcDbBlockEnd
  0
BLOCK
  5
AF
330
AE
100
AcDbEntity
  8
0
100
AcDbBlockBegin
  2
_DOT
 70
     0
 10
0.0
 20
0.0
 30
0.0
  3
_DOT
  1

  0
POLYLINE
  5
B1
330
AE
100
AcDbEntity
  8
0
  6
ByBlock
 62
     0
100
AcDb2dPolyline
 66
     1
 10
0.0
 20
0.0
 30
0.0
 70
     1
 40
0.5
 41
0.5
  0
VERTEX
  5
B3
330
B1
100
AcDbEntity
  8
0
  6
ByBlock
 62
     0
100
AcDbVertex
100
AcDb2dVertex
 10
-0.25
 20
0.0
 30
0.0
 42
1.0
  0
VERTEX
  5
B4
330
B1
100
AcDbEntity
  8
0
  6
ByBlock
 62
     0
100
AcDbVertex
100
AcDb2dVertex
 10
0.25
 20
0.0
 30
0.0
 42
1.0
  0
SEQEND
  5
B5
330
B1
100
AcDbEntity
  8
0
  6
ByBlock
 62
     0
  0
LINE
  5
B2
330
AE
100
AcDbEntity
  8
0
  6
ByBlock
 62
     0
370
    -2
100
AcDbLine
 10
-0.5
 20
0.0
 30
0.0
 11
-1.0
 21
0.0
 31
0.0
  0
ENDBLK
  5
B0
330
AE
100
AcDbEntity
  8
0
100
AcDbBlockEnd
  0
BLOCK
  5
B7
330
B6
100
AcDbEntity
  8
0
100
AcDbBlockBegin
  2
_DOTSMALL
 70
     0
 10
0.0
 20
0.0
 30
0.0
  3
_DOTSMALL
  1

  0
POLYLINE
  5
B9
330
B6
100
AcDbEntity
  8
0
  6
ByBlock
 62
     0
100
AcDb2dPolyline
 66
     1
 10
0.0
 20
0.0
 30
0.0
 70
     1
 40
0.5
 41
0.5
  0
VERTEX
  5
BA
330
B9
100
AcDbEntity
  8
0
  6
ByBlock
 62
     0
100
AcDbVertex
100
AcDb2dVertex
 10
-0.0625
 20
0.0
 30
0.0
 42
1.0
  0
VERTEX
  5
BB
330
B9
100
AcDbEntity
  8
0
  6
ByBlock
 62
     0
100
AcDbVertex
100
AcDb2dVertex
 10
0.0625
 20
0.0
 30
0.0
 42
1.0
  0
SEQEND
  5
BC
330
B9
100
AcDbEntity
  8
0
  6
ByBlock
 62
     0
  0
ENDBLK
  5
B8
330
B6
100
AcDbEntity
  8
0
100
AcDbBlockEnd
  0
BLOCK
  5
BE
330
BD
100
AcDbEntity
  8
0
100
AcDbBlockBegin
  2
HalfArrowStart
 70
     0
 10
0.0
 20
0.0
 30
0.0
  3
HalfArrowStart
  1

  0
LINE
  5
C0
330
BD
100
AcDbEntity
  8
0
100
AcDbLine
 10
0.0
 20
0.0
 30
0.0
 11
-1.0
 21
0.0
 31
0.0
  0
LINE
  5
C1
330
BD
100
AcDbEntity
  8
0
100
AcDbLine
 10
0.0
 20
0.0
 30
0.0
 11
-1.0
 21
-0.1667
 31
0.0
  0
ENDBLK
  5
BF
330
BD
100
AcDbEntity
  8
0
100
AcDbBlockEnd
  0
BLOCK
  5
C3
330
C2
100
AcDbEntity
  8
0
100
AcDbBlockBegin
  2
HalfArrowEnd
 70
     0
 10
0.0
 20
0.0
 30
0.0
  3
HalfArrowEnd
  1

  0
LINE
  5
C5
330
C2
100
AcDbEntity
  8
0
100
AcDbLine
 10
0.0
 20
0.0
 30
0.0
 11
-1.0
 21
0.0
 31
0.0
  0
LINE
  5
C6
330
C2
100
AcDbEntity
  8
0
100
AcDbLine
 10
0.0
 20
0.0
 30
0.0
 11
-1.0
 21
0.1667
 31
0.0
  0
ENDBLK
  5
C4
330
C2
100
AcDbEntity
  8
0
100
AcDbBlockEnd
  0
BLOCK
  5
C8
330
C7
100
AcDbEntity
  8
0
100
AcDbBlockBegin
  2
HalfBlankedBoxStart
 70
     0
 10
0.0
 20
0.0
 30
0.0
  3
HalfBlankedBoxStart
  1

  0
LINE
  5
CA
330
C7
100
AcDbEntity
  8
0
100
AcDbLine
 10
-0.5
 20
0.0
 30
0.0
 11
-1.0
 21
0.0
 31
0.0
  0
LWPOLYLINE
  5
CB
330
C7
100
AcDbEntity
  8
0
100
AcDbPolyline
 90
        4
 70
     1
 43
0.0
 10
-0.5
 20
0.0
 10
0.5
 20
0.0
 10
0.5
 20
-0.5
 10
-0.5
 20
-0.5
  0
ENDBLK
  5
C9
330
C7
100
AcDbEntity
  8
0
100
AcDbBlockEnd
  0
BLOCK
  5
CD
330
CC
100
AcDbEntity
  8
0
100
AcDbBlockBegin
  2
HalfBlankedBoxEnd
 70
     0
 10
0.0
 20
0.0
 30
0.0
  3
HalfBlankedBoxEnd
  1

  0
LINE
  5
CF
330
CC
100
AcDbEntity
  8
0
100
AcDbLine
 10
-0.5
 20
0.0
 30
0.0
 11
-1.0
 21
0.0
 31
0.0
  0
LWPOLYLINE
  5
D0
330
CC
100
AcDbEntity
  8
0
100
AcDbPolyline
 90
        4
 70
     1
 43
0.0
 10
-0.5
 20
0.5
 10
0.5
 20
0.5
 10
0.5
 20
0.0
 10
-0.5
 20
0.0
  0
ENDBLK
  5
CE
330
CC
100
AcDbEntity
  8
0
100
AcDbBlockEnd
  0
BLOCK
  5
D2
330
D1
100
AcDbEntity
  8
0
100
AcDbBlockBegin
  2
HalfFilledBoxStart
 70
     0
 10
0.0
 20
0.0
 30
0.0
  3
HalfFilledBoxStart
  1

  0
LINE
  5
D4
330
D1
100
AcDbEntity
  8
0
100
AcDbLine
 10
-0.5
 20
0.0
 30
0.0
 11
-1.0
 21
0.0
 31
0.0
  0
SOLID
  5
D5
330
D1
100
AcDbEntity
  8
0
100
AcDbTrace
 10
-0.5
 20
0.0
 30
0.0
 11
0.5
 21
0.0
 31
0.0
 12
-0.5
 22
-0.5
 32
0.0
 13
0.5
 23
-0.5
 33
0.0
  0
ENDBLK
  5
D3
330
D1
100
AcDbEntity
  8
0
100
AcDbBlockEnd
  0
BLOCK
  5
D7
330
D6
100
AcDbEntity
  8
0
100
AcDbBlockBegin
  2
HalfFilledBoxEnd
 70
     0
 10
0.0
 20
0.0
 30
0.0
  3
HalfFilledBoxEnd
  1

  0
LINE
  5
D9
330
D6
100
AcDbEntity
  8
0
100
AcDbLine
 10
-0.5
 20
0.0
 30
0.0
 11
-1.0
 21
0.0
 31
0.0
  0
SOLID
  5
DA
330
D6
100
AcDbEntity
  8
0
100
AcDbTrace
 10
-0.5
 20
0.5
 30
0.0
 11
0.5
 21
0.5
 31
0.0
 12
-0.5
 22
0.0
 32
0.0
 13
0.5
 23
0.0
 33
0.0
  0
ENDBLK
  5
D8
330
D6
100
AcDbEntity
  8
0
100
AcDbBlockEnd
  0
BLOCK
  5
DC
330
DB
100
AcDbEntity
  8
0
100
AcDbBlockBegin
  2
_INTEGRAL
 70
     0
 10
0.0
 20
0.0
 30
0.0
  3
_INTEGRAL
  1

  0
ARC
  5
DE
330
DB
100
AcDbEntity
  8
0
  6
ByBlock
 62
     0
370
    -2
100
AcDbCircle
 10
0.444888
 20
-0.091335
 30
0.0
 40
0.4541666700000002
100
AcDbArc
 50
102.0
 51
168.0
  0
ARC
  5
DF
330
DB
100
AcDbEntity
  8
0
  6
ByBlock
 62
     0
370
    -2
100
AcDbCircle
 10
-0.444888
 20
0.091335
 30
0.0
 40
0.4541666700000002
100
AcDbArc
 50
281.9999999999999
 51
348.0
  0
ENDBLK
  5
DD
330
DB
100
AcDbEntity
  8
0
100
AcDbBlockEnd
  0
BLOCK
  5
E1
330
E0
100
AcDbEntity
  8
0
100
AcDbBlockBegin
  2
_OPEN
 70
     0
 10
0.0
 20
0.0
 30
0.0
  3
_OPEN
  1

  0
LINE
  5
E3
330
E0
100
AcDbEntity
  8
0
  6
ByBlock
 62
     0
370
    -2
100
AcDbLine
 10
-1.0
 20
0.166667
 30
0.0
 11
0.0
 21
0.0
 31
0.0
  0
LINE
  5
E4
330
E0
100
AcDbEntity
  8
0
  6
ByBlock
 62
     0
370
    -2
100
AcDbLine
 10
-1.0
 20
-0.166667
 30
0.0
 11
0.0
 21
0.0
 31
0.0
  0
LINE
  5
E5
330
E0
100
AcDbEntity
  8
0
  6
ByBlock
 62
     0
370
    -2
100
AcDbLine
 10
0.0
 20
0.0
 30
0.0
 11
-1.0
 21
0.0
 31
0.0
  0
ENDBLK
  5
E2
330
E0
100
AcDbEntity
  8
0
100
AcDbBlockEnd
  0
BLOCK
  5
E7
330
E6
100
AcDbEntity
  8
0
100
AcDbBlockBegin
  2
_OBLIQUE
 70
     0
 10
0.0
 20
0.0
 30
0.0
  3
_OBLIQUE
  1

  0
LINE
  5
E9
330
E6
100
AcDbEntity
  8
0
  6
ByBlock
 62
     0
370
    -2
100
AcDbLine
 10
-0.5
 20
-0.5
 30
0.0
 11
0.5
 21
0.5
 31
0.0
  0
ENDBLK
  5
E8
330
E6
100
AcDbEntity
  8
0
100
AcDbBlockEnd
  0
BLOCK
  5
EB
330
EA
100
AcDbEntity
  8
0
100
AcDbBlockBegin
  2
_CLOSED
 70
     0
 10
0.0
 20
0.0
 30
0.0
  3
_CLOSED
  1

  0
LINE
  5
ED
330
EA
100
AcDbEntity
  8
0
  6
ByBlock
 62
     0
370
    -2
100
AcDbLine
 10
-1.0
 20
0.166667
 30
0.0
 11
0.0
 21
0.0
 31
0.0
  0
LINE
  5
EE
330
EA
100
AcDbEntity
  8
0
  6
ByBlock
 62
     0
370
    -2
100
AcDbLine
 10
0.0
 20
0.0
 30
0.0
 11
-1.0
 21
-0.166667
 31
0.0
  0
LINE
  5
EF
330
EA
100
AcDbEntity
  8
0
  6
ByBlock
 62
     0
370
    -2
100
AcDbLine
 10
-1.0
 20
0.166667
 30
0.0
 11
-1.0
 21
-0.166667
 31
0.0
  0
LINE
  5
F0
330
EA
100
AcDbEntity
  8
0
  6
ByBlock
 62
     0
370
    -2
100
AcDbLine
 10
0.0
 20
0.0
 30
0.0
 11
-1.0
 21
0.0
 31
0.0
  0
ENDBLK
  5
EC
330
EA
100
AcDbEntity
  8
0
100
AcDbBlockEnd
  0
BLOCK
  5
F2
330
F1
100
AcDbEntity
  8
0
100
AcDbBlockBegin
  2
_NONE
 70
     0
 10
0.0
 20
0.0
 30
0.0
  3
_NONE
  1

  0
ENDBLK
  5
F3
330
F1
100
AcDbEntity
  8
0
100
AcDbBlockEnd
  0
BLOCK
  5
202
330
201
100
AcDbEntity
  8
0
100
AcDbBlockBegin
  2
*D20
 70
     1
 10
0.0
 20
0.0
 30
0.0
  3
*D20
  1

  0
LINE
  5
204
330
201
100
AcDbEntity
  8
D-STR-DIM
100
AcDbLine
 10
676.6086815415474
 20
788.7688349005017
 30
0.0
 11
676.6086815415474
 21
778.7688349005017
 31
0.0
  0
LINE
  5
205
330
201
100
AcDbEntity
  8
D-STR-DIM
100
AcDbLine
 10
710.2172109517932
 20
788.7688349005093
 30
0.0
 11
670.6086815415474
 21
788.7688349005003
 31
0.0
  0
LINE
  5
206
330
201
100
AcDbEntity
  8
D-STR-DIM
100
AcDbLine
 10
710.2172109517932
 20
778.7688349005093
 30
0.0
 11
670.6086815415474
 21
778.7688349005003
 31
0.0
  0
HATCH
  5
207
330
201
100
AcDbEntity
  8
D-STR-DIM
  6
Continuous
100
AcDbHatch
 10
0.0
 20
0.0
 30
0.0
210
0.0
220
0.0
230
1.0
  2
SOLID
 70
     1
 71
     0
 91
        1
 92
        3
 72
     0
 73
     1
 93
       70
 10
676.6086815415471
 20
786.8938349005015
 10
676.4406078373532
 20
786.9013830992606
 10
676.2738873637998
 20
786.9239669218791
 10
676.1098624561096
 20
786.9614045366968
 10
675.9498537463946
 20
787.0133945180521
 10
675.7951495307017
 20
787.0795182731845
 10
675.646995396411
 20
787.159243412498
 10
675.5065841934988
 20
787.2519280360485
 10
675.3750464304101
 20
787.3568259017448
 10
675.2534411718707
 20
787.4730924336512
 10
675.1427475119196
 20
787.5997915220165
 10
675.0438566908197
 20
787.7359030602789
 10
674.9575649193158
 20
787.8803311583647
 10
674.8845669680132
 20
788.0319129661504
 10
674.8254505734937
 20
788.1894280360485
 10
674.7806917062063
 20
788.3516081493334
 10
674.7506507382322
 20
788.5171475270935
 10
674.7355695417821
 20
788.6847133435943
 10
674.7355695417821
 20
788.8529564574088
 10
674.7506507382322
 20
789.0205222739097
 10
674.7806917062063
 20
789.1860616516696
 10
674.8254505734937
 20
789.3482417649546
 10
674.8845669680132
 20
789.5057568348527
 10
674.9575649193158
 20
789.6573386426385
 10
675.0438566908197
 20
789.8017667407242
 10
675.1427475119196
 20
789.9378782789867
 10
675.2534411718707
 20
790.0645773673519
 10
675.3750464304101
 20
790.1808438992583
 10
675.5065841934988
 20
790.2857417649546
 10
675.646995396411
 20
790.3784263885051
 10
675.7951495307017
 20
790.4581515278185
 10
675.9498537463946
 20
790.5242752829511
 10
676.1098624561096
 20
790.5762652643063
 10
676.2738873637998
 20
790.613702879124
 10
676.4406078373532
 20
790.6362867017426
 10
676.6086815415471
 20
790.6438349005015
 10
676.7767552457411
 20
790.6362867017426
 10
676.9434757192946
 20
790.613702879124
 10
677.1075006269846
 20
790.5762652643063
 10
677.2675093366997
 20
790.5242752829511
 10
677.4222135523926
 20
790.4581515278185
 10
677.5703676866832
 20
790.3784263885051
 10
677.7107788895955
 20
790.2857417649546
 10
677.8423166526842
 20
790.1808438992583
 10
677.9639219112235
 20
790.0645773673519
 10
678.0746155711747
 20
789.9378782789867
 10
678.1735063922745
 20
789.8017667407242
 10
678.2597981637785
 20
789.6573386426385
 10
678.3327961150811
 20
789.5057568348527
 10
678.3919125096006
 20
789.3482417649546
 10
678.436671376888
 20
789.1860616516696
 10
678.466712344862
 20
789.0205222739097
 10
678.4817935413122
 20
788.8529564574088
 10
678.4817935413122
 20
788.6847133435943
 10
678.466712344862
 20
788.5171475270935
 10
678.436671376888
 20
788.3516081493334
 10
678.3919125096006
 20
788.1894280360485
 10
678.3327961150811
 20
788.0319129661504
 10
678.2597981637785
 20
787.8803311583647
 10
678.1735063922745
 20
787.7359030602789
 10
678.0746155711747
 20
787.5997915220165
 10
677.9639219112235
 20
787.4730924336512
 10
677.8423166526842
 20
787.3568259017448
 10
677.7107788895955
 20
787.2519280360485
 10
677.5703676866832
 20
787.159243412498
 10
677.4222135523926
 20
787.0795182731845
 10
677.2675093366997
 20
787.0133945180521
 10
677.1075006269846
 20
786.9614045366968
 10
676.9434757192946
 20
786.9239669218791
 10
676.7767552457411
 20
786.9013830992606
 97
        0
 75
     0
 76
     1
 98
        0
450
        0
451
        0
460
0.0
461
0.0
452
        1
462
0.0
453
        0
470

  0
INSERT
  5
20B
330
201
100
AcDbEntity
  8
D-STR-DIM
  6
Continuous
100
AcDbBlockReference
  2
CLAIR_HATCH_PAINT1
 10
0.0
 20
0.0
 30
0.0
  0
HATCH
  5
20E
330
201
100
AcDbEntity
  8
D-STR-DIM
  6
Continuous
100
AcDbHatch
 10
0.0
 20
0.0
 30
0.0
210
0.0
220
0.0
230
1.0
  2
SOLID
 70
     1
 71
     0
 91
        1
 92
        3
 72
     0
 73
     1
 93
       70
 10
676.6086815415474
 20
780.6438349005015
 10
676.7767552457414
 20
780.6362867017426
 10
676.9434757192948
 20
780.6137028791241
 10
677.1075006269849
 20
780.5762652643063
 10
677.2675093366999
 20
780.524275282951
 10
677.4222135523928
 20
780.4581515278186
 10
677.5703676866835
 20
780.378426388505
 10
677.7107788895957
 20
780.2857417649546
 10
677.8423166526843
 20
780.1808438992583
 10
677.9639219112238
 20
780.0645773673519
 10
678.0746155711749
 20
779.9378782789866
 10
678.1735063922748
 20
779.8017667407243
 10
678.2597981637787
 20
779.6573386426384
 10
678.3327961150813
 20
779.5057568348527
 10
678.3919125096008
 20
779.3482417649546
 10
678.4366713768882
 20
779.1860616516697
 10
678.4667123448623
 20
779.0205222739097
 10
678.4817935413124
 20
778.8529564574088
 10
678.4817935413124
 20
778.6847133435943
 10
678.4667123448623
 20
778.5171475270934
 10
678.4366713768882
 20
778.3516081493335
 10
678.3919125096008
 20
778.1894280360485
 10
678.3327961150813
 20
778.0319129661505
 10
678.2597981637787
 20
777.8803311583646
 10
678.1735063922748
 20
777.7359030602789
 10
678.0746155711749
 20
777.5997915220165
 10
677.9639219112238
 20
777.4730924336512
 10
677.8423166526843
 20
777.3568259017448
 10
677.7107788895957
 20
777.2519280360485
 10
677.5703676866835
 20
777.1592434124981
 10
677.4222135523928
 20
777.0795182731846
 10
677.2675093366999
 20
777.013394518052
 10
677.1075006269849
 20
776.9614045366968
 10
676.9434757192948
 20
776.9239669218791
 10
676.7767552457414
 20
776.9013830992605
 10
676.6086815415474
 20
776.8938349005016
 10
676.4406078373534
 20
776.9013830992605
 10
676.2738873637999
 20
776.9239669218791
 10
676.1098624561099
 20
776.9614045366968
 10
675.9498537463948
 20
777.013394518052
 10
675.795149530702
 20
777.0795182731846
 10
675.6469953964113
 20
777.1592434124981
 10
675.5065841934991
 20
777.2519280360485
 10
675.3750464304104
 20
777.3568259017448
 10
675.253441171871
 20
777.4730924336512
 10
675.1427475119198
 20
777.5997915220165
 10
675.04385669082
 20
777.7359030602789
 10
674.957564919316
 20
777.8803311583646
 10
674.8845669680134
 20
778.0319129661505
 10
674.825450573494
 20
778.1894280360485
 10
674.7806917062065
 20
778.3516081493335
 10
674.7506507382325
 20
778.5171475270934
 10
674.7355695417824
 20
778.6847133435943
 10
674.7355695417824
 20
778.8529564574088
 10
674.7506507382325
 20
779.0205222739097
 10
674.7806917062065
 20
779.1860616516697
 10
674.825450573494
 20
779.3482417649546
 10
674.8845669680134
 20
779.5057568348527
 10
674.957564919316
 20
779.6573386426384
 10
675.04385669082
 20
779.8017667407243
 10
675.1427475119198
 20
779.9378782789866
 10
675.253441171871
 20
780.0645773673519
 10
675.3750464304104
 20
780.1808438992583
 10
675.5065841934991
 20
780.2857417649546
 10
675.6469953964113
 20
780.378426388505
 10
675.795149530702
 20
780.4581515278186
 10
675.9498537463948
 20
780.524275282951
 10
676.1098624561099
 20
780.5762652643063
 10
676.2738873637999
 20
780.6137028791241
 10
676.4406078373534
 20
780.6362867017426
 97
        0
 75
     0
 76
     1
 98
        0
450
        0
451
        0
460
0.0
461
0.0
452
        1
462
0.0
453
        0
470

  0
INSERT
  5
212
330
201
100
AcDbEntity
  8
D-STR-DIM
  6
Continuous
100
AcDbBlockReference
  2
CLAIR_HATCH_PAINT2
 10
0.0
 20
0.0
 30
0.0
  0
TEXT
  5
215
330
201
100
AcDbEntity
  8
D-STR-DIM
100
AcDbText
 10
672.169881522227
 20
775.6438349005202
 30
0.0
 40
12.5
  1
10
 50
90.0
  7
YOKO_GOTHIC
 72
     1
 11
659.669881522227
 21
783.7688349005202
 31
0.0
100
AcDbText
 73
     3
  0
ENDBLK
  5
203
330
201
100
AcDbEntity
  8
0
100
AcDbBlockEnd
  0
BLOCK
  5
209
330
208
100
AcDbEntity
  8
0
100
AcDbBlockBegin
  2
CLAIR_HATCH_PAINT1
 70
     0
 10
0.0
 20
0.0
 30
0.0
  3
CLAIR_HATCH_PAINT1
  1

  0
ARC
  5
20C
330
208
100
AcDbEntity
  8
D-STR-DIM
  6
Continuous
370
     0
100
AcDbCircle
 10
676.6086815415471
 20
788.7688349005015
 30
0.0
 40
1.875
100
AcDbArc
 50
90.0
 51
270.0
  0
ARC
  5
20D
330
208
100
AcDbEntity
  8
D-STR-DIM
  6
Continuous
370
     0
100
AcDbCircle
 10
676.6086815415471
 20
788.7688349005015
 30
0.0
 40
1.875
100
AcDbArc
 50
270.0
 51
90.0
  0
ENDBLK
  5
20A
330
208
100
AcDbEntity
  8
0
100
AcDbBlockEnd
  0
BLOCK
  5
210
330
20F
100
AcDbEntity
  8
0
100
AcDbBlockBegin
  2
CLAIR_HATCH_PAINT2
 70
     0
 10
0.0
 20
0.0
 30
0.0
  3
CLAIR_HATCH_PAINT2
  1

  0
ARC
  5
213
330
20F
100
AcDbEntity
  8
D-STR-DIM
  6
Continuous
370
     0
100
AcDbCircle
 10
676.6086815415474
 20
778.7688349005016
 30
0.0
 40
1.875
100
AcDbArc
 50
270.0
 51
90.0
  0
ARC
  5
214
330
20F
100
AcDbEntity
  8
D-STR-DIM
  6
Continuous
370
     0
100
AcDbCircle
 10
676.6086815415474
 20
778.7688349005016
 30
0.0
 40
1.875
100
AcDbArc
 50
90.0
 51
270.0
  0
ENDBLK
  5
211
330
20F
100
AcDbEntity
  8
0
100
AcDbBlockEnd
  0
BLOCK
  5
218
330
217
100
AcDbEntity
  8
0
100
AcDbBlockBegin
  2
*D23
 70
     1
 10
0.0
 20
0.0
 30
0.0
  3
*D23
  1

  0
LINE
  5
21A
330
217
100
AcDbEntity
  8
D-STR-DIM
100
AcDbLine
 10
676.6086815415564
 20
778.7688349005017
 30
0.0
 11
676.6086815415564
 21
748.7688349005017
 31
0.0
  0
LINE
  5
21B
330
217
100
AcDbEntity
  8
D-STR-DIM
100
AcDbLine
 10
710.2172109517932
 20
778.7688349005093
 30
0.0
 11
670.6086815415565
 21
778.7688349005003
 31
0.0
  0
LINE
  5
21C
330
217
100
AcDbEntity
  8
D-STR-DIM
100
AcDbLine
 10
710.2172109517932
 20
748.7688349005093
 30
0.0
 11
670.6086815415565
 21
748.7688349005003
 31
0.0
  0
HATCH
  5
21D
330
217
100
AcDbEntity
  8
D-STR-DIM
  6
Continuous
100
AcDbHatch
 10
0.0
 20
0.0
 30
0.0
210
0.0
220
0.0
230
1.0
  2
SOLID
 70
     1
 71
     0
 91
        1
 92
        3
 72
     0
 73
     1
 93
       70
 10
676.6086815415563
 20
776.8938349005016
 10
676.4406078373623
 20
776.9013830992605
 10
676.2738873638088
 20
776.9239669218791
 10
676.1098624561188
 20
776.9614045366968
 10
675.9498537464037
 20
777.013394518052
 10
675.7951495307109
 20
777.0795182731846
 10
675.6469953964201
 20
777.1592434124981
 10
675.5065841935079
 20
777.2519280360485
 10
675.3750464304192
 20
777.3568259017448
 10
675.2534411718799
 20
777.4730924336512
 10
675.1427475119287
 20
777.5997915220165
 10
675.0438566908289
 20
777.7359030602789
 10
674.9575649193249
 20
777.8803311583646
 10
674.8845669680223
 20
778.0319129661505
 10
674.8254505735028
 20
778.1894280360485
 10
674.7806917062153
 20
778.3516081493335
 10
674.7506507382413
 20
778.5171475270934
 10
674.7355695417913
 20
778.6847133435943
 10
674.7355695417913
 20
778.8529564574088
 10
674.7506507382413
 20
779.0205222739097
 10
674.7806917062153
 20
779.1860616516697
 10
674.8254505735028
 20
779.3482417649546
 10
674.8845669680223
 20
779.5057568348527
 10
674.9575649193249
 20
779.6573386426384
 10
675.0438566908289
 20
779.8017667407243
 10
675.1427475119287
 20
779.9378782789866
 10
675.2534411718799
 20
780.0645773673519
 10
675.3750464304192
 20
780.1808438992583
 10
675.5065841935079
 20
780.2857417649546
 10
675.6469953964201
 20
780.378426388505
 10
675.7951495307109
 20
780.4581515278186
 10
675.9498537464037
 20
780.524275282951
 10
676.1098624561188
 20
780.5762652643063
 10
676.2738873638088
 20
780.6137028791241
 10
676.4406078373623
 20
780.6362867017426
 10
676.6086815415563
 20
780.6438349005015
 10
676.7767552457502
 20
780.6362867017426
 10
676.9434757193037
 20
780.6137028791241
 10
677.1075006269938
 20
780.5762652643063
 10
677.2675093367088
 20
780.524275282951
 10
677.4222135524016
 20
780.4581515278186
 10
677.5703676866924
 20
780.378426388505
 10
677.7107788896046
 20
780.2857417649546
 10
677.8423166526932
 20
780.1808438992583
 10
677.9639219112326
 20
780.0645773673519
 10
678.0746155711838
 20
779.9378782789866
 10
678.1735063922837
 20
779.8017667407243
 10
678.2597981637876
 20
779.6573386426384
 10
678.3327961150902
 20
779.5057568348527
 10
678.3919125096097
 20
779.3482417649546
 10
678.4366713768971
 20
779.1860616516697
 10
678.4667123448712
 20
779.0205222739097
 10
678.4817935413212
 20
778.8529564574088
 10
678.4817935413212
 20
778.6847133435943
 10
678.4667123448712
 20
778.5171475270934
 10
678.4366713768971
 20
778.3516081493335
 10
678.3919125096097
 20
778.1894280360485
 10
678.3327961150902
 20
778.0319129661505
 10
678.2597981637876
 20
777.8803311583646
 10
678.1735063922837
 20
777.7359030602789
 10
678.0746155711838
 20
777.5997915220165
 10
677.9639219112326
 20
777.4730924336512
 10
677.8423166526932
 20
777.3568259017448
 10
677.7107788896046
 20
777.2519280360485
 10
677.5703676866924
 20
777.1592434124981
 10
677.4222135524016
 20
777.0795182731846
 10
677.2675093367088
 20
777.013394518052
 10
677.1075006269938
 20
776.9614045366968
 10
676.9434757193037
 20
776.9239669218791
 10
676.7767552457502
 20
776.9013830992605
 97
        0
 75
     0
 76
     1
 98
        0
450
        0
451
        0
460
0.0
461
0.0
452
        1
462
0.0
453
        0
470

  0
INSERT
  5
221
330
217
100
AcDbEntity
  8
D-STR-DIM
  6
Continuous
100
AcDbBlockReference
  2
CLAIR_HATCH_PAINT3
 10
0.0
 20
0.0
 30
0.0
  0
HATCH
  5
224
330
217
100
AcDbEntity
  8
D-STR-DIM
  6
Continuous
100
AcDbHatch
 10
0.0
 20
0.0
 30
0.0
210
0.0
220
0.0
230
1.0
  2
SOLID
 70
     1
 71
     0
 91
        1
 92
        3
 72
     0
 73
     1
 93
       70
 10
676.6086815415563
 20
750.6438349005016
 10
676.7767552457502
 20
750.6362867017426
 10
676.9434757193037
 20
750.613702879124
 10
677.1075006269938
 20
750.5762652643063
 10
677.2675093367088
 20
750.524275282951
 10
677.4222135524016
 20
750.4581515278186
 10
677.5703676866924
 20
750.3784263885051
 10
677.7107788896046
 20
750.2857417649546
 10
677.8423166526932
 20
750.1808438992583
 10
677.9639219112326
 20
750.0645773673519
 10
678.0746155711838
 20
749.9378782789866
 10
678.1735063922837
 20
749.8017667407242
 10
678.2597981637876
 20
749.6573386426384
 10
678.3327961150902
 20
749.5057568348527
 10
678.3919125096097
 20
749.3482417649546
 10
678.4366713768971
 20
749.1860616516696
 10
678.4667123448712
 20
749.0205222739096
 10
678.4817935413212
 20
748.8529564574088
 10
678.4817935413212
 20
748.6847133435944
 10
678.4667123448712
 20
748.5171475270934
 10
678.4366713768971
 20
748.3516081493335
 10
678.3919125096097
 20
748.1894280360485
 10
678.3327961150902
 20
748.0319129661504
 10
678.2597981637876
 20
747.8803311583646
 10
678.1735063922837
 20
747.7359030602789
 10
678.0746155711838
 20
747.5997915220164
 10
677.9639219112326
 20
747.4730924336512
 10
677.8423166526932
 20
747.3568259017448
 10
677.7107788896046
 20
747.2519280360485
 10
677.5703676866924
 20
747.159243412498
 10
677.4222135524016
 20
747.0795182731846
 10
677.2675093367088
 20
747.0133945180521
 10
677.1075006269938
 20
746.9614045366967
 10
676.9434757193037
 20
746.9239669218791
 10
676.7767552457502
 20
746.9013830992605
 10
676.6086815415563
 20
746.8938349005015
 10
676.4406078373623
 20
746.9013830992605
 10
676.2738873638088
 20
746.9239669218791
 10
676.1098624561188
 20
746.9614045366967
 10
675.9498537464037
 20
747.0133945180521
 10
675.7951495307109
 20
747.0795182731846
 10
675.6469953964201
 20
747.159243412498
 10
675.5065841935079
 20
747.2519280360485
 10
675.3750464304192
 20
747.3568259017448
 10
675.2534411718799
 20
747.4730924336512
 10
675.1427475119287
 20
747.5997915220164
 10
675.0438566908289
 20
747.7359030602789
 10
674.9575649193249
 20
747.8803311583646
 10
674.8845669680223
 20
748.0319129661504
 10
674.8254505735028
 20
748.1894280360485
 10
674.7806917062153
 20
748.3516081493335
 10
674.7506507382413
 20
748.5171475270934
 10
674.7355695417913
 20
748.6847133435944
 10
674.7355695417913
 20
748.8529564574088
 10
674.7506507382413
 20
749.0205222739096
 10
674.7806917062153
 20
749.1860616516696
 10
674.8254505735028
 20
749.3482417649546
 10
674.8845669680223
 20
749.5057568348527
 10
674.9575649193249
 20
749.6573386426384
 10
675.0438566908289
 20
749.8017667407242
 10
675.1427475119287
 20
749.9378782789866
 10
675.2534411718799
 20
750.0645773673519
 10
675.3750464304192
 20
750.1808438992583
 10
675.5065841935079
 20
750.2857417649546
 10
675.6469953964201
 20
750.3784263885051
 10
675.7951495307109
 20
750.4581515278186
 10
675.9498537464037
 20
750.524275282951
 10
676.1098624561188
 20
750.5762652643063
 10
676.2738873638088
 20
750.613702879124
 10
676.4406078373623
 20
750.6362867017426
 97
        0
 75
     0
 76
     1
 98
        0
450
        0
451
        0
460
0.0
461
0.0
452
        1
462
0.0
453
        0
470

  0
INSERT
  5
228
330
217
100
AcDbEntity
  8
D-STR-DIM
  6
Continuous
100
AcDbBlockReference
  2
CLAIR_HATCH_PAINT4
 10
0.0
 20
0.0
 30
0.0
  0
TEXT
  5
22B
330
217
100
AcDbEntity
  8
D-STR-DIM
100
AcDbText
 10
672.169881522227
 20
755.6438349005202
 30
0.0
 40
12.5
  1
30
 50
90.0
  7
YOKO_GOTHIC
 72
     1
 11
659.669881522227
 21
763.7688349005202
 31
0.0
100
AcDbText
 73
     3
  0
ENDBLK
  5
219
330
217
100
AcDbEntity
  8
0
100
AcDbBlockEnd
  0
BLOCK
  5
21F
330
21E
100
AcDbEntity
  8
0
100
AcDbBlockBegin
  2
CLAIR_HATCH_PAINT3
 70
     0
 10
0.0
 20
0.0
 30
0.0
  3
CLAIR_HATCH_PAINT3
  1

  0
ARC
  5
222
330
21E
100
AcDbEntity
  8
D-STR-DIM
  6
Continuous
370
     0
100
AcDbCircle
 10
676.6086815415563
 20
778.7688349005016
 30
0.0
 40
1.875
100
AcDbArc
 50
90.0
 51
270.0
  0
ARC
  5
223
330
21E
100
AcDbEntity
  8
D-STR-DIM
  6
Continuous
370
     0
100
AcDbCircle
 10
676.6086815415563
 20
778.7688349005016
 30
0.0
 40
1.875
100
AcDbArc
 50
270.0
 51
90.0
  0
ENDBLK
  5
220
330
21E
100
AcDbEntity
  8
0
100
AcDbBlockEnd
  0
BLOCK
  5
226
330
225
100
AcDbEntity
  8
0
100
AcDbBlockBegin
  2
CLAIR_HATCH_PAINT4
 70
     0
 10
0.0
 20
0.0
 30
0.0
  3
CLAIR_HATCH_PAINT4
  1

  0
ARC
  5
229
330
225
100
AcDbEntity
  8
D-STR-DIM
  6
Continuous
370
     0
100
AcDbCircle
 10
676.6086815415563
 20
748.7688349005016
 30
0.0
 40
1.875
100
AcDbArc
 50
270.0
 51
90.0
  0
ARC
  5
22A
330
225
100
AcDbEntity
  8
D-STR-DIM
  6
Continuous
370
     0
100
AcDbCircle
 10
676.6086815415563
 20
748.7688349005016
 30
0.0
 40
1.875
100
AcDbArc
 50
90.0
 51
270.0
  0
ENDBLK
  5
227
330
225
100
AcDbEntity
  8
0
100
AcDbBlockEnd
  0
BLOCK
  5
22F
330
22E
100
AcDbEntity
  8
0
100
AcDbBlockBegin
  2
*D26
 70
     1
 10
0.0
 20
0.0
 30
0.0
  3
*D26
  1

  0
LINE
  5
231
330
22E
100
AcDbEntity
  8
D-STR-DIM
100
AcDbLine
 10
676.6086815415564
 20
748.7688349005017
 30
0.0
 11
676.6086815415564
 21
648.7688349005017
 31
0.0
  0
LINE
  5
232
330
22E
100
AcDbEntity
  8
D-STR-DIM
100
AcDbLine
 10
710.2172109517932
 20
748.7688349005093
 30
0.0
 11
670.6086815415565
 21
748.7688349005003
 31
0.0
  0
LINE
  5
233
330
22E
100
AcDbEntity
  8
D-STR-DIM
100
AcDbLine
 10
710.2172109517932
 20
648.7688349005093
 30
0.0
 11
670.6086815415565
 21
648.7688349005003
 31
0.0
  0
HATCH
  5
234
330
22E
100
AcDbEntity
  8
D-STR-DIM
  6
Continuous
100
AcDbHatch
 10
0.0
 20
0.0
 30
0.0
210
0.0
220
0.0
230
1.0
  2
SOLID
 70
     1
 71
     0
 91
        1
 92
        3
 72
     0
 73
     1
 93
       70
 10
676.6086815415564
 20
746.8938349005015
 10
676.4406078373625
 20
746.9013830992605
 10
676.2738873638091
 20
746.9239669218791
 10
676.1098624561189
 20
746.9614045366967
 10
675.949853746404
 20
747.0133945180521
 10
675.7951495307111
 20
747.0795182731846
 10
675.6469953964203
 20
747.159243412498
 10
675.5065841935081
 20
747.2519280360485
 10
675.3750464304195
 20
747.3568259017448
 10
675.2534411718801
 20
747.4730924336512
 10
675.142747511929
 20
747.5997915220164
 10
675.043856690829
 20
747.7359030602789
 10
674.9575649193251
 20
747.8803311583646
 10
674.8845669680226
 20
748.0319129661504
 10
674.825450573503
 20
748.1894280360485
 10
674.7806917062156
 20
748.3516081493335
 10
674.7506507382415
 20
748.5171475270934
 10
674.7355695417915
 20
748.6847133435944
 10
674.7355695417915
 20
748.8529564574088
 10
674.7506507382415
 20
749.0205222739096
 10
674.7806917062156
 20
749.1860616516696
 10
674.825450573503
 20
749.3482417649546
 10
674.8845669680226
 20
749.5057568348527
 10
674.9575649193251
 20
749.6573386426384
 10
675.043856690829
 20
749.8017667407242
 10
675.142747511929
 20
749.9378782789866
 10
675.2534411718801
 20
750.0645773673519
 10
675.3750464304195
 20
750.1808438992583
 10
675.5065841935081
 20
750.2857417649546
 10
675.6469953964203
 20
750.3784263885051
 10
675.7951495307111
 20
750.4581515278186
 10
675.949853746404
 20
750.524275282951
 10
676.1098624561189
 20
750.5762652643063
 10
676.2738873638091
 20
750.613702879124
 10
676.4406078373625
 20
750.6362867017426
 10
676.6086815415564
 20
750.6438349005016
 10
676.7767552457504
 20
750.6362867017426
 10
676.9434757193039
 20
750.613702879124
 10
677.1075006269939
 20
750.5762652643063
 10
677.267509336709
 20
750.524275282951
 10
677.4222135524019
 20
750.4581515278186
 10
677.5703676866926
 20
750.3784263885051
 10
677.7107788896048
 20
750.2857417649546
 10
677.8423166526935
 20
750.1808438992583
 10
677.9639219112328
 20
750.0645773673519
 10
678.074615571184
 20
749.9378782789866
 10
678.1735063922838
 20
749.8017667407242
 10
678.2597981637878
 20
749.6573386426384
 10
678.3327961150904
 20
749.5057568348527
 10
678.3919125096099
 20
749.3482417649546
 10
678.4366713768974
 20
749.1860616516696
 10
678.4667123448714
 20
749.0205222739096
 10
678.4817935413215
 20
748.8529564574088
 10
678.4817935413215
 20
748.6847133435944
 10
678.4667123448714
 20
748.5171475270934
 10
678.4366713768974
 20
748.3516081493335
 10
678.3919125096099
 20
748.1894280360485
 10
678.3327961150904
 20
748.0319129661504
 10
678.2597981637878
 20
747.8803311583646
 10
678.1735063922838
 20
747.7359030602789
 10
678.074615571184
 20
747.5997915220164
 10
677.9639219112328
 20
747.4730924336512
 10
677.8423166526935
 20
747.3568259017448
 10
677.7107788896048
 20
747.2519280360485
 10
677.5703676866926
 20
747.159243412498
 10
677.4222135524019
 20
747.0795182731846
 10
677.267509336709
 20
747.0133945180521
 10
677.1075006269939
 20
746.9614045366967
 10
676.9434757193039
 20
746.9239669218791
 10
676.7767552457504
 20
746.9013830992605
 97
        0
 75
     0
 76
     1
 98
        0
450
        0
451
        0
460
0.0
461
0.0
452
        1
462
0.0
453
        0
470

  0
INSERT
  5
238
330
22E
100
AcDbEntity
  8
D-STR-DIM
  6
Continuous
100
AcDbBlockReference
  2
CLAIR_HATCH_PAINT5
 10
0.0
 20
0.0
 30
0.0
  0
HATCH
  5
23B
330
22E
100
AcDbEntity
  8
D-STR-DIM
  6
Continuous
100
AcDbHatch
 10
0.0
 20
0.0
 30
0.0
210
0.0
220
0.0
230
1.0
  2
SOLID
 70
     1
 71
     0
 91
        1
 92
        3
 72
     0
 73
     1
 93
       70
 10
676.6086815415564
 20
650.6438349005016
 10
676.7767552457503
 20
650.6362867017426
 10
676.9434757193038
 20
650.613702879124
 10
677.1075006269938
 20
650.5762652643063
 10
677.2675093367089
 20
650.524275282951
 10
677.4222135524017
 20
650.4581515278186
 10
677.5703676866925
 20
650.3784263885051
 10
677.7107788896047
 20
650.2857417649546
 10
677.8423166526934
 20
650.1808438992583
 10
677.9639219112327
 20
650.0645773673519
 10
678.0746155711839
 20
649.9378782789866
 10
678.1735063922837
 20
649.8017667407242
 10
678.2597981637877
 20
649.6573386426384
 10
678.3327961150903
 20
649.5057568348527
 10
678.3919125096097
 20
649.3482417649546
 10
678.4366713768973
 20
649.1860616516696
 10
678.4667123448713
 20
649.0205222739096
 10
678.4817935413213
 20
648.8529564574088
 10
678.4817935413213
 20
648.6847133435944
 10
678.4667123448713
 20
648.5171475270934
 10
678.4366713768973
 20
648.3516081493335
 10
678.3919125096097
 20
648.1894280360485
 10
678.3327961150903
 20
648.0319129661504
 10
678.2597981637877
 20
647.8803311583646
 10
678.1735063922837
 20
647.7359030602789
 10
678.0746155711839
 20
647.5997915220164
 10
677.9639219112327
 20
647.4730924336512
 10
677.8423166526934
 20
647.3568259017448
 10
677.7107788896047
 20
647.2519280360485
 10
677.5703676866925
 20
647.159243412498
 10
677.4222135524017
 20
647.0795182731846
 10
677.2675093367089
 20
647.0133945180521
 10
677.1075006269938
 20
646.9614045366967
 10
676.9434757193038
 20
646.9239669218791
 10
676.7767552457503
 20
646.9013830992605
 10
676.6086815415564
 20
646.8938349005015
 10
676.4406078373625
 20
646.9013830992605
 10
676.2738873638089
 20
646.9239669218791
 10
676.1098624561189
 20
646.9614045366967
 10
675.9498537464038
 20
647.0133945180521
 10
675.795149530711
 20
647.0795182731846
 10
675.6469953964202
 20
647.159243412498
 10
675.506584193508
 20
647.2519280360485
 10
675.3750464304194
 20
647.3568259017448
 10
675.25344117188
 20
647.4730924336512
 10
675.1427475119288
 20
647.5997915220164
 10
675.043856690829
 20
647.7359030602789
 10
674.957564919325
 20
647.8803311583646
 10
674.8845669680224
 20
648.0319129661504
 10
674.825450573503
 20
648.1894280360485
 10
674.7806917062155
 20
648.3516081493335
 10
674.7506507382414
 20
648.5171475270934
 10
674.7355695417914
 20
648.6847133435944
 10
674.7355695417914
 20
648.8529564574088
 10
674.7506507382414
 20
649.0205222739096
 10
674.7806917062155
 20
649.1860616516696
 10
674.825450573503
 20
649.3482417649546
 10
674.8845669680224
 20
649.5057568348527
 10
674.957564919325
 20
649.6573386426384
 10
675.043856690829
 20
649.8017667407242
 10
675.1427475119288
 20
649.9378782789866
 10
675.25344117188
 20
650.0645773673519
 10
675.3750464304194
 20
650.1808438992583
 10
675.506584193508
 20
650.2857417649546
 10
675.6469953964202
 20
650.3784263885051
 10
675.795149530711
 20
650.4581515278186
 10
675.9498537464038
 20
650.524275282951
 10
676.1098624561189
 20
650.5762652643063
 10
676.2738873638089
 20
650.613702879124
 10
676.4406078373625
 20
650.6362867017426
 97
        0
 75
     0
 76
     1
 98
        0
450
        0
451
        0
460
0.0
461
0.0
452
        1
462
0.0
453
        0
470

  0
INSERT
  5
23F
330
22E
100
AcDbEntity
  8
D-STR-DIM
  6
Continuous
100
AcDbBlockReference
  2
CLAIR_HATCH_PAINT6
 10
0.0
 20
0.0
 30
0.0
  0
TEXT
  5
242
330
22E
100
AcDbEntity
  8
D-STR-DIM
100
AcDbText
 10
672.1698815699073
 20
686.5813349005202
 30
0.0
 40
12.5
  1
100
 50
90.0
  7
YOKO_GOTHIC
 72
     1
 11
659.6698815699073
 21
698.7688349005202
 31
0.0
100
AcDbText
 73
     3
  0
ENDBLK
  5
230
330
22E
100
AcDbEntity
  8
0
100
AcDbBlockEnd
  0
BLOCK
  5
236
330
235
100
AcDbEntity
  8
0
100
AcDbBlockBegin
  2
CLAIR_HATCH_PAINT5
 70
     0
 10
0.0
 20
0.0
 30
0.0
  3
CLAIR_HATCH_PAINT5
  1

  0
ARC
  5
239
330
235
100
AcDbEntity
  8
D-STR-DIM
  6
Continuous
370
     0
100
AcDbCircle
 10
676.6086815415564
 20
748.7688349005016
 30
0.0
 40
1.875
100
AcDbArc
 50
90.0
 51
270.0
  0
ARC
  5
23A
330
235
100
AcDbEntity
  8
D-STR-DIM
  6
Continuous
370
     0
100
AcDbCircle
 10
676.6086815415564
 20
748.7688349005016
 30
0.0
 40
1.875
100
AcDbArc
 50
270.0
 51
90.0
  0
ENDBLK
  5
237
330
235
100
AcDbEntity
  8
0
100
AcDbBlockEnd
  0
BLOCK
  5
23D
330
23C
100
AcDbEntity
  8
0
100
AcDbBlockBegin
  2
CLAIR_HATCH_PAINT6
 70
     0
 10
0.0
 20
0.0
 30
0.0
  3
CLAIR_HATCH_PAINT6
  1

  0
ARC
  5
240
330
23C
100
AcDbEntity
  8
D-STR-DIM
  6
Continuous
370
     0
100
AcDbCircle
 10
676.6086815415564
 20
648.7688349005016
 30
0.0
 40
1.875
100
AcDbArc
 50
270.0
 51
90.0
  0
ARC
  5
241
330
23C
100
AcDbEntity
  8
D-STR-DIM
  6
Continuous
370
     0
100
AcDbCircle
 10
676.6086815415564
 20
648.7688349005016
 30
0.0
 40
1.875
100
AcDbArc
 50
90.0
 51
270.0
  0
ENDBLK
  5
23E
330
23C
100
AcDbEntity
  8
0
100
AcDbBlockEnd
  0
BLOCK
  5
245
330
244
100
AcDbEntity
  8
0
100
AcDbBlockBegin
  2
*D29
 70
     1
 10
0.0
 20
0.0
 30
0.0
  3
*D29
  1

  0
LINE
  5
247
330
244
100
AcDbEntity
  8
D-STR-DIM
100
AcDbLine
 10
643.026842490226
 20
788.7688349005026
 30
0.0
 11
643.026842490226
 21
648.7688349005026
 31
0.0
  0
LINE
  5
248
330
244
100
AcDbEntity
  8
D-STR-DIM
100
AcDbLine
 10
710.2172109517932
 20
788.7688349005102
 30
0.0
 11
637.026842490226
 21
788.7688349005019
 31
0.0
  0
LINE
  5
249
330
244
100
AcDbEntity
  8
D-STR-DIM
100
AcDbLine
 10
710.2172109517932
 20
648.7688349005102
 30
0.0
 11
637.026842490226
 21
648.7688349005019
 31
0.0
  0
HATCH
  5
24A
330
244
100
AcDbEntity
  8
D-STR-DIM
  6
Continuous
100
AcDbHatch
 10
0.0
 20
0.0
 30
0.0
210
0.0
220
0.0
230
1.0
  2
SOLID
 70
     1
 71
     0
 91
        1
 92
        3
 72
     0
 73
     1
 93
       70
 10
643.0268424902258
 20
786.8938349005024
 10
642.8587687860319
 20
786.9013830992614
 10
642.6920483124783
 20
786.92396692188
 10
642.5280234047883
 20
786.9614045366977
 10
642.3680146950732
 20
787.013394518053
 10
642.2133104793804
 20
787.0795182731854
 10
642.0651563450896
 20
787.1592434124989
 10
641.9247451421774
 20
787.2519280360494
 10
641.7932073790888
 20
787.3568259017457
 10
641.6716021205494
 20
787.4730924336521
 10
641.5609084605982
 20
787.5997915220174
 10
641.4620176394984
 20
787.7359030602798
 10
641.3757258679944
 20
787.8803311583656
 10
641.3027279166918
 20
788.0319129661513
 10
641.2436115221724
 20
788.1894280360494
 10
641.1988526548849
 20
788.3516081493344
 10
641.1688116869108
 20
788.5171475270944
 10
641.1537304904608
 20
788.6847133435952
 10
641.1537304904608
 20
788.8529564574097
 10
641.1688116869108
 20
789.0205222739106
 10
641.1988526548849
 20
789.1860616516705
 10
641.2436115221724
 20
789.3482417649555
 10
641.3027279166918
 20
789.5057568348536
 10
641.3757258679944
 20
789.6573386426394
 10
641.4620176394984
 20
789.8017667407251
 10
641.5609084605982
 20
789.9378782789876
 10
641.6716021205494
 20
790.0645773673528
 10
641.7932073790888
 20
790.1808438992592
 10
641.9247451421774
 20
790.2857417649555
 10
642.0651563450896
 20
790.378426388506
 10
642.2133104793804
 20
790.4581515278195
 10
642.3680146950732
 20
790.5242752829519
 10
642.5280234047883
 20
790.5762652643073
 10
642.6920483124783
 20
790.6137028791249
 10
642.8587687860319
 20
790.6362867017435
 10
643.0268424902258
 20
790.6438349005025
 10
643.1949161944197
 20
790.6362867017435
 10
643.3616366679732
 20
790.6137028791249
 10
643.5256615756633
 20
790.5762652643073
 10
643.6856702853783
 20
790.5242752829519
 10
643.8403745010711
 20
790.4581515278195
 10
643.9885286353619
 20
790.378426388506
 10
644.1289398382742
 20
790.2857417649555
 10
644.2604776013628
 20
790.1808438992592
 10
644.3820828599021
 20
790.0645773673528
 10
644.4927765198533
 20
789.9378782789876
 10
644.5916673409532
 20
789.8017667407251
 10
644.6779591124571
 20
789.6573386426394
 10
644.7509570637597
 20
789.5057568348536
 10
644.8100734582792
 20
789.3482417649555
 10
644.8548323255667
 20
789.1860616516705
 10
644.8848732935407
 20
789.0205222739106
 10
644.8999544899908
 20
788.8529564574097
 10
644.8999544899908
 20
788.6847133435952
 10
644.8848732935407
 20
788.5171475270944
 10
644.8548323255667
 20
788.3516081493344
 10
644.8100734582792
 20
788.1894280360494
 10
644.7509570637597
 20
788.0319129661513
 10
644.6779591124571
 20
787.8803311583656
 10
644.5916673409532
 20
787.7359030602798
 10
644.4927765198533
 20
787.5997915220174
 10
644.3820828599021
 20
787.4730924336521
 10
644.2604776013628
 20
787.3568259017457
 10
644.1289398382742
 20
787.2519280360494
 10
643.9885286353619
 20
787.1592434124989
 10
643.8403745010711
 20
787.0795182731854
 10
643.6856702853783
 20
787.013394518053
 10
643.5256615756633
 20
786.9614045366977
 10
643.3616366679732
 20
786.92396692188
 10
643.1949161944197
 20
786.9013830992614
 97
        0
 75
     0
 76
     1
 98
        0
450
        0
451
        0
460
0.0
461
0.0
452
        1
462
0.0
453
        0
470

  0
INSERT
  5
24E
330
244
100
AcDbEntity
  8
D-STR-DIM
  6
Continuous
100
AcDbBlockReference
  2
CLAIR_HATCH_PAINT7
 10
0.0
 20
0.0
 30
0.0
  0
HATCH
  5
251
330
244
100
AcDbEntity
  8
D-STR-DIM
  6
Continuous
100
AcDbHatch
 10
0.0
 20
0.0
 30
0.0
210
0.0
220
0.0
230
1.0
  2
SOLID
 70
     1
 71
     0
 91
        1
 92
        3
 72
     0
 73
     1
 93
       70
 10
643.0268424902259
 20
650.6438349005025
 10
643.1949161944198
 20
650.6362867017435
 10
643.3616366679733
 20
650.613702879125
 10
643.5256615756634
 20
650.5762652643072
 10
643.6856702853784
 20
650.5242752829519
 10
643.8403745010713
 20
650.4581515278195
 10
643.9885286353621
 20
650.378426388506
 10
644.1289398382743
 20
650.2857417649555
 10
644.2604776013629
 20
650.1808438992592
 10
644.3820828599022
 20
650.0645773673528
 10
644.4927765198534
 20
649.9378782789875
 10
644.5916673409533
 20
649.8017667407252
 10
644.6779591124573
 20
649.6573386426393
 10
644.7509570637598
 20
649.5057568348536
 10
644.8100734582793
 20
649.3482417649556
 10
644.8548323255668
 20
649.1860616516706
 10
644.8848732935409
 20
649.0205222739106
 10
644.8999544899909
 20
648.8529564574097
 10
644.8999544899909
 20
648.6847133435952
 10
644.8848732935409
 20
648.5171475270943
 10
644.8548323255668
 20
648.3516081493344
 10
644.8100734582793
 20
648.1894280360494
 10
644.7509570637598
 20
648.0319129661514
 10
644.6779591124573
 20
647.8803311583655
 10
644.5916673409533
 20
647.7359030602798
 10
644.4927765198534
 20
647.5997915220174
 10
644.3820828599022
 20
647.4730924336521
 10
644.2604776013629
 20
647.3568259017457
 10
644.1289398382743
 20
647.2519280360494
 10
643.9885286353621
 20
647.159243412499
 10
643.8403745010713
 20
647.0795182731855
 10
643.6856702853784
 20
647.0133945180529
 10
643.5256615756634
 20
646.9614045366977
 10
643.3616366679733
 20
646.92396692188
 10
643.1949161944198
 20
646.9013830992614
 10
643.0268424902259
 20
646.8938349005025
 10
642.858768786032
 20
646.9013830992614
 10
642.6920483124785
 20
646.92396692188
 10
642.5280234047884
 20
646.9614045366977
 10
642.3680146950734
 20
647.0133945180529
 10
642.2133104793805
 20
647.0795182731855
 10
642.0651563450897
 20
647.159243412499
 10
641.9247451421775
 20
647.2519280360494
 10
641.7932073790889
 20
647.3568259017457
 10
641.6716021205495
 20
647.4730924336521
 10
641.5609084605984
 20
647.5997915220174
 10
641.4620176394985
 20
647.7359030602798
 10
641.3757258679945
 20
647.8803311583655
 10
641.302727916692
 20
648.0319129661514
 10
641.2436115221725
 20
648.1894280360494
 10
641.198852654885
 20
648.3516081493344
 10
641.1688116869109
 20
648.5171475270943
 10
641.1537304904609
 20
648.6847133435952
 10
641.1537304904609
 20
648.8529564574097
 10
641.1688116869109
 20
649.0205222739106
 10
641.198852654885
 20
649.1860616516706
 10
641.2436115221725
 20
649.3482417649556
 10
641.302727916692
 20
649.5057568348536
 10
641.3757258679945
 20
649.6573386426393
 10
641.4620176394985
 20
649.8017667407252
 10
641.5609084605984
 20
649.9378782789875
 10
641.6716021205495
 20
650.0645773673528
 10
641.7932073790889
 20
650.1808438992592
 10
641.9247451421775
 20
650.2857417649555
 10
642.0651563450897
 20
650.378426388506
 10
642.2133104793805
 20
650.4581515278195
 10
642.3680146950734
 20
650.5242752829519
 10
642.5280234047884
 20
650.5762652643072
 10
642.6920483124785
 20
650.613702879125
 10
642.858768786032
 20
650.6362867017435
 97
        0
 75
     0
 76
     1
 98
        0
450
        0
451
        0
460
0.0
461
0.0
452
        1
462
0.0
453
        0
470

  0
INSERT
  5
255
330
244
100
AcDbEntity
  8
D-STR-DIM
  6
Continuous
100
AcDbBlockReference
  2
CLAIR_HATCH_PAINT8
 10
0.0
 20
0.0
 30
0.0
  0
TEXT
  5
258
330
244
100
AcDbEntity
  8
D-STR-DIM
100
AcDbText
 10
638.5880424852802
 20
706.5813349005202
 30
0.0
 40
12.5
  1
140
 50
90.0
  7
YOKO_GOTHIC
 72
     1
 11
626.0880424852802
 21
718.7688349005202
 31
0.0
100
AcDbText
 73
     3
  0
ENDBLK
  5
246
330
244
100
AcDbEntity
  8
0
100
AcDbBlockEnd
  0
BLOCK
  5
24C
330
24B
100
AcDbEntity
  8
0
100
AcDbBlockBegin
  2
CLAIR_HATCH_PAINT7
 70
     0
 10
0.0
 20
0.0
 30
0.0
  3
CLAIR_HATCH_PAINT7
  1

  0
ARC
  5
24F
330
24B
100
AcDbEntity
  8
D-STR-DIM
  6
Continuous
370
     0
100
AcDbCircle
 10
643.0268424902258
 20
788.7688349005025
 30
0.0
 40
1.875
100
AcDbArc
 50
90.0
 51
270.0
  0
ARC
  5
250
330
24B
100
AcDbEntity
  8
D-STR-DIM
  6
Continuous
370
     0
100
AcDbCircle
 10
643.0268424902258
 20
788.7688349005025
 30
0.0
 40
1.875
100
AcDbArc
 50
270.0
 51
90.0
  0
ENDBLK
  5
24D
330
24B
100
AcDbEntity
  8
0
100
AcDbBlockEnd
  0
BLOCK
  5
253
330
252
100
AcDbEntity
  8
0
100
AcDbBlockBegin
  2
CLAIR_HATCH_PAINT8
 70
     0
 10
0.0
 20
0.0
 30
0.0
  3
CLAIR_HATCH_PAINT8
  1

  0
ARC
  5
256
330
252
100
AcDbEntity
  8
D-STR-DIM
  6
Continuous
370
     0
100
AcDbCircle
 10
643.0268424902259
 20
648.7688349005025
 30
0.0
 40
1.875
100
AcDbArc
 50
270.0
 51
90.0
  0
ARC
  5
257
330
252
100
AcDbEntity
  8
D-STR-DIM
  6
Continuous
370
     0
100
AcDbCircle
 10
643.0268424902259
 20
648.7688349005025
 30
0.0
 40
1.875
100
AcDbArc
 50
90.0
 51
270.0
  0
ENDBLK
  5
254
330
252
100
AcDbEntity
  8
0
100
AcDbBlockEnd
  0
ENDSEC
  0
SECTION
  2
ENTITIES
  0
POLYLINE
  5
F4
330
1F
100
AcDbEntity
  8
V-nasSTD
  6
Continuous
 62
     5
370
    13
100
AcDb2dPolyline
 66
     1
 10
0.0
 20
0.0
 30
0.0
 70
     1
  0
VERTEX
  5
F5
330
F4
100
AcDbEntity
  8
V-nasSTD
  6
Continuous
 62
     5
370
    13
100
AcDbVertex
100
AcDb2dVertex
 10
0.0
 20
0.0
 30
0.0
  0
VERTEX
  5
F6
330
F4
100
AcDbEntity
  8
V-nasSTD
  6
Continuous
 62
     5
370
    13
100
AcDbVertex
100
AcDb2dVertex
 10
0.0
 20
1485.0
 30
0.0
  0
VERTEX
  5
F7
330
F4
100
AcDbEntity
  8
V-nasSTD
  6
Continuous
 62
     5
370
    13
100
AcDbVertex
100
AcDb2dVertex
 10
2100.0
 20
1485.0
 30
0.0
  0
VERTEX
  5
F8
330
F4
100
AcDbEntity
  8
V-nasSTD
  6
Continuous
 62
     5
370
    13
100
AcDbVertex
100
AcDb2dVertex
 10
2100.0
 20
0.0
 30
0.0
  0
SEQEND
  5
F9
330
F4
100
AcDbEntity
  8
V-nasSTD
  6
Continuous
 62
     5
370
    13
  0
POLYLINE
  5
FA
330
1F
100
AcDbEntity
  8
D-TTL
  6
Continuous
 62
     7
370
    70
100
AcDb2dPolyline
 66
     1
 10
0.0
 20
0.0
 30
0.0
 70
     1
  0
VERTEX
  5
FB
330
FA
100
AcDbEntity
  8
D-TTL
  6
Continuous
 62
     7
370
    70
100
AcDbVertex
100
AcDb2dVertex
 10
75.0
 20
75.0
 30
0.0
  0
VERTEX
  5
FC
330
FA
100
AcDbEntity
  8
D-TTL
  6
Continuous
 62
     7
370
    70
100
AcDbVertex
100
AcDb2dVertex
 10
75.0
 20
1410.0
 30
0.0
  0
VERTEX
  5
FD
330
FA
100
AcDbEntity
  8
D-TTL
  6
Continuous
 62
     7
370
    70
100
AcDbVertex
100
AcDb2dVertex
 10
2025.0
 20
1410.0
 30
0.0
  0
VERTEX
  5
FE
330
FA
100
AcDbEntity
  8
D-TTL
  6
Continuous
 62
     7
370
    70
100
AcDbVertex
100
AcDb2dVertex
 10
2025.0
 20
75.0
 30
0.0
  0
SEQEND
  5
FF
330
FA
100
AcDbEntity
  8
D-TTL
  6
Continuous
 62
     7
370
    70
  0
LINE
  5
100
330
1F
100
AcDbEntity
  8
D-TTL-FRAM
  6
Continuous
 62
     7
100
AcDbLine
 10
1969.806060606006
 20
110.610151805572
 30
0.0
 11
1669.806060605842
 21
110.610151805572
 31
0.0
  0
TEXT
  5
101
330
1F
100
AcDbEntity
  8
D-TTL-TXT
 62
     7
100
AcDbText
 10
1795.225707488298
 20
119.1416032537748
 30
0.0
 40
17.50000000006366
  1
検 図
  7
YOKO_GOTHIC
 11
1795.225707488298
 21
115.9448454412632
 31
0.0
100
AcDbText
 73
     1
  0
LINE
  5
102
330
1F
100
AcDbEntity
  8
D-TTL-FRAM
 62
     7
100
AcDbLine
 10
564.8060606059153
 20
110.6101518060313
 30
0.0
 11
100.850609524391
 21
110.6101518055175
 31
0.0
  0
LINE
  5
103
330
1F
100
AcDbEntity
  8
D-TTL-FRAM
 62
     7
100
AcDbLine
 10
564.8060606059153
 20
140.610151805572
 30
0.0
 11
100.850609524391
 21
140.610151805572
 31
0.0
  0
CIRCLE
  5
104
330
1F
100
AcDbEntity
  8
D-TTL-TXT
 62
     7
100
AcDbCircle
 10
113.4960260406342
 20
120.6320004159352
 30
0.0
 40
7.402856885455548
  0
TEXT
  5
105
330
1F
100
AcDbEntity
  8
D-TTL-TXT
 62
     7
100
AcDbText
 10
110.4417393025915
 20
117.707156661844
 30
0.0
 40
10.00000000003638
  1
2
  7
YOKO_GOTHIC
 11
110.4417393025915
 21
115.8804379118373
 31
0.0
100
AcDbText
 73
     1
  0
CIRCLE
  5
106
330
1F
100
AcDbEntity
  8
D-TTL-TXT
 62
     7
100
AcDbCircle
 10
113.4960260406342
 20
90.63200041593518
 30
0.0
 40
7.402856885455548
  0
TEXT
  5
107
330
1F
100
AcDbEntity
  8
D-TTL-TXT
 62
     7
100
AcDbText
 10
110.4417393025915
 20
87.70715666184401
 30
0.0
 40
10.00000000003638
  1
3
  7
YOKO_GOTHIC
 11
110.4417393025915
 21
85.88043791183736
 31
0.0
100
AcDbText
 73
     1
  0
CIRCLE
  5
108
330
1F
100
AcDbEntity
  8
D-TTL-TXT
 62
     7
100
AcDbCircle
 10
113.4960260406342
 20
150.6320004159352
 30
0.0
 40
7.402856885455548
  0
TEXT
  5
109
330
1F
100
AcDbEntity
  8
D-TTL-TXT
 62
     7
100
AcDbText
 10
110.4417393025915
 20
147.707156661844
 30
0.0
 40
10.00000000003638
  1
1
  7
YOKO_GOTHIC
 11
110.4417393025915
 21
145.8804379118373
 31
0.0
100
AcDbText
 73
     1
  0
LINE
  5
10A
330
1F
100
AcDbEntity
  8
D-TTL-FRAM
 62
     7
100
AcDbLine
 10
699.8060606059562
 20
140.610151805572
 30
0.0
 11
574.8060606059562
 21
140.610151805572
 31
0.0
  0
LINE
  5
10B
330
1F
100
AcDbEntity
  8
D-TTL-FRAM
 62
     7
100
AcDbLine
 10
699.8060606059562
 20
110.6101518057357
 30
0.0
 11
574.8060606059562
 21
110.6101518058449
 31
0.0
  0
TEXT
  5
10C
330
1F
100
AcDbEntity
  8
D-TTL-FRAM
 62
     7
100
AcDbText
 10
611.2491062762456
 20
115.9503540907991
 30
0.0
 40
15.00000000005457
  1
.
  7
YOKO_GOTHIC
 11
611.2491062762456
 21
113.2102759657891
 31
0.0
100
AcDbText
 73
     1
  0
TEXT
  5
10D
330
1F
100
AcDbEntity
  8
D-TTL-FRAM
 62
     7
100
AcDbText
 10
611.2491062762456
 20
85.95035409098557
 30
0.0
 40
15.00000000005457
  1
.
  7
YOKO_GOTHIC
 11
611.2491062762456
 21
83.21027596597559
 31
0.0
100
AcDbText
 73
     1
  0
TEXT
  5
10E
330
1F
100
AcDbEntity
  8
D-TTL-FRAM
 62
     7
100
AcDbText
 10
611.2491062762456
 20
145.95035409069
 30
0.0
 40
15.00000000005457
  1
.
  7
YOKO_GOTHIC
 11
611.2491062762456
 21
143.21027596568
 31
0.0
100
AcDbText
 73
     1
  0
TEXT
  5
10F
330
1F
100
AcDbEntity
  8
D-TTL-FRAM
 62
     7
100
AcDbText
 10
651.2491062762456
 20
115.9503540907991
 30
0.0
 40
15.00000000005457
  1
.
  7
YOKO_GOTHIC
 11
651.2491062762456
 21
113.2102759657891
 31
0.0
100
AcDbText
 73
     1
  0
TEXT
  5
110
330
1F
100
AcDbEntity
  8
D-TTL-FRAM
 62
     7
100
AcDbText
 10
651.2491062762456
 20
85.95035409098557
 30
0.0
 40
15.00000000005457
  1
.
  7
YOKO_GOTHIC
 11
651.2491062762456
 21
83.21027596597559
 31
0.0
100
AcDbText
 73
     1
  0
TEXT
  5
111
330
1F
100
AcDbEntity
  8
D-TTL-FRAM
 62
     7
100
AcDbText
 10
651.2491062762456
 20
145.95035409069
 30
0.0
 40
15.00000000005457
  1
.
  7
YOKO_GOTHIC
 11
651.2491062762456
 21
143.21027596568
 31
0.0
100
AcDbText
 73
     1
  0
TEXT
  5
112
330
1F
100
AcDbEntity
  8
D-TTL-TXT
 62
     7
100
AcDbText
 10
1180.313827125174
 20
137.7765114219343
 30
0.0
 40
17.50000000006366
  1
工事名称
  7
YOKO_GOTHIC
 11
1180.313827125174
 21
134.5785418787754
 31
0.0
100
AcDbText
 73
     1
  0
TEXT
  5
113
330
1F
100
AcDbEntity
  8
D-TTL-TXT
 62
     7
100
AcDbText
 10
1180.313827125174
 20
91.47522652851845
 30
0.0
 40
17.50000000006366
  1
図面名称
  7
YOKO_GOTHIC
 11
1180.313827125174
 21
88.2772569853596
 31
0.0
100
AcDbText
 73
     1
  0
LINE
  5
114
330
1F
100
AcDbEntity
  8
D-TTL-FRAM
 62
     7
100
AcDbLine
 10
1594.806060605842
 20
125.610151805572
 30
0.0
 11
1169.806060605915
 21
125.610151805572
 31
0.0
  0
TEXT
  5
115
330
1F
100
AcDbEntity
  8
D-TTL-TXT
 62
     7
100
AcDbText
 10
830.5661581188179
 20
136.7717834144531
 30
0.0
 40
25.00000000009095
  1
上屋敷工業株式会社
  7
YOKO_GOTHIC
 11
830.5661581188179
 21
132.2049865394365
 31
0.0
100
AcDbText
 73
     1
  0
TEXT
  5
116
330
1F
100
AcDbEntity
  8
D-TTL-TXT
 62
     7
100
AcDbText
 10
779.0733917669103
 20
107.1386206065634
 30
0.0
 40
9.000000000032741
  1
福井県知事許可 （特） 第 3522号
  7
YOKO_GOTHIC
 11
779.0733917669103
 21
105.4945737315574
 31
0.0
100
AcDbText
 73
     1
  0
TEXT
  5
117
330
1F
100
AcDbEntity
  8
D-TTL-TXT
 62
     7
100
AcDbText
 10
779.2559032801046
 20
90.3473706063213
 30
0.0
 40
9.000000000032741
  1
福井市石盛町 20-408
  7
YOKO_GOTHIC
 11
779.2559032801046
 21
88.70332373131532
 31
0.0
100
AcDbText
 73
     1
  0
LINE
  5
118
330
1F
100
AcDbEntity
  8
D-TTL-FRAM
 62
     7
100
AcDbLine
 10
709.8060606059561
 20
110.6101518057357
 30
0.0
 11
759.8060606059561
 21
110.6101518057357
 31
0.0
  0
LINE
  5
119
330
1F
100
AcDbEntity
  8
D-TTL-FRAM
 62
     7
100
AcDbLine
 10
709.8060606059561
 20
140.610151805572
 30
0.0
 11
759.8060606059561
 21
140.610151805572
 31
0.0
  0
LINE
  5
11A
330
1F
100
AcDbEntity
  8
D-TTL-TXT
 62
     7
100
AcDbLine
 10
804.3690487050161
 20
126.2375052457673
 30
0.0
 11
807.3898101135091
 21
129.3624308408471
 31
0.0
  0
LINE
  5
11B
330
1F
100
AcDbEntity
  8
D-TTL-TXT
 62
     7
100
AcDbLine
 10
804.4732128915757
 20
127.9041322297416
 30
0.0
 11
806.1398398755091
 21
126.2375052457673
 31
0.0
  0
LINE
  5
11C
330
1F
100
AcDbEntity
  8
D-TTL-TXT
 62
     7
100
AcDbLine
 10
805.3065263835424
 20
128.3207889756886
 30
0.0
 11
807.181481740481
 21
126.445833618759
 31
0.0
  0
LINE
  5
11D
330
1F
100
AcDbEntity
  8
D-TTL-TXT
 62
     7
100
AcDbLine
 10
804.3690487050161
 20
158.2159105001483
 30
0.0
 11
807.3898101135091
 21
155.0909849050686
 31
0.0
  0
LINE
  5
11E
330
1F
100
AcDbEntity
  8
D-TTL-TXT
 62
     7
100
AcDbLine
 10
804.4732128915757
 20
156.549283516174
 30
0.0
 11
806.1398398755091
 21
158.2159105001483
 31
0.0
  0
LINE
  5
11F
330
1F
100
AcDbEntity
  8
D-TTL-TXT
 62
     7
100
AcDbLine
 10
805.3065263835424
 20
156.1326267701179
 30
0.0
 11
807.181481740481
 21
158.0075821271702
 31
0.0
  0
ELLIPSE
  5
120
330
1F
100
AcDbEntity
  8
D-TTL-TXT
 62
     7
100
AcDbEllipse
 10
795.5930579131927
 20
149.7210443479844
 30
0.0
 11
16.61352644032466
 21
16.61352644032463
 31
0.0
210
0.0
220
0.0
230
1.0
 40
0.9999999999999925
 41
3.790898628936648
 42
4.472976128049419
  0
ELLIPSE
  5
121
330
1F
100
AcDbEntity
  8
D-TTL-TXT
 62
     7
100
AcDbEllipse
 10
795.5930579131927
 20
134.8052502458586
 30
0.0
 11
-16.61352644032464
 21
16.61352644032465
 31
0.0
210
0.0
220
0.0
230
0.9999999999999998
 40
0.9999999999999923
 41
4.95180183271996
 42
5.633879331832728
  0
ELLIPSE
  5
122
330
1F
100
AcDbEntity
  8
D-TTL-TXT
 62
     7
100
AcDbEllipse
 10
804.1513853878313
 20
149.7210443479844
 30
0.0
 11
16.61352644032454
 21
16.61352644032453
 31
0.0
210
0.0
220
0.0
230
1.0
 40
0.9999999999999934
 41
3.790898628936647
 42
4.472976128049412
  0
ELLIPSE
  5
123
330
1F
100
AcDbEntity
  8
D-TTL-TXT
 62
     7
100
AcDbEllipse
 10
804.1513853878313
 20
134.8052502458586
 30
0.0
 11
-16.61352644032455
 21
16.61352644032455
 31
0.0
210
0.0
220
0.0
230
0.9999999999999998
 40
0.9999999999999923
 41
4.951801832719965
 42
5.63387933183273
  0
LINE
  5
124
330
1F
100
AcDbEntity
  8
D-TTL-TXT
 62
     7
100
AcDbLine
 10
803.2232426536939
 20
126.3416694323996
 30
0.0
 11
804.9940338241139
 21
128.1124606027106
 31
0.0
  0
LINE
  5
125
330
1F
100
AcDbEntity
  8
D-TTL-TXT
 62
     7
100
AcDbLine
 10
802.0774366022488
 20
126.3416694323996
 30
0.0
 11
803.2232426536939
 21
127.4874754837947
 31
0.0
  0
LINE
  5
126
330
1F
100
AcDbEntity
  8
D-TTL-TXT
 62
     7
100
AcDbLine
 10
800.9316305507354
 20
126.3416694323996
 30
0.0
 11
801.4524514831554
 21
126.9666545513382
 31
0.0
  0
LINE
  5
127
330
1F
100
AcDbEntity
  8
D-TTL-TXT
 62
     7
100
AcDbLine
 10
800.8274663642987
 20
126.7583261782374
 30
0.0
 11
801.3482872967552
 21
126.3416694323996
 31
0.0
  0
LINE
  5
128
330
1F
100
AcDbEntity
  8
D-TTL-TXT
 62
     7
100
AcDbLine
 10
801.7649440427021
 20
127.0708187378477
 30
0.0
 11
802.5982575346688
 21
126.2375052457673
 31
0.0
  0
LINE
  5
129
330
1F
100
AcDbEntity
  8
D-TTL-TXT
 62
     7
100
AcDbLine
 10
802.7024217211145
 20
127.2791471106529
 30
0.0
 11
803.8482277725597
 21
126.2375052457673
 31
0.0
  0
LINE
  5
12A
330
1F
100
AcDbEntity
  8
D-TTL-TXT
 62
     7
100
AcDbLine
 10
803.6398993996408
 20
127.5916396702405
 30
0.0
 11
804.9940338241139
 21
126.2375052457673
 31
0.0
  0
LINE
  5
12B
330
1F
100
AcDbEntity
  8
D-TTL-TXT
 62
     7
100
AcDbLine
 10
803.2232426536939
 20
158.111746313516
 30
0.0
 11
804.9940338241139
 21
156.3409551432187
 31
0.0
  0
LINE
  5
12C
330
1F
100
AcDbEntity
  8
D-TTL-TXT
 62
     7
100
AcDbLine
 10
802.0774366022488
 20
158.111746313516
 30
0.0
 11
803.2232426536939
 21
156.9659402621209
 31
0.0
  0
LINE
  5
12D
330
1F
100
AcDbEntity
  8
D-TTL-TXT
 62
     7
100
AcDbLine
 10
800.9316305507354
 20
158.111746313516
 30
0.0
 11
801.4524514831554
 21
157.486761194591
 31
0.0
  0
LINE
  5
12E
330
1F
100
AcDbEntity
  8
D-TTL-TXT
 62
     7
100
AcDbLine
 10
800.8274663642987
 20
157.6950895676918
 30
0.0
 11
801.3482872967552
 21
158.111746313516
 31
0.0
  0
LINE
  5
12F
330
1F
100
AcDbEntity
  8
D-TTL-TXT
 62
     7
100
AcDbLine
 10
801.7649440427021
 20
157.3825970080679
 30
0.0
 11
802.5982575346688
 21
158.2159105001483
 31
0.0
  0
LINE
  5
130
330
1F
100
AcDbEntity
  8
D-TTL-TXT
 62
     7
100
AcDbLine
 10
802.7024217211145
 20
157.1742686352763
 30
0.0
 11
803.8482277725597
 21
158.2159105001483
 31
0.0
  0
LINE
  5
131
330
1F
100
AcDbEntity
  8
D-TTL-TXT
 62
     7
100
AcDbLine
 10
803.6398993996408
 20
156.8617760756751
 30
0.0
 11
804.9940338241139
 21
158.2159105001483
 31
0.0
  0
LINE
  5
132
330
1F
100
AcDbEntity
  8
D-TTL-TXT
 62
     7
100
AcDbLine
 10
799.994152872282
 20
126.6541619919007
 30
0.0
 11
800.0983170588005
 21
126.6541619919007
 31
0.0
  0
LINE
  5
133
330
1F
100
AcDbEntity
  8
D-TTL-TXT
 62
     7
100
AcDbLine
 10
798.5358542612994
 20
126.3416694323996
 30
0.0
 11
799.2650035667884
 21
127.0708187378477
 31
0.0
  0
LINE
  5
134
330
1F
100
AcDbEntity
  8
D-TTL-TXT
 62
     7
100
AcDbLine
 10
797.2858840233357
 20
126.2375052457673
 30
0.0
 11
798.5358542612994
 21
127.4874754837947
 31
0.0
  0
LINE
  5
135
330
1F
100
AcDbEntity
  8
D-TTL-TXT
 62
     7
100
AcDbLine
 10
796.0359137853811
 20
126.2375052457673
 30
0.0
 11
797.806704955874
 21
128.0082964163739
 31
0.0
  0
LINE
  5
136
330
1F
100
AcDbEntity
  8
D-TTL-TXT
 62
     7
100
AcDbLine
 10
794.8901077339814
 20
126.2375052457673
 30
0.0
 11
797.1817198368262
 21
128.5291173487667
 31
0.0
  0
LINE
  5
137
330
1F
100
AcDbEntity
  8
D-TTL-TXT
 62
     7
100
AcDbLine
 10
793.7443016825682
 20
126.2375052457673
 30
0.0
 11
796.6608989044016
 21
129.2582666542148
 31
0.0
  0
LINE
  5
138
330
1F
100
AcDbEntity
  8
D-TTL-TXT
 62
     7
100
AcDbLine
 10
792.7026598174598
 20
126.3416694323996
 30
0.0
 11
796.1400779718951
 21
129.8832517732398
 31
0.0
  0
LINE
  5
139
330
1F
100
AcDbEntity
  8
D-TTL-TXT
 62
     7
100
AcDbLine
 10
791.7651821391155
 20
126.6541619919007
 30
0.0
 11
795.7234212259481
 21
130.6124010785015
 31
0.0
  0
LINE
  5
13A
330
1F
100
AcDbEntity
  8
D-TTL-TXT
 62
     7
100
AcDbLine
 10
790.9318686471488
 20
126.9666545513382
 30
0.0
 11
795.4109286665152
 21
131.4457145705819
 31
0.0
  0
LINE
  5
13B
330
1F
100
AcDbEntity
  8
D-TTL-TXT
 62
     7
100
AcDbLine
 10
790.2027193416552
 20
127.4874754837947
 30
0.0
 11
795.0984361069686
 21
132.3831922491081
 31
0.0
  0
LINE
  5
13C
330
1F
100
AcDbEntity
  8
D-TTL-TXT
 62
     7
100
AcDbLine
 10
789.4735700361616
 20
127.9041322297416
 30
0.0
 11
794.8901077339814
 21
133.3206699276343
 31
0.0
  0
LINE
  5
13D
330
1F
100
AcDbEntity
  8
D-TTL-TXT
 62
     7
100
AcDbLine
 10
788.8485849171821
 20
128.4249531621344
 30
0.0
 11
794.8901077339814
 21
134.4664759791294
 31
0.0
  0
LINE
  5
13E
330
1F
100
AcDbEntity
  8
D-TTL-TXT
 62
     7
100
AcDbLine
 10
788.3277639847256
 20
129.0499382812368
 30
0.0
 11
794.9942719204591
 21
135.7164462169703
 31
0.0
  0
LINE
  5
13F
330
1F
100
AcDbEntity
  8
D-TTL-TXT
 62
     7
100
AcDbLine
 10
799.8899886857725
 20
141.8621332202337
 30
0.0
 11
800.3066454317195
 21
142.1746257798577
 31
0.0
  0
LINE
  5
140
330
1F
100
AcDbEntity
  8
D-TTL-TXT
 62
     7
100
AcDbLine
 10
787.7027788656687
 20
129.6749234002845
 30
0.0
 11
795.5150928529156
 21
137.3830732008673
 31
0.0
  0
LINE
  5
141
330
1F
100
AcDbEntity
  8
D-TTL-TXT
 62
     7
100
AcDbLine
 10
787.3902863063086
 20
130.5082368923422
 30
0.0
 11
799.0566751938286
 21
142.1746257798577
 31
0.0
  0
LINE
  5
142
330
1F
100
AcDbEntity
  8
D-TTL-TXT
 62
     7
100
AcDbLine
 10
786.9736295602524
 20
131.2373861976039
 30
0.0
 11
797.9108691424335
 21
142.1746257798577
 31
0.0
  0
LINE
  5
143
330
1F
100
AcDbEntity
  8
D-TTL-TXT
 62
     7
100
AcDbLine
 10
786.661137000815
 20
132.1748638762392
 30
0.0
 11
796.7650630908792
 21
142.1746257798577
 31
0.0
  0
LINE
  5
144
330
1F
100
AcDbEntity
  8
D-TTL-TXT
 62
     7
100
AcDbLine
 10
786.4528086277823
 20
133.1123415544925
 30
0.0
 11
795.6192570394342
 21
142.1746257798577
 31
0.0
  0
LINE
  5
145
330
1F
100
AcDbEntity
  8
D-TTL-TXT
 62
     7
100
AcDbLine
 10
786.3486444413865
 20
134.1539834195282
 30
0.0
 11
794.3692868014295
 21
142.1746257798577
 31
0.0
  0
LINE
  5
146
330
1F
100
AcDbEntity
  8
D-TTL-TXT
 62
     7
100
AcDbLine
 10
786.4528086277823
 20
135.5081178441241
 30
0.0
 11
793.223480750039
 21
142.1746257798577
 31
0.0
  0
LINE
  5
147
330
1F
100
AcDbEntity
  8
D-TTL-TXT
 62
     7
100
AcDbLine
 10
786.8694653737748
 20
136.9664164549203
 30
0.0
 11
791.7651821391155
 21
141.9662974067569
 31
0.0
  0
LINE
  5
148
330
1F
100
AcDbEntity
  8
D-TTL-TXT
 62
     7
100
AcDbLine
 10
786.9736295602524
 20
131.3415503842361
 30
0.0
 11
791.4526895795461
 21
126.7583261782374
 31
0.0
  0
LINE
  5
149
330
1F
100
AcDbEntity
  8
D-TTL-TXT
 62
     7
100
AcDbLine
 10
786.4528086277823
 20
133.0081773681331
 30
0.0
 11
793.1193165635159
 21
126.3416694323996
 31
0.0
  0
LINE
  5
14A
330
1F
100
AcDbEntity
  8
D-TTL-TXT
 62
     7
100
AcDbLine
 10
786.3486444413865
 20
134.258147605974
 30
0.0
 11
794.3692868014295
 21
126.2375052457673
 31
0.0
  0
LINE
  5
14B
330
1F
100
AcDbEntity
  8
D-TTL-TXT
 62
     7
100
AcDbLine
 10
786.4528086277823
 20
135.4039536574919
 30
0.0
 11
795.6192570394342
 21
126.2375052457673
 31
0.0
  0
LINE
  5
14C
330
1F
100
AcDbEntity
  8
D-TTL-TXT
 62
     7
100
AcDbLine
 10
786.661137000815
 20
136.3414313360181
 30
0.0
 11
796.7650630908792
 21
126.2375052457673
 31
0.0
  0
LINE
  5
14D
330
1F
100
AcDbEntity
  8
D-TTL-TXT
 62
     7
100
AcDbLine
 10
786.8694653737748
 20
137.278909014235
 30
0.0
 11
797.806704955874
 21
126.3416694323996
 31
0.0
  0
LINE
  5
14E
330
1F
100
AcDbEntity
  8
D-TTL-TXT
 62
     7
100
AcDbLine
 10
787.286122119749
 20
138.0080583199696
 30
0.0
 11
798.9525110072463
 21
126.445833618759
 31
0.0
  0
LINE
  5
14F
330
1F
100
AcDbEntity
  8
D-TTL-TXT
 62
     7
100
AcDbLine
 10
799.577496126335
 20
126.9666545513382
 30
0.0
 11
799.8899886857725
 21
126.5499978053913
 31
0.0
  0
LINE
  5
150
330
1F
100
AcDbEntity
  8
D-TTL-TXT
 62
     7
100
AcDbLine
 10
787.7027788656687
 20
138.8413718119727
 30
0.0
 11
795.7234212259481
 21
130.8207294516569
 31
0.0
  0
LINE
  5
151
330
1F
100
AcDbEntity
  8
D-TTL-TXT
 62
     7
100
AcDbLine
 10
788.2235997982752
 20
139.4663569307886
 30
0.0
 11
795.0984361069686
 21
132.591520622077
 31
0.0
  0
LINE
  5
152
330
1F
100
AcDbEntity
  8
D-TTL-TXT
 62
     7
100
AcDbLine
 10
788.7444207307817
 20
140.0913420497045
 30
0.0
 11
794.8901077339814
 21
133.9456550463865
 31
0.0
  0
LINE
  5
153
330
1F
100
AcDbEntity
  8
D-TTL-TXT
 62
     7
100
AcDbLine
 10
789.3694058496476
 20
140.61216298212
 30
0.0
 11
794.8901077339814
 21
135.091461097868
 31
0.0
  0
LINE
  5
154
330
1F
100
AcDbEntity
  8
D-TTL-TXT
 62
     7
100
AcDbLine
 10
790.0985551551457
 20
141.1329839148629
 30
0.0
 11
795.2026002934871
 21
136.0289387765806
 31
0.0
  0
LINE
  5
155
330
1F
100
AcDbEntity
  8
D-TTL-TXT
 62
     7
100
AcDbLine
 10
790.827704460753
 20
141.5496406608099
 30
0.0
 11
795.4109286665152
 21
136.9664164549203
 31
0.0
  0
LINE
  5
156
330
1F
100
AcDbEntity
  8
D-TTL-TXT
 62
     7
100
AcDbLine
 10
791.6610179526469
 20
141.9662974067569
 30
0.0
 11
795.7234212259481
 21
137.7997299470007
 31
0.0
  0
LINE
  5
157
330
1F
100
AcDbEntity
  8
D-TTL-TXT
 62
     7
100
AcDbLine
 10
792.4943314446545
 20
142.1746257798577
 30
0.0
 11
796.1400779718951
 21
138.6330434388947
 31
0.0
  0
LINE
  5
158
330
1F
100
AcDbEntity
  8
D-TTL-TXT
 62
     7
100
AcDbLine
 10
793.7443016825682
 20
142.1746257798577
 30
0.0
 11
796.6608989044016
 21
139.2580285578105
 31
0.0
  0
LINE
  5
159
330
1F
100
AcDbEntity
  8
D-TTL-TXT
 62
     7
100
AcDbLine
 10
794.8901077339814
 20
142.1746257798577
 30
0.0
 11
797.1817198368262
 21
139.8830136768583
 31
0.0
  0
LINE
  5
15A
330
1F
100
AcDbEntity
  8
D-TTL-TXT
 62
     7
100
AcDbLine
 10
796.0359137853811
 20
142.1746257798577
 30
0.0
 11
797.7025407692827
 21
140.507998795947
 31
0.0
  0
LINE
  5
15B
330
1F
100
AcDbEntity
  8
D-TTL-TXT
 62
     7
100
AcDbLine
 10
797.1817198368262
 20
142.1746257798577
 30
0.0
 11
798.4316900748217
 21
141.0288197283398
 31
0.0
  0
LINE
  5
15C
330
1F
100
AcDbEntity
  8
D-TTL-TXT
 62
     7
100
AcDbLine
 10
798.4316900748217
 20
142.1746257798577
 30
0.0
 11
799.1608393803881
 21
141.4454764741776
 31
0.0
  0
LINE
  5
15D
330
1F
100
AcDbEntity
  8
D-TTL-TXT
 62
     7
100
AcDbLine
 10
799.577496126335
 20
142.1746257798577
 30
0.0
 11
799.994152872282
 21
141.8621332202337
 31
0.0
  0
LINE
  5
15E
330
1F
100
AcDbEntity
  8
D-TTL-TXT
 62
     7
100
AcDbLine
 10
800.7233021777755
 20
142.1746257798577
 30
0.0
 11
800.8274663642987
 21
142.1746257798577
 31
0.0
  0
LINE
  5
15F
330
1F
100
AcDbEntity
  8
D-TTL-TXT
 62
     7
100
AcDbLine
 10
799.994152872282
 20
157.7992537542013
 30
0.0
 11
800.0983170588005
 21
157.7992537542013
 31
0.0
  0
LINE
  5
160
330
1F
100
AcDbEntity
  8
D-TTL-TXT
 62
     7
100
AcDbLine
 10
798.5358542612994
 20
158.111746313516
 30
0.0
 11
799.2650035667884
 21
157.3825970080679
 31
0.0
  0
LINE
  5
161
330
1F
100
AcDbEntity
  8
D-TTL-TXT
 62
     7
100
AcDbLine
 10
797.2858840233357
 20
158.2159105001483
 30
0.0
 11
798.5358542612994
 21
156.9659402621209
 31
0.0
  0
LINE
  5
162
330
1F
100
AcDbEntity
  8
D-TTL-TXT
 62
     7
100
AcDbLine
 10
796.0359137853811
 20
158.2159105001483
 30
0.0
 11
797.806704955874
 21
156.4451193295417
 31
0.0
  0
LINE
  5
163
330
1F
100
AcDbEntity
  8
D-TTL-TXT
 62
     7
100
AcDbLine
 10
794.8901077339814
 20
158.2159105001483
 30
0.0
 11
797.1817198368262
 21
155.9242983971489
 31
0.0
  0
LINE
  5
164
330
1F
100
AcDbEntity
  8
D-TTL-TXT
 62
     7
100
AcDbLine
 10
793.7443016825682
 20
158.2159105001483
 30
0.0
 11
796.6608989044016
 21
155.1951490917008
 31
0.0
  0
LINE
  5
165
330
1F
100
AcDbEntity
  8
D-TTL-TXT
 62
     7
100
AcDbLine
 10
792.7026598174598
 20
158.111746313516
 30
0.0
 11
796.1400779718951
 21
154.5701639726758
 31
0.0
  0
LINE
  5
166
330
1F
100
AcDbEntity
  8
D-TTL-TXT
 62
     7
100
AcDbLine
 10
791.7651821391155
 20
157.7992537542013
 30
0.0
 11
795.7234212259481
 21
153.8410146674141
 31
0.0
  0
LINE
  5
167
330
1F
100
AcDbEntity
  8
D-TTL-TXT
 62
     7
100
AcDbLine
 10
790.9318686471488
 20
157.486761194591
 30
0.0
 11
795.4109286665152
 21
153.0077011753337
 31
0.0
  0
LINE
  5
168
330
1F
100
AcDbEntity
  8
D-TTL-TXT
 62
     7
100
AcDbLine
 10
790.2027193416552
 20
156.9659402621209
 30
0.0
 11
795.0984361069686
 21
152.0702234968075
 31
0.0
  0
LINE
  5
169
330
1F
100
AcDbEntity
  8
D-TTL-TXT
 62
     7
100
AcDbLine
 10
789.4735700361616
 20
156.549283516174
 30
0.0
 11
794.8901077339814
 21
151.1327458184678
 31
0.0
  0
LINE
  5
16A
330
1F
100
AcDbEntity
  8
D-TTL-TXT
 62
     7
100
AcDbLine
 10
788.8485849171821
 20
156.0284625837812
 30
0.0
 11
794.8901077339814
 21
149.9869397669636
 31
0.0
  0
LINE
  5
16B
330
1F
100
AcDbEntity
  8
D-TTL-TXT
 62
     7
100
AcDbLine
 10
788.3277639847256
 20
155.4034774646925
 30
0.0
 11
794.9942719204591
 21
148.736969528959
 31
0.0
  0
LINE
  5
16C
330
1F
100
AcDbEntity
  8
D-TTL-TXT
 62
     7
100
AcDbLine
 10
799.8899886857725
 20
142.5912825256819
 30
0.0
 11
800.3066454317195
 21
142.2787899660716
 31
0.0
  0
LINE
  5
16D
330
1F
100
AcDbEntity
  8
D-TTL-TXT
 62
     7
100
AcDbLine
 10
787.7027788656687
 20
154.7784923456447
 30
0.0
 11
795.5150928529156
 21
147.0703425450483
 31
0.0
  0
LINE
  5
16E
330
1F
100
AcDbEntity
  8
D-TTL-TXT
 62
     7
100
AcDbLine
 10
787.3902863063086
 20
153.9451788535871
 30
0.0
 11
799.0566751938286
 21
142.2787899660716
 31
0.0
  0
LINE
  5
16F
330
1F
100
AcDbEntity
  8
D-TTL-TXT
 62
     7
100
AcDbLine
 10
786.9736295602524
 20
153.2160295483254
 30
0.0
 11
797.9108691424335
 21
142.2787899660716
 31
0.0
  0
LINE
  5
170
330
1F
100
AcDbEntity
  8
D-TTL-TXT
 62
     7
100
AcDbLine
 10
786.661137000815
 20
152.2785518696764
 30
0.0
 11
796.7650630908792
 21
142.2787899660716
 31
0.0
  0
LINE
  5
171
330
1F
100
AcDbEntity
  8
D-TTL-TXT
 62
     7
100
AcDbLine
 10
786.4528086277823
 20
151.3410741914367
 30
0.0
 11
795.6192570394342
 21
142.2787899660716
 31
0.0
  0
LINE
  5
172
330
1F
100
AcDbEntity
  8
D-TTL-TXT
 62
     7
100
AcDbLine
 10
786.3486444413865
 20
150.2994323263874
 30
0.0
 11
794.3692868014295
 21
142.2787899660716
 31
0.0
  0
LINE
  5
173
330
1F
100
AcDbEntity
  8
D-TTL-TXT
 62
     7
100
AcDbLine
 10
786.4528086277823
 20
148.9452979018051
 30
0.0
 11
793.223480750039
 21
142.2787899660716
 31
0.0
  0
LINE
  5
174
330
1F
100
AcDbEntity
  8
D-TTL-TXT
 62
     7
100
AcDbLine
 10
786.8694653737748
 20
147.4869992909953
 30
0.0
 11
791.7651821391155
 21
142.4871183391724
 31
0.0
  0
LINE
  5
175
330
1F
100
AcDbEntity
  8
D-TTL-TXT
 62
     7
100
AcDbLine
 10
786.9736295602524
 20
153.1118653616931
 30
0.0
 11
791.4526895795461
 21
157.6950895676918
 31
0.0
  0
LINE
  5
176
330
1F
100
AcDbEntity
  8
D-TTL-TXT
 62
     7
100
AcDbLine
 10
786.4528086277823
 20
151.4452383777825
 30
0.0
 11
793.1193165635159
 21
158.111746313516
 31
0.0
  0
LINE
  5
177
330
1F
100
AcDbEntity
  8
D-TTL-TXT
 62
     7
100
AcDbLine
 10
786.3486444413865
 20
150.1952681399416
 30
0.0
 11
794.3692868014295
 21
158.2159105001483
 31
0.0
  0
LINE
  5
178
330
1F
100
AcDbEntity
  8
D-TTL-TXT
 62
     7
100
AcDbLine
 10
786.4528086277823
 20
149.0494620884374
 30
0.0
 11
795.6192570394342
 21
158.2159105001483
 31
0.0
  0
LINE
  5
179
330
1F
100
AcDbEntity
  8
D-TTL-TXT
 62
     7
100
AcDbLine
 10
786.661137000815
 20
148.1119844099112
 30
0.0
 11
796.7650630908792
 21
158.2159105001483
 31
0.0
  0
LINE
  5
17A
330
1F
100
AcDbEntity
  8
D-TTL-TXT
 62
     7
100
AcDbLine
 10
786.8694653737748
 20
147.1745067316806
 30
0.0
 11
797.806704955874
 21
158.111746313516
 31
0.0
  0
LINE
  5
17B
330
1F
100
AcDbEntity
  8
D-TTL-TXT
 62
     7
100
AcDbLine
 10
787.286122119749
 20
146.4453574259596
 30
0.0
 11
798.9525110072463
 21
158.0075821271702
 31
0.0
  0
LINE
  5
17C
330
1F
100
AcDbEntity
  8
D-TTL-TXT
 62
     7
100
AcDbLine
 10
799.577496126335
 20
157.486761194591
 30
0.0
 11
799.8899886857725
 21
157.903417940538
 31
0.0
  0
LINE
  5
17D
330
1F
100
AcDbEntity
  8
D-TTL-TXT
 62
     7
100
AcDbLine
 10
787.7027788656687
 20
145.6120439339429
 30
0.0
 11
795.7234212259481
 21
153.6326862942724
 31
0.0
  0
LINE
  5
17E
330
1F
100
AcDbEntity
  8
D-TTL-TXT
 62
     7
100
AcDbLine
 10
788.2235997982752
 20
144.9870588150179
 30
0.0
 11
795.0984361069686
 21
151.8618951238522
 31
0.0
  0
LINE
  5
17F
330
1F
100
AcDbEntity
  8
D-TTL-TXT
 62
     7
100
AcDbLine
 10
788.7444207307817
 20
144.3620736962248
 30
0.0
 11
794.8901077339814
 21
150.5077606995428
 31
0.0
  0
LINE
  5
180
330
1F
100
AcDbEntity
  8
D-TTL-TXT
 62
     7
100
AcDbLine
 10
789.3694058496476
 20
143.8412527638092
 30
0.0
 11
794.8901077339814
 21
149.3619546480477
 31
0.0
  0
LINE
  5
181
330
1F
100
AcDbEntity
  8
D-TTL-TXT
 62
     7
100
AcDbLine
 10
790.0985551551457
 20
143.32043183123
 30
0.0
 11
795.2026002934871
 21
148.424476969335
 31
0.0
  0
LINE
  5
182
330
1F
100
AcDbEntity
  8
D-TTL-TXT
 62
     7
100
AcDbLine
 10
790.827704460753
 20
142.9037750851193
 30
0.0
 11
795.4109286665152
 21
147.4869992909953
 31
0.0
  0
LINE
  5
183
330
1F
100
AcDbEntity
  8
D-TTL-TXT
 62
     7
100
AcDbLine
 10
791.6610179526469
 20
142.4871183391724
 30
0.0
 11
795.7234212259481
 21
146.6536857991013
 31
0.0
  0
LINE
  5
184
330
1F
100
AcDbEntity
  8
D-TTL-TXT
 62
     7
100
AcDbLine
 10
792.4943314446545
 20
142.2787899660716
 30
0.0
 11
796.1400779718951
 21
145.820372307021
 31
0.0
  0
LINE
  5
185
330
1F
100
AcDbEntity
  8
D-TTL-TXT
 62
     7
100
AcDbLine
 10
793.7443016825682
 20
142.2787899660716
 30
0.0
 11
796.6608989044016
 21
145.1953871881187
 31
0.0
  0
LINE
  5
186
330
1F
100
AcDbEntity
  8
D-TTL-TXT
 62
     7
100
AcDbLine
 10
794.8901077339814
 20
142.2787899660716
 30
0.0
 11
797.1817198368262
 21
144.5704020690709
 31
0.0
  0
LINE
  5
187
330
1F
100
AcDbEntity
  8
D-TTL-TXT
 62
     7
100
AcDbLine
 10
796.0359137853811
 20
142.2787899660716
 30
0.0
 11
797.7025407692827
 21
143.9454169499686
 31
0.0
  0
LINE
  5
188
330
1F
100
AcDbEntity
  8
D-TTL-TXT
 62
     7
100
AcDbLine
 10
797.1817198368262
 20
142.2787899660716
 30
0.0
 11
798.4316900748217
 21
143.4245960175758
 31
0.0
  0
LINE
  5
189
330
1F
100
AcDbEntity
  8
D-TTL-TXT
 62
     7
100
AcDbLine
 10
798.4316900748217
 20
142.2787899660716
 30
0.0
 11
799.1608393803881
 21
143.0079392717516
 31
0.0
  0
LINE
  5
18A
330
1F
100
AcDbEntity
  8
D-TTL-TXT
 62
     7
100
AcDbLine
 10
799.577496126335
 20
142.2787899660716
 30
0.0
 11
799.994152872282
 21
142.5912825256819
 31
0.0
  0
LINE
  5
18B
330
1F
100
AcDbEntity
  8
D-TTL-TXT
 62
     7
100
AcDbLine
 10
800.7233021777755
 20
142.2787899660716
 30
0.0
 11
800.8274663642987
 21
142.2787899660716
 31
0.0
  0
ELLIPSE
  5
18C
330
1F
100
AcDbEntity
  8
D-TTL-TXT
 62
     7
100
AcDbEllipse
 10
794.5548688827147
 20
134.3531793432703
 30
0.0
 11
-5.796020700351643
 21
5.796020700351644
 31
0.0
210
0.0
220
0.0
230
1.0
 40
0.9999999999999724
 41
5.763119043080716
 42
8.374047898073323
  0
ELLIPSE
  5
18D
330
1F
100
AcDbEntity
  8
D-TTL-TXT
 62
     7
100
AcDbEllipse
 10
794.5548688827147
 20
150.173115167222
 30
0.0
 11
-5.796020700351643
 21
5.796020700351644
 31
0.0
210
0.0
220
0.0
230
1.0
 40
0.9999999999999724
 41
5.763119043080716
 42
8.374047898073323
  0
ELLIPSE
  5
18E
330
1F
100
AcDbEntity
  8
D-TTL-TXT
 62
     7
100
AcDbEllipse
 10
803.1131963573397
 20
134.3531793432703
 30
0.0
 11
-5.796020700351643
 21
5.796020700351644
 31
0.0
210
0.0
220
0.0
230
1.0
 40
0.9999999999999724
 41
5.763119043080716
 42
8.374047898073323
  0
ELLIPSE
  5
18F
330
1F
100
AcDbEntity
  8
D-TTL-TXT
 62
     7
100
AcDbEllipse
 10
803.1131963573397
 20
150.173115167222
 30
0.0
 11
-5.796020700351643
 21
5.796020700351644
 31
0.0
210
0.0
220
0.0
230
1.0
 40
0.9999999999999724
 41
5.763119043080716
 42
8.374047898073323
  0
LINE
  5
190
330
1F
100
AcDbEntity
  8
D-TTL-TXT
 62
     7
100
AcDbLine
 10
820.0978408660011
 20
132.591520622077
 30
0.0
 11
822.9102739014161
 21
135.5081178441241
 31
0.0
  0
LINE
  5
191
330
1F
100
AcDbEntity
  8
D-TTL-TXT
 62
     7
100
AcDbLine
 10
815.306288287129
 20
129.0499382812368
 30
0.0
 11
826.7643488017347
 21
140.4038346093148
 31
0.0
  0
LINE
  5
192
330
1F
100
AcDbEntity
  8
D-TTL-TXT
 62
     7
100
AcDbLine
 10
813.0146761843207
 20
127.9041322297416
 30
0.0
 11
827.2851697341502
 21
142.1746257798577
 31
0.0
  0
LINE
  5
193
330
1F
100
AcDbEntity
  8
D-TTL-TXT
 62
     7
100
AcDbLine
 10
811.2438850139005
 20
127.2791471106529
 30
0.0
 11
826.139363682687
 21
142.1746257798577
 31
0.0
  0
LINE
  5
194
330
1F
100
AcDbEntity
  8
D-TTL-TXT
 62
     7
100
AcDbLine
 10
809.577258029949
 20
126.7583261782374
 30
0.0
 11
824.9935576313145
 21
142.1746257798577
 31
0.0
  0
LINE
  5
195
330
1F
100
AcDbEntity
  8
D-TTL-TXT
 62
     7
100
AcDbLine
 10
808.118959418889
 20
126.5499978053913
 30
0.0
 11
823.7435873933554
 21
142.1746257798577
 31
0.0
  0
LINE
  5
196
330
1F
100
AcDbEntity
  8
D-TTL-TXT
 62
     7
100
AcDbLine
 10
806.7648249945341
 20
126.3416694323996
 30
0.0
 11
822.5977813418467
 21
142.1746257798577
 31
0.0
  0
LINE
  5
197
330
1F
100
AcDbEntity
  8
D-TTL-TXT
 62
     7
100
AcDbLine
 10
805.5148547565021
 20
126.3416694323996
 30
0.0
 11
821.451975290356
 21
142.1746257798577
 31
0.0
  0
LINE
  5
198
330
1F
100
AcDbEntity
  8
D-TTL-TXT
 62
     7
100
AcDbLine
 10
817.5979003900829
 20
139.5705211172344
 30
0.0
 11
820.2020050524698
 21
142.1746257798577
 31
0.0
  0
LINE
  5
199
330
1F
100
AcDbEntity
  8
D-TTL-TXT
 62
     7
100
AcDbLine
 10
806.0356756889268
 20
128.7374457217584
 30
0.0
 11
808.118959418889
 21
126.5499978053913
 31
0.0
  0
LINE
  5
19A
330
1F
100
AcDbEntity
  8
D-TTL-TXT
 62
     7
100
AcDbLine
 10
806.8689891810027
 20
129.0499382812368
 30
0.0
 11
809.1606012839747
 21
126.7583261782374
 31
0.0
  0
LINE
  5
19B
330
1F
100
AcDbEntity
  8
D-TTL-TXT
 62
     7
100
AcDbLine
 10
807.5981384865007
 20
129.5707592136523
 30
0.0
 11
810.0980789623463
 21
126.9666545513382
 31
0.0
  0
LINE
  5
19C
330
1F
100
AcDbEntity
  8
D-TTL-TXT
 62
     7
100
AcDbLine
 10
808.2231236054486
 20
129.987415959763
 30
0.0
 11
811.0355566407497
 21
127.2791471106529
 31
0.0
  0
LINE
  5
19D
330
1F
100
AcDbEntity
  8
D-TTL-TXT
 62
     7
100
AcDbLine
 10
808.9522729109011
 20
130.5082368923422
 30
0.0
 11
811.973034319276
 21
127.4874754837947
 31
0.0
  0
LINE
  5
19E
330
1F
100
AcDbEntity
  8
D-TTL-TXT
 62
     7
100
AcDbLine
 10
809.577258029949
 20
131.0290578247577
 30
0.0
 11
812.8063478112199
 21
127.9041322297416
 31
0.0
  0
LINE
  5
19F
330
1F
100
AcDbEntity
  8
D-TTL-TXT
 62
     7
100
AcDbLine
 10
810.3064073353744
 20
131.5498787572142
 30
0.0
 11
813.6396613031866
 21
128.2166247893428
 31
0.0
  0
LINE
  5
1A0
330
1F
100
AcDbEntity
  8
D-TTL-TXT
 62
     7
100
AcDbLine
 10
810.9313924543494
 20
132.0706996896069
 30
0.0
 11
814.3688106086028
 21
128.5291173487667
 31
0.0
  0
LINE
  5
1A1
330
1F
100
AcDbEntity
  8
D-TTL-TXT
 62
     7
100
AcDbLine
 10
811.5563775733289
 20
132.591520622077
 30
0.0
 11
815.2021241006877
 21
128.9457740946045
 31
0.0
  0
LINE
  5
1A2
330
1F
100
AcDbEntity
  8
D-TTL-TXT
 62
     7
100
AcDbLine
 10
812.0771985058672
 20
133.2165057411248
 30
0.0
 11
815.9312734061359
 21
129.3624308408471
 31
0.0
  0
LINE
  5
1A3
330
1F
100
AcDbEntity
  8
D-TTL-TXT
 62
     7
100
AcDbLine
 10
812.7021836246603
 20
133.7373266735812
 30
0.0
 11
816.6604227116295
 21
129.8832517732398
 31
0.0
  0
LINE
  5
1A4
330
1F
100
AcDbEntity
  8
D-TTL-TXT
 62
     7
100
AcDbLine
 10
813.327168743749
 20
134.3623117926063
 30
0.0
 11
817.2854078305363
 21
130.2999085191868
 31
0.0
  0
LINE
  5
1A5
330
1F
100
AcDbEntity
  8
D-TTL-TXT
 62
     7
100
AcDbLine
 10
813.8479896762145
 20
134.9872969114221
 30
0.0
 11
818.0145571360753
 21
130.8207294516569
 31
0.0
  0
LINE
  5
1A6
330
1F
100
AcDbEntity
  8
D-TTL-TXT
 62
     7
100
AcDbLine
 10
814.4729747951895
 20
135.612282030338
 30
0.0
 11
818.6395422550095
 21
131.4457145705819
 31
0.0
  0
LINE
  5
1A7
330
1F
100
AcDbEntity
  8
D-TTL-TXT
 62
     7
100
AcDbLine
 10
814.9937957276597
 20
136.2372671493858
 30
0.0
 11
819.264527373989
 21
131.9665355031611
 31
0.0
  0
LINE
  5
1A8
330
1F
100
AcDbEntity
  8
D-TTL-TXT
 62
     7
100
AcDbLine
 10
815.5146166601161
 20
136.8622522684745
 30
0.0
 11
819.889512492973
 21
132.4873564355539
 31
0.0
  0
LINE
  5
1A9
330
1F
100
AcDbEntity
  8
D-TTL-TXT
 62
     7
100
AcDbLine
 10
816.0354375925816
 20
137.4872373873904
 30
0.0
 11
820.5144976119481
 21
133.0081773681331
 31
0.0
  0
LINE
  5
1AA
330
1F
100
AcDbEntity
  8
D-TTL-TXT
 62
     7
100
AcDbLine
 10
816.556258525161
 20
138.1122225063154
 30
0.0
 11
821.1394827309231
 21
133.6331624870718
 31
0.0
  0
LINE
  5
1AB
330
1F
100
AcDbEntity
  8
D-TTL-TXT
 62
     7
100
AcDbLine
 10
817.0770794576219
 20
138.8413718119727
 30
0.0
 11
821.7644678499027
 21
134.258147605974
 31
0.0
  0
LINE
  5
1AC
330
1F
100
AcDbEntity
  8
D-TTL-TXT
 62
     7
100
AcDbLine
 10
817.5979003900829
 20
139.4663569307886
 30
0.0
 11
822.2852887823682
 21
134.7789685384441
 31
0.0
  0
LINE
  5
1AD
330
1F
100
AcDbEntity
  8
D-TTL-TXT
 62
     7
100
AcDbLine
 10
818.0145571360753
 20
140.1955062363367
 30
0.0
 11
822.8061097148293
 21
135.4039536574919
 31
0.0
  0
LINE
  5
1AE
330
1F
100
AcDbEntity
  8
D-TTL-TXT
 62
     7
100
AcDbLine
 10
818.5353780685
 20
140.9246555417076
 30
0.0
 11
823.4310948338134
 21
136.0289387765806
 31
0.0
  0
LINE
  5
1AF
330
1F
100
AcDbEntity
  8
D-TTL-TXT
 62
     7
100
AcDbLine
 10
818.9520348144469
 20
141.6538048471557
 30
0.0
 11
823.9519157662698
 21
136.6539238954965
 31
0.0
  0
LINE
  5
1B0
330
1F
100
AcDbEntity
  8
D-TTL-TXT
 62
     7
100
AcDbLine
 10
819.5770199335356
 20
142.1746257798577
 30
0.0
 11
824.4727366988081
 21
137.278909014235
 31
0.0
  0
LINE
  5
1B1
330
1F
100
AcDbEntity
  8
D-TTL-TXT
 62
     7
100
AcDbLine
 10
820.7228259849761
 20
142.1746257798577
 30
0.0
 11
824.9935576313145
 21
138.0080583199696
 31
0.0
  0
LINE
  5
1B2
330
1F
100
AcDbEntity
  8
D-TTL-TXT
 62
     7
100
AcDbLine
 10
821.9727962228898
 20
142.1746257798577
 30
0.0
 11
825.5143785637301
 21
138.6330434388947
 31
0.0
  0
LINE
  5
1B3
330
1F
100
AcDbEntity
  8
D-TTL-TXT
 62
     7
100
AcDbLine
 10
823.1186022743031
 20
142.1746257798577
 30
0.0
 11
826.0351994961274
 21
139.3621927444428
 31
0.0
  0
LINE
  5
1B4
330
1F
100
AcDbEntity
  8
D-TTL-TXT
 62
     7
100
AcDbLine
 10
824.2644083258165
 20
142.1746257798577
 30
0.0
 11
826.4518562421836
 21
139.9871778633678
 31
0.0
  0
LINE
  5
1B5
330
1F
100
AcDbEntity
  8
D-TTL-TXT
 62
     7
100
AcDbLine
 10
825.4102143773343
 20
142.1746257798577
 30
0.0
 11
826.9726771746537
 21
140.7163271687523
 31
0.0
  0
LINE
  5
1B6
330
1F
100
AcDbEntity
  8
D-TTL-TXT
 62
     7
100
AcDbLine
 10
826.6601846152161
 20
142.1746257798577
 30
0.0
 11
827.3893339207097
 21
141.4454764741776
 31
0.0
  0
LINE
  5
1B7
330
1F
100
AcDbEntity
  8
D-TTL-TXT
 62
     7
100
AcDbLine
 10
827.8059906666566
 20
142.1746257798577
 30
0.0
 11
827.9101548531798
 21
142.1746257798577
 31
0.0
  0
LINE
  5
1B8
330
1F
100
AcDbEntity
  8
D-TTL-TXT
 62
     7
100
AcDbLine
 10
820.0978408660011
 20
151.8618951238522
 30
0.0
 11
822.9102739014161
 21
148.9452979018051
 31
0.0
  0
LINE
  5
1B9
330
1F
100
AcDbEntity
  8
D-TTL-TXT
 62
     7
100
AcDbLine
 10
815.306288287129
 20
155.4034774646925
 30
0.0
 11
826.7643488017347
 21
144.0495811366008
 31
0.0
  0
LINE
  5
1BA
330
1F
100
AcDbEntity
  8
D-TTL-TXT
 62
     7
100
AcDbLine
 10
813.0146761843207
 20
156.549283516174
 30
0.0
 11
827.2851697341502
 21
142.2787899660716
 31
0.0
  0
LINE
  5
1BB
330
1F
100
AcDbEntity
  8
D-TTL-TXT
 62
     7
100
AcDbLine
 10
811.2438850139005
 20
157.1742686352763
 30
0.0
 11
826.139363682687
 21
142.2787899660716
 31
0.0
  0
LINE
  5
1BC
330
1F
100
AcDbEntity
  8
D-TTL-TXT
 62
     7
100
AcDbLine
 10
809.577258029949
 20
157.6950895676918
 30
0.0
 11
824.9935576313145
 21
142.2787899660716
 31
0.0
  0
LINE
  5
1BD
330
1F
100
AcDbEntity
  8
D-TTL-TXT
 62
     7
100
AcDbLine
 10
808.118959418889
 20
157.903417940538
 30
0.0
 11
823.7435873933554
 21
142.2787899660716
 31
0.0
  0
LINE
  5
1BE
330
1F
100
AcDbEntity
  8
D-TTL-TXT
 62
     7
100
AcDbLine
 10
806.7648249945341
 20
158.111746313516
 30
0.0
 11
822.5977813418467
 21
142.2787899660716
 31
0.0
  0
LINE
  5
1BF
330
1F
100
AcDbEntity
  8
D-TTL-TXT
 62
     7
100
AcDbLine
 10
805.5148547565021
 20
158.111746313516
 30
0.0
 11
821.451975290356
 21
142.2787899660716
 31
0.0
  0
LINE
  5
1C0
330
1F
100
AcDbEntity
  8
D-TTL-TXT
 62
     7
100
AcDbLine
 10
817.5979003900829
 20
144.8828946286812
 30
0.0
 11
820.2020050524698
 21
142.2787899660716
 31
0.0
  0
LINE
  5
1C1
330
1F
100
AcDbEntity
  8
D-TTL-TXT
 62
     7
100
AcDbLine
 10
806.0356756889268
 20
155.7159700241709
 30
0.0
 11
808.118959418889
 21
157.903417940538
 31
0.0
  0
LINE
  5
1C2
330
1F
100
AcDbEntity
  8
D-TTL-TXT
 62
     7
100
AcDbLine
 10
806.8689891810027
 20
155.4034774646925
 30
0.0
 11
809.1606012839747
 21
157.6950895676918
 31
0.0
  0
LINE
  5
1C3
330
1F
100
AcDbEntity
  8
D-TTL-TXT
 62
     7
100
AcDbLine
 10
807.5981384865007
 20
154.882656532277
 30
0.0
 11
810.0980789623463
 21
157.486761194591
 31
0.0
  0
LINE
  5
1C4
330
1F
100
AcDbEntity
  8
D-TTL-TXT
 62
     7
100
AcDbLine
 10
808.2231236054486
 20
154.46599978633
 30
0.0
 11
811.0355566407497
 21
157.1742686352763
 31
0.0
  0
LINE
  5
1C5
330
1F
100
AcDbEntity
  8
D-TTL-TXT
 62
     7
100
AcDbLine
 10
808.9522729109011
 20
153.9451788535871
 30
0.0
 11
811.973034319276
 21
156.9659402621209
 31
0.0
  0
LINE
  5
1C6
330
1F
100
AcDbEntity
  8
D-TTL-TXT
 62
     7
100
AcDbLine
 10
809.577258029949
 20
153.4243579211715
 30
0.0
 11
812.8063478112199
 21
156.549283516174
 31
0.0
  0
LINE
  5
1C7
330
1F
100
AcDbEntity
  8
D-TTL-TXT
 62
     7
100
AcDbLine
 10
810.3064073353744
 20
152.9035369887015
 30
0.0
 11
813.6396613031866
 21
156.2367909565864
 31
0.0
  0
LINE
  5
1C8
330
1F
100
AcDbEntity
  8
D-TTL-TXT
 62
     7
100
AcDbLine
 10
810.9313924543494
 20
152.3827160563087
 30
0.0
 11
814.3688106086028
 21
155.9242983971489
 31
0.0
  0
LINE
  5
1C9
330
1F
100
AcDbEntity
  8
D-TTL-TXT
 62
     7
100
AcDbLine
 10
811.5563775733289
 20
151.8618951238522
 30
0.0
 11
815.2021241006877
 21
155.5076416513248
 31
0.0
  0
LINE
  5
1CA
330
1F
100
AcDbEntity
  8
D-TTL-TXT
 62
     7
100
AcDbLine
 10
812.0771985058672
 20
151.2369100048045
 30
0.0
 11
815.9312734061359
 21
155.0909849050686
 31
0.0
  0
LINE
  5
1CB
330
1F
100
AcDbEntity
  8
D-TTL-TXT
 62
     7
100
AcDbLine
 10
812.7021836246603
 20
150.7160890723344
 30
0.0
 11
816.6604227116295
 21
154.5701639726758
 31
0.0
  0
LINE
  5
1CC
330
1F
100
AcDbEntity
  8
D-TTL-TXT
 62
     7
100
AcDbLine
 10
813.327168743749
 20
150.0911039533093
 30
0.0
 11
817.2854078305363
 21
154.1535072267288
 31
0.0
  0
LINE
  5
1CD
330
1F
100
AcDbEntity
  8
D-TTL-TXT
 62
     7
100
AcDbLine
 10
813.8479896762145
 20
149.4661188343843
 30
0.0
 11
818.0145571360753
 21
153.6326862942724
 31
0.0
  0
LINE
  5
1CE
330
1F
100
AcDbEntity
  8
D-TTL-TXT
 62
     7
100
AcDbLine
 10
814.4729747951895
 20
148.8411337155912
 30
0.0
 11
818.6395422550095
 21
153.0077011753337
 31
0.0
  0
LINE
  5
1CF
330
1F
100
AcDbEntity
  8
D-TTL-TXT
 62
     7
100
AcDbLine
 10
814.9937957276597
 20
148.2161485965434
 30
0.0
 11
819.264527373989
 21
152.4868802427545
 31
0.0
  0
LINE
  5
1D0
330
1F
100
AcDbEntity
  8
D-TTL-TXT
 62
     7
100
AcDbLine
 10
815.5146166601161
 20
147.5911634774411
 30
0.0
 11
819.889512492973
 21
151.9660593103617
 31
0.0
  0
LINE
  5
1D1
330
1F
100
AcDbEntity
  8
D-TTL-TXT
 62
     7
100
AcDbLine
 10
816.0354375925816
 20
146.9661783585388
 30
0.0
 11
820.5144976119481
 21
151.4452383777825
 31
0.0
  0
LINE
  5
1D2
330
1F
100
AcDbEntity
  8
D-TTL-TXT
 62
     7
100
AcDbLine
 10
816.556258525161
 20
146.3411932396002
 30
0.0
 11
821.1394827309231
 21
150.8202532588575
 31
0.0
  0
LINE
  5
1D3
330
1F
100
AcDbEntity
  8
D-TTL-TXT
 62
     7
100
AcDbLine
 10
817.0770794576219
 20
145.6120439339429
 30
0.0
 11
821.7644678499027
 21
150.1952681399416
 31
0.0
  0
LINE
  5
1D4
330
1F
100
AcDbEntity
  8
D-TTL-TXT
 62
     7
100
AcDbLine
 10
817.5979003900829
 20
144.9870588150179
 30
0.0
 11
822.2852887823682
 21
149.6744472074851
 31
0.0
  0
LINE
  5
1D5
330
1F
100
AcDbEntity
  8
D-TTL-TXT
 62
     7
100
AcDbLine
 10
818.0145571360753
 20
144.2579095095925
 30
0.0
 11
822.8061097148293
 21
149.0494620884374
 31
0.0
  0
LINE
  5
1D6
330
1F
100
AcDbEntity
  8
D-TTL-TXT
 62
     7
100
AcDbLine
 10
818.5353780685
 20
143.5287602042081
 30
0.0
 11
823.4310948338134
 21
148.424476969335
 31
0.0
  0
LINE
  5
1D7
330
1F
100
AcDbEntity
  8
D-TTL-TXT
 62
     7
100
AcDbLine
 10
818.9520348144469
 20
142.7996108986508
 30
0.0
 11
823.9519157662698
 21
147.7994918505965
 31
0.0
  0
LINE
  5
1D8
330
1F
100
AcDbEntity
  8
D-TTL-TXT
 62
     7
100
AcDbLine
 10
819.5770199335356
 20
142.2787899660716
 30
0.0
 11
824.4727366988081
 21
147.1745067316806
 31
0.0
  0
LINE
  5
1D9
330
1F
100
AcDbEntity
  8
D-TTL-TXT
 62
     7
100
AcDbLine
 10
820.7228259849761
 20
142.2787899660716
 30
0.0
 11
824.9935576313145
 21
146.4453574259596
 31
0.0
  0
LINE
  5
1DA
330
1F
100
AcDbEntity
  8
D-TTL-TXT
 62
     7
100
AcDbLine
 10
821.9727962228898
 20
142.2787899660716
 30
0.0
 11
825.5143785637301
 21
145.820372307021
 31
0.0
  0
LINE
  5
1DB
330
1F
100
AcDbEntity
  8
D-TTL-TXT
 62
     7
100
AcDbLine
 10
823.1186022743031
 20
142.2787899660716
 30
0.0
 11
826.0351994961274
 21
145.0912230014864
 31
0.0
  0
LINE
  5
1DC
330
1F
100
AcDbEntity
  8
D-TTL-TXT
 62
     7
100
AcDbLine
 10
824.2644083258165
 20
142.2787899660716
 30
0.0
 11
826.4518562421836
 21
144.4662378827342
 31
0.0
  0
LINE
  5
1DD
330
1F
100
AcDbEntity
  8
D-TTL-TXT
 62
     7
100
AcDbLine
 10
825.4102143773343
 20
142.2787899660716
 30
0.0
 11
826.9726771746537
 21
143.737088577177
 31
0.0
  0
LINE
  5
1DE
330
1F
100
AcDbEntity
  8
D-TTL-TXT
 62
     7
100
AcDbLine
 10
826.6601846152161
 20
142.2787899660716
 30
0.0
 11
827.3893339207097
 21
143.0079392717516
 31
0.0
  0
LINE
  5
1DF
330
1F
100
AcDbEntity
  8
D-TTL-TXT
 62
     7
100
AcDbLine
 10
827.8059906666566
 20
142.2787899660716
 30
0.0
 11
827.9101548531798
 21
142.2787899660716
 31
0.0
  0
ELLIPSE
  5
1E0
330
1F
100
AcDbEntity
  8
D-TTL-TXT
 62
     7
100
AcDbEllipse
 10
783.498860961945
 20
163.5658734498383
 30
0.0
 11
-29.50470602404529
 21
29.50470602404529
 31
0.0
210
0.0
220
0.0
230
1.0
 40
0.9999999999999875
 41
2.977667909397148
 42
3.391179326840918
  0
ELLIPSE
  5
1E1
330
1F
100
AcDbEntity
  8
D-TTL-TXT
 62
     7
100
AcDbEllipse
 10
783.498860961945
 20
120.9604211443729
 30
0.0
 11
29.50470602404529
 21
29.50470602404529
 31
0.0
210
0.0
220
0.0
230
1.0
 40
0.9999999999999882
 41
6.03359863392846
 42
6.447110051372227
  0
ELLIPSE
  5
1E2
330
1F
100
AcDbEntity
  8
D-TTL-TXT
 62
     7
100
AcDbEllipse
 10
792.0571884363425
 20
163.5658734498383
 30
0.0
 11
29.50470602404574
 21
29.50470602404574
 31
0.0
210
0.0
220
0.0
230
1.0
 40
0.9999999999999829
 41
4.548464236192048
 42
4.961975653635803
  0
ELLIPSE
  5
1E3
330
1F
100
AcDbEntity
  8
D-TTL-TXT
 62
     7
100
AcDbEllipse
 10
792.0571884363425
 20
120.9604211443729
 30
0.0
 11
-29.50470602404574
 21
29.50470602404574
 31
0.0
210
0.0
220
0.0
230
1.0
 40
0.9999999999999827
 41
4.46280230713357
 42
4.876313724577331
  0
TEXT
  5
1E4
330
1F
100
AcDbEntity
  8
D-TTL-TXT
 62
     7
100
AcDbText
 10
999.399403734642
 20
107.1384382207114
 30
0.0
 40
9.000000000032741
  1
TEL （0776） 56-2310 （代）
  7
YOKO_GOTHIC
 11
999.399403734642
 21
105.4943913457055
 31
0.0
100
AcDbText
 73
     1
  0
TEXT
  5
1E5
330
1F
100
AcDbEntity
  8
D-TTL-TXT
 62
     7
100
AcDbText
 10
999.399403734642
 20
90.34737900713741
 30
0.0
 40
9.000000000032741
  1
FAX （0776） 56-0917
  7
YOKO_GOTHIC
 11
999.399403734642
 21
88.70333213213143
 31
0.0
100
AcDbText
 73
     1
  0
LINE
  5
1E6
330
1F
100
AcDbEntity
  8
D-TTL-TXT
  6
Continuous
 62
     7
100
AcDbLine
 10
1278.989420883681
 20
75.0
 30
0.0
 11
1278.989420883681
 21
170.610151805572
 31
0.0
  0
TEXT
  5
1E7
330
1F
100
AcDbEntity
  8
D-TTL-TXT
 62
     7
100
AcDbText
 10
1607.283066644613
 20
150.524448151514
 30
0.0
 40
17.50000000006366
  1
縮 尺
  7
YOKO_GOTHIC
 11
1607.283066644613
 21
147.3276903390024
 31
0.0
100
AcDbText
 73
     1
  0
LINE
  5
1E8
330
1F
100
AcDbEntity
  8
D-TTL-FRAM
 62
     7
100
AcDbLine
 10
1669.806060605842
 20
140.610151805572
 30
0.0
 11
1594.806060605842
 21
140.610151805572
 31
0.0
  0
TEXT
  5
1E9
330
1F
100
AcDbEntity
  8
D-TTL-TXT
 62
     7
100
AcDbText
 10
1607.283066644613
 20
105.6332191613504
 30
0.0
 40
17.50000000006366
  1
図 示
  7
YOKO_GOTHIC
 11
1607.283066644613
 21
102.4364613488387
 31
0.0
100
AcDbText
 73
     1
  0
TEXT
  5
1EA
330
1F
100
AcDbEntity
  8
D-TTL-TXT
 62
     7
100
AcDbText
 10
1695.154337944623
 20
119.1416032537748
 30
0.0
 40
17.50000000006366
  1
作 図
  7
YOKO_GOTHIC
 11
1695.154337944623
 21
115.9448454412632
 31
0.0
100
AcDbText
 73
     1
  0
LINE
  5
1EB
330
1F
100
AcDbEntity
  8
D-TTL-FRAM
 62
     7
100
AcDbLine
 10
1769.806060605915
 20
75.0
 30
0.0
 11
1769.806060605915
 21
140.6101518055235
 31
0.0
  0
TEXT
  5
1EC
330
1F
100
AcDbEntity
  8
D-TTL-TXT
 62
     7
100
AcDbText
 10
1894.78321631781
 20
119.891529715201
 30
0.0
 40
17.50000000006366
  1
承 認
  7
YOKO_GOTHIC
 11
1894.78321631781
 21
116.6947719026893
 31
0.0
100
AcDbText
 73
     1
  0
LINE
  5
1ED
330
1F
100
AcDbEntity
  8
D-TTL-FRAM
 62
     7
100
AcDbLine
 10
1976.3316245336
 20
96.73496068390704
 30
0.0
 11
2018.331624533676
 21
130.334960683881
 31
0.0
  0
TEXT
  5
1EE
330
1F
100
AcDbEntity
  8
D-TTL-TXT
 62
     7
100
AcDbText
 10
1976.908765686603
 20
150.524448151514
 30
0.0
 40
17.50000000006366
  1
No.
  7
YOKO_GOTHIC
 11
1976.908765686603
 21
147.3276903390024
 31
0.0
100
AcDbText
 73
     1
  0
LINE
  5
1EF
330
1F
100
AcDbEntity
  8
D-TTL-FRAM
 62
     7
100
AcDbLine
 10
75.0
 20
170.610151805572
 30
0.0
 11
2025.000000000041
 21
170.610151805572
 31
0.0
  0
LINE
  5
1F0
330
1F
100
AcDbEntity
  8
D-TTL-FRAM
 62
     7
100
AcDbLine
 10
769.8060606059152
 20
170.610151805572
 30
0.0
 11
769.8060606059152
 21
75.0
 31
0.0
  0
LINE
  5
1F1
330
1F
100
AcDbEntity
  8
D-TTL-TXT
 62
     7
100
AcDbLine
 10
1169.806060605915
 20
170.610151805572
 30
0.0
 11
1169.806060605915
 21
75.0
 31
0.0
  0
LINE
  5
1F2
330
1F
100
AcDbEntity
  8
D-TTL-FRAM
 62
     7
100
AcDbLine
 10
1594.806060605842
 20
170.610151805572
 30
0.0
 11
1594.806060605842
 21
75.0
 31
0.0
  0
LINE
  5
1F3
330
1F
100
AcDbEntity
  8
D-TTL-FRAM
 62
     7
100
AcDbLine
 10
1669.806060605842
 20
170.610151805572
 30
0.0
 11
1669.806060605842
 21
75.0
 31
0.0
  0
LINE
  5
1F4
330
1F
100
AcDbEntity
  8
D-TTL-FRAM
 62
     7
100
AcDbLine
 10
1869.806060605956
 20
140.610151805572
 30
0.0
 11
1869.806060605956
 21
75.0
 31
0.0
  0
LINE
  5
1F5
330
1F
100
AcDbEntity
  8
D-TTL-FRAM
 62
     7
100
AcDbLine
 10
1969.806060606006
 20
170.610151805572
 30
0.0
 11
1969.806060605956
 21
75.0
 31
0.0
  0
LINE
  5
1F6
330
1F
100
AcDbEntity
  8
D-TTL-FRAM
 62
     7
100
AcDbLine
 10
1669.806060605842
 20
140.610151805572
 30
0.0
 11
1969.806060605988
 21
140.6101518054265
 31
0.0
  0
TEXT
  5
1F7
330
1F
100
AcDbEntity
  8
D-BGD-TXT
  6
Continuous
 62
     7
100
AcDbText
 10
1691.572961553705
 20
87.05988309735465
 30
0.0
 40
17.5
  1
吉　川
  7
YOKO_GOTHIC
 11
1691.572961553705
 21
83.86312528485467
 31
0.0
100
AcDbText
 73
     1
  0
TEXT
  5
1F8
330
1F
100
AcDbEntity
  8
D-BGD-TXT
  6
Continuous
 62
     7
100
AcDbText
 10
1891.572961553778
 20
87.05988309735465
 30
0.0
 40
17.5
  1
上屋敷
  7
YOKO_GOTHIC
 11
1891.572961553778
 21
83.86312528485467
 31
0.0
100
AcDbText
 73
     1
  0
TEXT
  5
1F9
330
1F
100
AcDbEntity
  8
D-BGD-TXT
  6
Continuous
 62
     7
100
AcDbText
 10
1791.572961553819
 20
87.05988309735465
 30
0.0
 40
17.5
  1
新　谷
  7
YOKO_GOTHIC
 11
1791.572961553819
 21
83.86312528485467
 31
0.0
100
AcDbText
 73
     1
  0
TEXT
  5
1FA
330
1F
100
AcDbEntity
  8
D-DOC
100
AcDbText
 10
1555.336789321354
 20
310.9432477151768
 30
0.0
 40
12.5
  1
仕様
  7
YOKO_GOTHIC
 11
1555.336789321354
 21
323.4432477151768
 31
0.0
100
AcDbText
 73
     3
  0
TEXT
  5
1FB
330
1F
100
AcDbEntity
  8
D-DOC
100
AcDbText
 10
1555.336789321354
 20
290.1099143818434
 30
0.0
 40
12.5
  1
バージンゴム ＥＰＤＭ
  7
YOKO_GOTHIC
 11
1555.336789321354
 21
302.6099143818435
 31
0.0
100
AcDbText
 73
     3
  0
TEXT
  5
1FC
330
1F
100
AcDbEntity
  8
D-DOC
100
AcDbText
 10
1555.336789321354
 20
269.2765810485101
 30
0.0
 40
12.5
  1
廃タイヤトレッド粉砕ゴム
  7
YOKO_GOTHIC
 11
1555.336789321354
 21
281.7765810485101
 31
0.0
100
AcDbText
 73
     3
  0
TEXT
  5
1FD
330
1F
100
AcDbEntity
  8
D-DOC
100
AcDbText
 10
1555.336789321354
 20
227.6099143818434
 30
0.0
 40
12.5
  1
※路床及び路盤の転圧は、ローラー転圧を標準とする。
  7
YOKO_GOTHIC
 11
1555.336789321354
 21
240.1099143818434
 31
0.0
100
AcDbText
 73
     3
  0
LINE
  5
1FE
330
1F
100
AcDbEntity
  8
D-STR
100
AcDbLine
 10
531.9566170275902
 20
788.7688349004929
 30
0.0
 11
1218.217210951793
 21
788.7688349005111
 31
0.0
  0
LINE
  5
1FF
330
1F
100
AcDbEntity
  8
D-STR
100
AcDbLine
 10
718.2172109517932
 20
778.7688349005111
 30
0.0
 11
1218.217210951793
 21
778.7688349005111
 31
0.0
  0
DIMENSION
  5
200
330
1F
100
AcDbEntity
  8
D-STR-DIM
100
AcDbDimension
  2
*D20
 10
676.6086815415474
 20
778.7688349005017
 30
0.0
 11
665.919881522227
 21
783.7688349005202
 31
0.0
 70
   161
 71
     2
 42
-1.0
 73
     0
 74
     0
 75
     0
  3
Clair_Dim_Gothic
100
AcDbAlignedDimension
 13
718.2172109517932
 23
788.7688349005111
 33
0.0
 14
718.2172109517932
 24
778.7688349005111
 34
0.0
1001
ACAD
1000
DSTYLE
1002
{
1070
   144
1040
1.0
1070
   147
1040
4.438800019320296
1070
    41
1040
3.75
1070
   344
1005
AE
1070
   343
1005
AE
1070
   179
1070
     4
1070
   271
1070
     0
1070
   275
1070
     1
1070
    70
1070
   256
1070
    69
1070
     0
1070
   140
1040
12.5
1070
    44
1040
6.0
1070
    42
1040
8.0
1002
}
  0
DIMENSION
  5
216
330
1F
100
AcDbEntity
  8
D-STR-DIM
100
AcDbDimension
  2
*D23
 10
676.6086815415564
 20
748.7688349005017
 30
0.0
 11
665.919881522227
 21
763.7688349005202
 31
0.0
 70
   161
 71
     2
 42
-1.0
 73
     0
 74
     0
 75
     0
  3
Clair_Dim_Gothic
100
AcDbAlignedDimension
 13
718.2172109517932
 23
778.7688349005111
 33
0.0
 14
718.2172109517932
 24
748.7688349005111
 34
0.0
1001
ACAD
1000
DSTYLE
1002
{
1070
   144
1040
1.0
1070
   147
1040
4.438800019329391
1070
    41
1040
3.75
1070
   344
1005
AE
1070
   343
1005
AE
1070
   179
1070
     4
1070
   271
1070
     0
1070
   275
1070
     1
1070
    70
1070
   256
1070
    69
1070
     0
1070
   140
1040
12.5
1070
    44
1040
6.0
1070
    42
1040
8.0
1002
}
  0
TEXT
  5
22C
330
1F
100
AcDbEntity
  8
D-STR-TXT
100
AcDbText
 10
575.2863300567334
 20
789.2120624663042
 30
0.0
 40
12.5
  1
▽G.L.
  7
YOKO_GOTHIC
 11
575.2863300567334
 21
786.9286640288042
 31
0.0
100
AcDbText
 73
     1
  0
DIMENSION
  5
22D
330
1F
100
AcDbEntity
  8
D-STR-DIM
100
AcDbDimension
  2
*D26
 10
676.6086815415564
 20
648.7688349005017
 30
0.0
 11
665.9198815699073
 21
698.7688349005202
 31
0.0
 70
   161
 71
     2
 42
-1.0
 73
     0
 74
     0
 75
     0
  3
Clair_Dim_Gothic
100
AcDbAlignedDimension
 13
718.2172109517932
 23
748.7688349005111
 33
0.0
 14
718.2172109517932
 24
648.7688349005111
 34
0.0
1001
ACAD
1000
DSTYLE
1002
{
1070
   144
1040
1.0
1070
   147
1040
4.438799971649132
1070
    41
1040
3.75
1070
   344
1005
AE
1070
   343
1005
AE
1070
   179
1070
     4
1070
   271
1070
     0
1070
   275
1070
     1
1070
    70
1070
   256
1070
    69
1070
     0
1070
   140
1040
12.5
1070
    44
1040
6.0
1070
    42
1040
8.0
1002
}
  0
DIMENSION
  5
243
330
1F
100
AcDbEntity
  8
D-STR-DIM
100
AcDbDimension
  2
*D29
 10
643.026842490226
 20
648.7688349005026
 30
0.0
 11
632.3380424852802
 21
718.7688349005202
 31
0.0
 70
   161
 71
     2
 42
-1.0
 73
     0
 74
     0
 75
     0
  3
Clair_Dim_Gothic
100
AcDbAlignedDimension
 13
718.2172109517932
 23
788.7688349005111
 33
0.0
 14
718.2172109517932
 24
648.7688349005111
 34
0.0
1001
ACAD
1000
DSTYLE
1002
{
1070
   144
1040
1.0
1070
   147
1040
4.438800004945733
1070
    41
1040
3.75
1070
   344
1005
AE
1070
   343
1005
AE
1070
   179
1070
     4
1070
   271
1070
     0
1070
   275
1070
     1
1070
    70
1070
   256
1070
    69
1070
     0
1070
   140
1040
12.5
1070
    44
1040
6.0
1070
    42
1040
8.0
1002
}
  0
LINE
  5
259
330
1F
100
AcDbEntity
  8
D-STR
100
AcDbLine
 10
718.2172109517932
 20
748.7688349005111
 30
0.0
 11
1218.217210951793
 21
748.7688349005111
 31
0.0
  0
LINE
  5
25A
330
1F
100
AcDbEntity
  8
D-STR
100
AcDbLine
 10
1218.217210951793
 20
648.7688349005111
 30
0.0
 11
718.2172109517932
 21
648.7688349005111
 31
0.0
  0
LINE
  5
25B
330
1F
100
AcDbEntity
  8
D-STR
100
AcDbLine
 10
718.2172109517932
 20
648.7688349005111
 30
0.0
 11
718.2172109517932
 21
748.7688349005111
 31
0.0
  0
LINE
  5
25C
330
1F
100
AcDbEntity
  8
D-STR
100
AcDbLine
 10
718.2172109517932
 20
788.7688349005111
 30
0.0
 11
1218.217210951793
 21
788.7688349005111
 31
0.0
  0
LINE
  5
25D
330
1F
100
AcDbEntity
  8
D-STR
100
AcDbLine
 10
1218.217210951793
 20
748.7688349005111
 30
0.0
 11
718.2172109517932
 21
748.7688349005111
 31
0.0
  0
LINE
  5
25E
330
1F
100
AcDbEntity
  8
D-STR
100
AcDbLine
 10
718.2172109517932
 20
748.7688349005111
 30
0.0
 11
718.2172109517932
 21
788.7688349005111
 31
0.0
  0
LINE
  5
25F
330
1F
100
AcDbEntity
  8
D-STR
100
AcDbLine
 10
718.2172109517932
 20
648.7688349005111
 30
0.0
 11
783.2085527718663
 21
748.7688349005111
 31
0.0
  0
LINE
  5
260
330
1F
100
AcDbEntity
  8
D-STR
100
AcDbLine
 10
768.6842510157794
 20
726.4207784527752
 30
0.0
 11
756.5496173221117
 21
748.7688349005111
 31
0.0
  0
LINE
  5
261
330
1F
100
AcDbEntity
  8
D-STR
100
AcDbLine
 10
731.4436956588543
 20
669.1199837407566
 30
0.0
 11
742.5422937242638
 21
648.7688349005111
 31
0.0
  0
LINE
  5
262
330
1F
100
AcDbEntity
  8
D-STR
100
AcDbLine
 10
742.5422937242638
 20
648.7688349005111
 30
0.0
 11
807.5336355443369
 21
748.7688349005111
 31
0.0
  0
LINE
  5
263
330
1F
100
AcDbEntity
  8
D-STR
100
AcDbLine
 10
794.2808617006442
 20
728.3772358466208
 30
0.0
 11
783.2085527718663
 21
748.7688349005111
 31
0.0
  0
LINE
  5
264
330
1F
100
AcDbEntity
  8
D-STR
100
AcDbLine
 10
755.7687784313247
 20
669.1199837407566
 30
0.0
 11
766.8673764967343
 21
648.7688349005111
 31
0.0
  0
LINE
  5
265
330
1F
100
AcDbEntity
  8
D-STR
100
AcDbLine
 10
766.8673764967343
 20
648.7688349005111
 30
0.0
 11
831.8587183168073
 21
748.7688349005111
 31
0.0
  0
LINE
  5
266
330
1F
100
AcDbEntity
  8
D-STR
100
AcDbLine
 10
818.6059444731148
 20
728.3772358466208
 30
0.0
 11
807.5336355443369
 21
748.7688349005111
 31
0.0
  0
LINE
  5
267
330
1F
100
AcDbEntity
  8
D-STR
100
AcDbLine
 10
780.0938612037953
 20
669.1199837407566
 30
0.0
 11
791.1924592692048
 21
648.7688349005111
 31
0.0
  0
LINE
  5
268
330
1F
100
AcDbEntity
  8
D-STR
100
AcDbLine
 10
1152.848387369167
 20
648.7688349005111
 30
0.0
 11
1217.839729189241
 21
748.7688349005111
 31
0.0
  0
LINE
  5
269
330
1F
100
AcDbEntity
  8
D-STR
100
AcDbLine
 10
1203.315427433153
 20
726.4207784527752
 30
0.0
 11
1191.180793739486
 21
748.7688349005111
 31
0.0
  0
LINE
  5
26A
330
1F
100
AcDbEntity
  8
D-STR
100
AcDbLine
 10
1166.074872076228
 20
669.1199837407566
 30
0.0
 11
1177.173470141638
 21
648.7688349005111
 31
0.0
  0
TEXT
  5
26B
330
1F
100
AcDbEntity
  8
D-DOC
100
AcDbText
 10
1426.815862477897
 20
194.7449494271603
 30
0.0
 40
12.5
  1
※本製品は、（社）日本公園施設業協会賠償責任保険　加入製品とする。　
  7
YOKO_GOTHIC
 11
1426.815862477897
 21
192.4615509896603
 31
0.0
100
AcDbText
 73
     1
  0
LEADER
  5
26C
330
1F
100
AcDbEntity
  8
D-STR-HTXT
100
AcDbLeader
  3
Standard
 76
     4
 10
857.9759290959009
 20
782.2103334377516
 30
0.0
 10
959.2082816086985
 20
881.0814223263696
 30
0.0
 10
974.2082816086986
 20
881.0814223263696
 30
0.0
 10
1110.819956735599
 20
881.0814223263696
 30
0.0
1001
ACAD
1000
DSTYLE
1002
{
1070
    41
1040
15.0
1070
   341
1005
E0
1002
}
  0
TEXT
  5
26D
330
1F
100
AcDbEntity
  8
D-STR-HTXT
100
AcDbText
 10
978.6470816087058
 20
885.5202223263768
 30
0.0
 40
12.5
  1
バージンゴム EPDM
  7
YOKO_GOTHIC
 11
978.6470816087058
 21
898.0202223263768
 31
0.0
100
AcDbText
 73
     3
  0
LEADER
  5
26E
330
1F
100
AcDbEntity
  8
D-STR-HTXT
100
AcDbLeader
  3
Standard
 76
     4
 10
1091.20835292998
 20
768.2215006230762
 30
0.0
 10
1192.440705442782
 20
867.0925895116942
 30
0.0
 10
1207.440705442782
 20
867.0925895116942
 30
0.0
 10
1352.047304427551
 20
867.0925895116942
 30
0.0
1001
ACAD
1000
DSTYLE
1002
{
1070
    41
1040
15.0
1070
   341
1005
E0
1002
}
  0
TEXT
  5
26F
330
1F
100
AcDbEntity
  8
D-STR-HTXT
100
AcDbText
 10
1211.879505442785
 20
871.5313895117015
 30
0.0
 40
12.5
  1
廃タイヤトレット゛粉砕ゴム
  7
YOKO_GOTHIC
 11
1211.879505442785
 21
884.0313895117015
 31
0.0
100
AcDbText
 73
     3
  0
LEADER
  5
270
330
1F
100
AcDbEntity
  8
D-STR-HTXT
100
AcDbLeader
  3
Standard
 76
     4
 10
1165.114905093892
 20
706.5059630735504
 30
0.0
 10
1266.347257606694
 20
805.3770519621775
 30
0.0
 10
1281.347257606694
 20
805.3770519621775
 30
0.0
 10
1312.057917505171
 20
805.3770519621775
 30
0.0
1001
ACAD
1000
DSTYLE
1002
{
1070
    41
1040
15.0
1070
   341
1005
E0
1002
}
  0
TEXT
  5
271
330
1F
100
AcDbEntity
  8
D-STR-HTXT
100
AcDbText
 10
1285.786057606697
 20
809.8158519621756
 30
0.0
 40
12.5
  1
砕石
  7
YOKO_GOTHIC
 11
1285.786057606697
 21
822.3158519621756
 31
0.0
100
AcDbText
 73
     3
  0
TEXT
  5
272
330
1F
100
AcDbEntity
  8
D-STR-HTXT
100
AcDbText
 10
913.5478741986844
 20
532.92618706947
 30
0.0
 40
12.5
  1
断面詳細図　1：5
 41
0.8
  7
YOKO_GOTHIC
 11
913.5478741986844
 21
545.42618706947
 31
0.0
100
AcDbText
 73
     3
  0
LINE
  5
273
330
1F
100
AcDbEntity
  8
D-STR-HTXT
100
AcDbLine
 10
913.5478741986844
 20
530.4261870694699
 30
0.0
 11
1026.047874198684
 21
530.4261870694699
 31
0.0
  0
POLYLINE
  5
274
330
1F
100
AcDbEntity
  8
D-TTL-FRAM
100
AcDb2dPolyline
 66
     1
 10
0.0
 20
0.0
 30
0.0
 70
     1
  0
VERTEX
  5
275
330
274
100
AcDbEntity
  8
D-TTL-FRAM
100
AcDbVertex
100
AcDb2dVertex
 10
1548.265512871026
 20
326.7738499327606
 30
0.0
  0
VERTEX
  5
276
330
274
100
AcDbEntity
  8
D-TTL-FRAM
100
AcDbVertex
100
AcDb2dVertex
 10
1955.211097535862
 20
326.7738499327606
 30
0.0
  0
VERTEX
  5
277
330
274
100
AcDbEntity
  8
D-TTL-FRAM
100
AcDbVertex
100
AcDb2dVertex
 10
1955.211097535862
 20
214.7428253727048
 30
0.0
  0
VERTEX
  5
278
330
274
100
AcDbEntity
  8
D-TTL-FRAM
100
AcDbVertex
100
AcDb2dVertex
 10
1548.265512871026
 20
214.7428253727048
 30
0.0
  0
SEQEND
  5
279
330
274
100
AcDbEntity
  8
D-TTL-FRAM
  0
POLYLINE
  5
27A
330
1F
100
AcDbEntity
  8
D-TTL-FRAM
100
AcDb2dPolyline
 66
     1
 10
0.0
 20
0.0
 30
0.0
 70
     1
  0
VERTEX
  5
27B
330
27A
100
AcDbEntity
  8
D-TTL-FRAM
100
AcDbVertex
100
AcDb2dVertex
 10
92.70204262358674
 20
1350.593952550444
 30
0.0
  0
VERTEX
  5
27C
330
27A
100
AcDbEntity
  8
D-TTL-FRAM
100
AcDbVertex
100
AcDb2dVertex
 10
410.3491475799046
 20
1350.593952550444
 30
0.0
  0
VERTEX
  5
27D
330
27A
100
AcDbEntity
  8
D-TTL-FRAM
100
AcDbVertex
100
AcDb2dVertex
 10
410.3491475799046
 20
1328.294663615961
 30
0.0
  0
VERTEX
  5
27E
330
27A
100
AcDbEntity
  8
D-TTL-FRAM
100
AcDbVertex
100
AcDb2dVertex
 10
92.70204262358674
 20
1328.294663615961
 30
0.0
  0
SEQEND
  5
27F
330
27A
100
AcDbEntity
  8
D-TTL-FRAM
  0
TEXT
  5
280
330
1F
100
AcDbEntity
  8
D-STR-HTXT
100
AcDbText
 10
96.31601385762678
 20
1333.145149562615
 30
0.0
 40
12.5
  1
セーフティーマット 舗装タイプ (GM-20)
  7
YOKO_GOTHIC
 11
96.31601385762678
 21
1345.645149562615
 31
0.0
100
AcDbText
 73
     3
  0
TEXT
  5
281
330
1F
100
AcDbEntity
  8
D-BGD-TXT
  6
Continuous
 62
     7
100
AcDbText
 10
1291.586310991059
 20
90.93320466028279
 30
0.0
 40
17.5
  1
セーフティーマット塗装タイプ(GM-20)
 41
0.7
  7
YOKO_GOTHIC
 11
1291.586310991059
 21
87.73523511713557
 31
0.0
100
AcDbText
 73
     1
  0
LINE
  5
282
330
1F
100
AcDbEntity
  8
D-STR
100
AcDbLine
 10
1126.189451919413
 20
648.7688349005111
 30
0.0
 11
1191.180793739486
 21
748.7688349005111
 31
0.0
  0
LINE
  5
283
330
1F
100
AcDbEntity
  8
D-STR
100
AcDbLine
 10
1177.928019895793
 20
728.3772358466208
 30
0.0
 11
1166.855710967015
 21
748.7688349005111
 31
0.0
  0
LINE
  5
284
330
1F
100
AcDbEntity
  8
D-STR
100
AcDbLine
 10
1139.415936626474
 20
669.1199837407566
 30
0.0
 11
1150.514534691883
 21
648.7688349005111
 31
0.0
  0
LINE
  5
285
330
1F
100
AcDbEntity
  8
D-STR
100
AcDbLine
 10
1101.864369146942
 20
648.7688349005111
 30
0.0
 11
1166.855710967015
 21
748.7688349005111
 31
0.0
  0
LINE
  5
286
330
1F
100
AcDbEntity
  8
D-STR
100
AcDbLine
 10
1153.602937123323
 20
728.3772358466208
 30
0.0
 11
1142.530628194545
 21
748.7688349005111
 31
0.0
  0
LINE
  5
287
330
1F
100
AcDbEntity
  8
D-STR
100
AcDbLine
 10
1115.090853854003
 20
669.1199837407566
 30
0.0
 11
1126.189451919413
 21
648.7688349005111
 31
0.0
  0
ENDSEC
  0
SECTION
  2
OBJECTS
  0
DICTIONARY
  5
C
330
0
100
AcDbDictionary
281
     1
  3
ACAD_COLOR
350
2C8
  3
ACAD_DETAILVIEWSTYLE
350
2C3
  3
ACAD_GROUP
350
D
  3
ACAD_IMAGE_VARS
350
6E
  3
ACAD_LAYOUT
350
1A
  3
ACAD_MATERIAL
350
43
  3
ACAD_MLEADERSTYLE
350
6B
  3
ACAD_MLINESTYLE
350
17
  3
ACAD_PLOTSETTINGS
350
19
  3
ACAD_PLOTSTYLENAME
350
E
  3
ACAD_SCALELIST
350
47
  3
ACAD_SECTIONVIEWSTYLE
350
2C4
  3
ACAD_TABLESTYLE
350
69
  3
ACAD_VISUALSTYLE
350
2A
  3
ACDB_RECOMPOSE_DATA
350
2C0
  3
AcDbVariableDictionary
350
288
  0
SUN
  5
6D
330
29
100
AcDbSun
 90
        1
290
     0
 63
     7
421
 16777215
 40
1.0
291
     1
 91
  2455826
 92
 54000000
292
     0
 70
     0
 71
   256
280
     1
  0
DICTIONARY
  5
2C8
102
{ACAD_REACTORS
330
C
102
}
330
C
100
AcDbDictionary
281
     1
  0
DICTIONARY
  5
2C3
102
{ACAD_REACTORS
330
C
102
}
330
C
100
AcDbDictionary
281
     1
  0
DICTIONARY
  5
D
102
{ACAD_REACTORS
330
C
102
}
330
C
100
AcDbDictionary
281
     1
  0
RASTERVARIABLES
  5
6E
102
{ACAD_REACTORS
330
C
102
}
330
C
100
AcDbRasterVariables
 90
        0
 70
     0
 71
     1
 72
     0
  0
DICTIONARY
  5
1A
102
{ACAD_REACTORS
330
C
102
}
330
C
100
AcDbDictionary
281
     1
  3
Layout1
350
1E
  3
Layout2
350
26
  3
Model
350
22
  0
DICTIONARY
  5
43
102
{ACAD_REACTORS
330
C
102
}
330
C
100
AcDbDictionary
281
     1
  3
ByBlock
350
45
  3
ByLayer
350
44
  3
Global
350
46
  0
DICTIONARY
  5
6B
102
{ACAD_REACTORS
330
C
102
}
330
C
100
AcDbDictionary
281
     1
  3
Standard
350
6C
  0
DICTIONARY
  5
17
102
{ACAD_REACTORS
330
C
102
}
330
C
100
AcDbDictionary
281
     1
  3
Standard
350
18
  0
DICTIONARY
  5
19
102
{ACAD_REACTORS
330
C
102
}
330
C
100
AcDbDictionary
281
     1
  0
ACDBDICTIONARYWDFLT
  5
E
102
{ACAD_REACTORS
330
C
102
}
330
C
100
AcDbDictionary
281
     1
  3
Normal
350
F
100
AcDbDictionaryWithDefault
340
F
  0
DICTIONARY
  5
47
102
{ACAD_REACTORS
330
C
102
}
330
C
100
AcDbDictionary
281
     1
  3
A0
350
48
  3
A1
350
49
  3
A2
350
4A
  3
A3
350
4B
  3
A4
350
4C
  3
A5
350
4D
  3
A6
350
4E
  3
A7
350
4F
  3
A8
350
50
  3
A9
350
51
  3
B0
350
52
  3
B1
350
53
  3
B2
350
54
  3
B3
350
55
  3
B4
350
56
  3
B5
350
57
  3
B6
350
58
  3
B7
350
59
  3
B8
350
5A
  3
B9
350
5B
  3
C0
350
5C
  3
C1
350
5D
  3
C2
350
5E
  3
C3
350
5F
  3
C4
350
60
  3
C5
350
61
  3
C6
350
62
  3
C7
350
63
  3
C8
350
64
  3
C9
350
65
  3
D0
350
66
  3
D1
350
67
  3
D2
350
68
  0
DICTIONARY
  5
2C4
102
{ACAD_REACTORS
330
C
102
}
330
C
100
AcDbDictionary
281
     1
  0
DICTIONARY
  5
69
102
{ACAD_REACTORS
330
C
102
}
330
C
100
AcDbDictionary
281
     1
  3
Standard
350
6A
  0
DICTIONARY
  5
2A
102
{ACAD_REACTORS
330
C
102
}
330
C
100
AcDbDictionary
281
     1
  3
2dWireframe
350
2F
  3
3D Hidden
350
2C7
  3
3dWireframe
350
2C6
  3
Basic
350
32
  3
Brighten
350
36
  3
ColorChange
350
3A
  3
Conceptual
350
34
  3
Dim
350
35
  3
EdgeColorOff
350
3D
  3
Facepattern
350
39
  3
Flat
350
2B
  3
FlatWithEdges
350
2C
  3
Gouraud
350
2D
  3
GouraudWithEdges
350
2E
  3
Hidden
350
31
  3
JitterOff
350
3B
  3
Linepattern
350
38
  3
OverhangOff
350
3C
  3
Realistic
350
33
  3
Shaded
350
42
  3
Shaded with edges
350
41
  3
Shades of Gray
350
3E
  3
Sketchy
350
3F
  3
Thicken
350
37
  3
Wireframe
350
30
  3
X-Ray
350
40
  0
XRECORD
  5
2C0
102
{ACAD_REACTORS
330
C
102
}
330
C
100
AcDbXrecord
280
     1
 90
        1
330
6A
  0
DICTIONARY
  5
288
102
{ACAD_REACTORS
330
C
102
}
330
C
100
AcDbDictionary
281
     1
  3
CANNOSCALE
350
289
  3
CMLEADERSTYLE
350
2C2
  3
CTABLESTYLE
350
2C1
  3
XCLIPFRAME
350
28A
  0
LAYOUT
  5
1E
102
{ACAD_REACTORS
330
1A
102
}
330
1A
100
AcDbPlotSettings
  1

  2
none_device
  4

  6

 40
0.0
 41
0.0
 42
0.0
 43
0.0
 44
0.0
 45
0.0
 46
0.0
 47
0.0
 48
0.0
 49
0.0
140
0.0
141
0.0
142
1.0
143
1.0
 70
   688
 72
     0
 73
     0
 74
     5
  7

 75
    16
147
1.0
 76
     0
 77
     2
 78
   300
148
0.0
149
0.0
100
AcDbLayout
  1
Layout1
 70
     1
 71
     1
 10
0.0
 20
0.0
 11
12.0
 21
9.0
 12
0.0
 22
0.0
 32
0.0
 14
1.000000000000000E+20
 24
1.000000000000000E+20
 34
1.000000000000000E+20
 15
-1.000000000000000E+20
 25
-1.000000000000000E+20
 35
-1.000000000000000E+20
146
0.0
 13
0.0
 23
0.0
 33
0.0
 16
1.0
 26
0.0
 36
0.0
 17
0.0
 27
1.0
 37
0.0
 76
     0
330
1B
  0
LAYOUT
  5
26
102
{ACAD_REACTORS
330
1A
102
}
330
1A
100
AcDbPlotSettings
  1

  2
none_device
  4

  6

 40
0.0
 41
0.0
 42
0.0
 43
0.0
 44
0.0
 45
0.0
 46
0.0
 47
0.0
 48
0.0
 49
0.0
140
0.0
141
0.0
142
1.0
143
1.0
 70
   688
 72
     0
 73
     0
 74
     5
  7

 75
    16
147
1.0
 76
     0
 77
     2
 78
   300
148
0.0
149
0.0
100
AcDbLayout
  1
Layout2
 70
     1
 71
     2
 10
0.0
 20
0.0
 11
0.0
 21
0.0
 12
0.0
 22
0.0
 32
0.0
 14
0.0
 24
0.0
 34
0.0
 15
0.0
 25
0.0
 35
0.0
146
0.0
 13
0.0
 23
0.0
 33
0.0
 16
1.0
 26
0.0
 36
0.0
 17
0.0
 27
1.0
 37
0.0
 76
     0
330
23
  0
LAYOUT
  5
22
102
{ACAD_REACTORS
330
1A
102
}
330
1A
100
AcDbPlotSettings
  1

  2
none_device
  4
Letter_(8.50_x_11.00_Inches)
  6

 40
6.349999999999999
 41
6.349999999999999
 42
6.350005079999999
 43
6.350005079999999
 44
215.9
 45
279.4
 46
0.0
 47
0.0
 48
0.0
 49
0.0
140
0.0
141
0.0
142
1.0
143
1.0
 70
  1712
 72
     0
 73
     0
 74
     0
  7

 75
     0
147
1.0
 76
     0
 77
     2
 78
   300
148
0.0
149
0.0
100
AcDbLayout
  1
Model
 70
     1
 71
     0
 10
0.0
 20
0.0
 11
2100.0
 21
1485.0
 12
0.0
 22
0.0
 32
0.0
 14
0.0
 24
0.0
 34
0.0
 15
2100.0
 25
1485.0
 35
0.0
146
0.0
 13
0.0
 23
0.0
 33
0.0
 16
1.0
 26
0.0
 36
0.0
 17
0.0
 27
1.0
 37
0.0
 76
     0
330
1F
331
29
  0
MATERIAL
  5
45
102
{ACAD_REACTORS
330
43
102
}
330
43
100
AcDbMaterial
  1
ByBlock
 94
      127
  0
MATERIAL
  5
44
102
{ACAD_REACTORS
330
43
102
}
330
43
100
AcDbMaterial
  1
ByLayer
 94
      127
  0
MATERIAL
  5
46
102
{ACAD_REACTORS
330
43
102
}
330
43
100
AcDbMaterial
  1
Global
 94
      127
  0
ACAD_PROXY_OBJECT
  5
6C
102
{ACAD_XDICTIONARY
360
2BE
102
}
102
{ACAD_REACTORS
330
6B
102
}
330
6B
100
AcDbProxyObject
 90
      499
 91
      505
 95
  1638427
 70
     0
 96
      140
311
4214C01D0018401B80190018401C8019002C
 93
      660
310
40901902A40600000030400FEFFFFFF815AF46E07A156E7F02B5E8DC0F42B5CFC0AD7A3703D0AC73F405064068000000C10002B5E8DC0F42B1CFC02B5E8DC0F42B1CFE000000304015D90000000000000C03FC
340
14
340
0
340
11
340
0
 94
        0
1001
ACAD_MLEADERVER
1070
     2
  0
MLINESTYLE
  5
18
102
{ACAD_REACTORS
330
17
102
}
330
17
100
AcDbMlineStyle
  2
STANDARD
 70
     0
  3

 62
   256
 51
90.0
 52
90.0
 71
     2
 49
0.5
 62
   256
  6
BYLAYER
 49
-0.5
 62
   256
  6
BYLAYER
  0
ACDBPLACEHOLDER
  5
F
102
{ACAD_REACTORS
330
E
102
}
330
E
  0
ACAD_PROXY_OBJECT
  5
48
102
{ACAD_REACTORS
330
47
102
}
330
47
100
AcDbProxyObject
 90
      499
 91
      503
 95
  1638427
 70
     0
 96
       58
311
40CC400E800C400C
 93
        7
310
96
 94
        0
  0
ACAD_PROXY_OBJECT
  5
49
102
{ACAD_REACTORS
330
47
102
}
330
47
100
AcDbProxyObject
 90
      499
 91
      503
 95
  1638427
 70
     0
 96
       58
311
40CC400E800C800C
 93
       71
310
900000000000000100
 94
        0
  0
ACAD_PROXY_OBJECT
  5
4A
102
{ACAD_REACTORS
330
47
102
}
330
47
100
AcDbProxyObject
 90
      499
 91
      503
 95
  1638427
 70
     0
 96
       58
311
40CC400E800D000C
 93
       71
310
900000000000004100
 94
        0
  0
ACAD_PROXY_OBJECT
  5
4B
102
{ACAD_REACTORS
330
47
102
}
330
47
100
AcDbProxyObject
 90
      499
 91
      503
 95
  1638427
 70
     0
 96
       58
311
40CC400E800D400C
 93
       71
310
900000000000005100
 94
        0
  0
ACAD_PROXY_OBJECT
  5
4C
102
{ACAD_REACTORS
330
47
102
}
330
47
100
AcDbProxyObject
 90
      499
 91
      503
 95
  1638427
 70
     0
 96
       58
311
40CC400E800E000C
 93
       71
310
900000000000008100
 94
        0
  0
ACAD_PROXY_OBJECT
  5
4D
102
{ACAD_REACTORS
330
47
102
}
330
47
100
AcDbProxyObject
 90
      499
 91
      503
 95
  1638427
 70
     0
 96
       74
311
410C400E800C400C000C
 93
       71
310
900000000000009100
 94
        0
  0
ACAD_PROXY_OBJECT
  5
4E
102
{ACAD_REACTORS
330
47
102
}
330
47
100
AcDbProxyObject
 90
      499
 91
      503
 95
  1638427
 70
     0
 96
       74
311
410C400E800C400D800C
 93
       71
310
90000000000000C100
 94
        0
  0
ACAD_PROXY_OBJECT
  5
4F
102
{ACAD_REACTORS
330
47
102
}
330
47
100
AcDbProxyObject
 90
      499
 91
      503
 95
  1638427
 70
     0
 96
       74
311
410C400E800C800C000C
 93
       71
310
90000000000000D100
 94
        0
  0
ACAD_PROXY_OBJECT
  5
50
102
{ACAD_REACTORS
330
47
102
}
330
47
100
AcDbProxyObject
 90
      499
 91
      503
 95
  1638427
 70
     0
 96
       74
311
410C400E800CC00C000C
 93
       71
310
90000000000000F900
 94
        0
  0
ACAD_PROXY_OBJECT
  5
51
102
{ACAD_REACTORS
330
47
102
}
330
47
100
AcDbProxyObject
 90
      499
 91
      503
 95
  1638427
 70
     0
 96
       74
311
410C400E800D000C000C
 93
       71
310
900000000000011100
 94
        0
  0
ACAD_PROXY_OBJECT
  5
52
102
{ACAD_REACTORS
330
47
102
}
330
47
100
AcDbProxyObject
 90
      499
 91
      503
 95
  1638427
 70
     0
 96
       74
311
410C400E800D400C000C
 93
       71
310
900000000000012500
 94
        0
  0
ACAD_PROXY_OBJECT
  5
53
102
{ACAD_REACTORS
330
47
102
}
330
47
100
AcDbProxyObject
 90
      499
 91
      503
 95
  1638427
 70
     0
 96
       90
311
414C400E800C400C000C000C
 93
       71
310
900000000000016500
 94
        0
  0
ACAD_PROXY_OBJECT
  5
54
102
{ACAD_REACTORS
330
47
102
}
330
47
100
AcDbProxyObject
 90
      499
 91
      503
 95
  1638427
 70
     0
 96
       58
311
40CC800E800C400C
 93
       71
310
800000000000000404
 94
        0
  0
ACAD_PROXY_OBJECT
  5
55
102
{ACAD_REACTORS
330
47
102
}
330
47
100
AcDbProxyObject
 90
      499
 91
      503
 95
  1638427
 70
     0
 96
       58
311
40CD000E800C400C
 93
       71
310
800000000000010404
 94
        0
  0
ACAD_PROXY_OBJECT
  5
56
102
{ACAD_REACTORS
330
47
102
}
330
47
100
AcDbProxyObject
 90
      499
 91
      503
 95
  1638427
 70
     0
 96
       58
311
40CE000E800C400C
 93
       71
310
800000000000020404
 94
        0
  0
ACAD_PROXY_OBJECT
  5
57
102
{ACAD_REACTORS
330
47
102
}
330
47
100
AcDbProxyObject
 90
      499
 91
      503
 95
  1638427
 70
     0
 96
       74
311
410C400C000E800C400C
 93
       71
310
800000000000024404
 94
        0
  0
ACAD_PROXY_OBJECT
  5
58
102
{ACAD_REACTORS
330
47
102
}
330
47
100
AcDbProxyObject
 90
      499
 91
      503
 95
  1638427
 70
     0
 96
       90
311
414C400C000C000E800C400C
 93
       71
310
800000000000059404
 94
        0
  0
ACAD_PROXY_OBJECT
  5
59
102
{ACAD_REACTORS
330
47
102
}
330
47
100
AcDbProxyObject
 90
      499
 91
      503
 95
  1638427
 70
     0
 96
      234
311
438C400BC00C400C800E00088008000F4008000C4009C00B400C0008800C
 93
      135
310
8000000000000803F0000000000000A100
 94
        0
  0
ACAD_PROXY_OBJECT
  5
5A
102
{ACAD_REACTORS
330
47
102
}
330
47
100
AcDbProxyObject
 90
      499
 91
      503
 95
  1638427
 70
     0
 96
      218
311
434C400BC00D800D00088008000F4008000C4009C00B400C0008800C
 93
      135
310
8000000000000903F0000000000000A100
 94
        0
  0
ACAD_PROXY_OBJECT
  5
5B
102
{ACAD_REACTORS
330
47
102
}
330
47
100
AcDbProxyObject
 90
      499
 91
      503
 95
  1638427
 70
     0
 96
      218
311
434C400BC00CC00C80088008000F4008000C4009C00B400C0008800C
 93
      135
310
8000000000000A03F0000000000000A100
 94
        0
  0
ACAD_PROXY_OBJECT
  5
5C
102
{ACAD_REACTORS
330
47
102
}
330
47
100
AcDbProxyObject
 90
      499
 91
      503
 95
  1638427
 70
     0
 96
      218
311
434C400BC00C400D80088008000F4008000C4009C00B400C0008800C
 93
      135
310
8000000000000B03F0000000000000A100
 94
        0
  0
ACAD_PROXY_OBJECT
  5
5D
102
{ACAD_REACTORS
330
47
102
}
330
47
100
AcDbProxyObject
 90
      499
 91
      503
 95
  1638427
 70
     0
 96
      218
311
434CC00BC00CC00C80088008000F4008000C4009C00B400C0008800C
 93
      135
310
8000000000000B83F0000000000000A100
 94
        0
  0
ACAD_PROXY_OBJECT
  5
5E
102
{ACAD_REACTORS
330
47
102
}
330
47
100
AcDbProxyObject
 90
      499
 91
      503
 95
  1638427
 70
     0
 96
      202
311
430C400BC00E00088008000F4008000C4009C00B400C0008800C
 93
      135
310
8000000000000C03F0000000000000A100
 94
        0
  0
ACAD_PROXY_OBJECT
  5
5F
102
{ACAD_REACTORS
330
47
102
}
330
47
100
AcDbProxyObject
 90
      499
 91
      503
 95
  1638427
 70
     0
 96
      218
311
434CC00BC00C400D80088008000F4008000C4009C00B400C0008800C
 93
      135
310
8000000000000C83F0000000000000A100
 94
        0
  0
ACAD_PROXY_OBJECT
  5
60
102
{ACAD_REACTORS
330
47
102
}
330
47
100
AcDbProxyObject
 90
      499
 91
      503
 95
  1638427
 70
     0
 96
      202
311
430C400BC00D00088008000F4008000C4009C00B400C0008800C
 93
      135
310
8000000000000D03F0000000000000A100
 94
        0
  0
ACAD_PROXY_OBJECT
  5
61
102
{ACAD_REACTORS
330
47
102
}
330
47
100
AcDbProxyObject
 90
      499
 91
      503
 95
  1638427
 70
     0
 96
      202
311
430CC00BC00E00088008000F4008000C4009C00B400C0008800C
 93
      135
310
8000000000000D83F0000000000000A100
 94
        0
  0
ACAD_PROXY_OBJECT
  5
62
102
{ACAD_REACTORS
330
47
102
}
330
47
100
AcDbProxyObject
 90
      499
 91
      503
 95
  1638427
 70
     0
 96
      202
311
430C400BC00C80088008000F4008000C4009C00B400C0008800C
 93
      135
310
8000000000000E03F0000000000000A100
 94
        0
  0
ACAD_PROXY_OBJECT
  5
63
102
{ACAD_REACTORS
330
47
102
}
330
47
100
AcDbProxyObject
 90
      499
 91
      503
 95
  1638427
 70
     0
 96
      202
311
430CC00BC00D00088008000F4008000C4009C00B400C0008800C
 93
      135
310
8000000000000E83F0000000000000A100
 94
        0
  0
ACAD_PROXY_OBJECT
  5
64
102
{ACAD_REACTORS
330
47
102
}
330
47
100
AcDbProxyObject
 90
      499
 91
      503
 95
  1638427
 70
     0
 96
      170
311
428C40088008000F4008000C4009C00B400C0008800C
 93
       71
310
90000000000000A100
 94
        0
  0
ACAD_PROXY_OBJECT
  5
65
102
{ACAD_REACTORS
330
47
102
}
330
47
100
AcDbProxyObject
 90
      499
 91
      503
 95
  1638427
 70
     0
 96
      234
311
438C400B400C400BC00C80088008000F4008000C4009C00B400C0008800C
 93
      135
310
8000000000000F83F0000000000000A100
 94
        0
  0
ACAD_PROXY_OBJECT
  5
66
102
{ACAD_REACTORS
330
47
102
}
330
47
100
AcDbProxyObject
 90
      499
 91
      503
 95
  1638427
 70
     0
 96
      170
311
428CC0088008000F4008000C4009C00B400C0008800C
 93
      135
310
800000000000008400000000000000A100
 94
        0
  0
ACAD_PROXY_OBJECT
  5
67
102
{ACAD_REACTORS
330
47
102
}
330
47
100
AcDbProxyObject
 90
      499
 91
      503
 95
  1638427
 70
     0
 96
      170
311
428D80088008000F4008000C4009C00B400C0008800C
 93
      135
310
800000000000018400000000000000A100
 94
        0
  0
ACAD_PROXY_OBJECT
  5
68
102
{ACAD_REACTORS
330
47
102
}
330
47
100
AcDbProxyObject
 90
      499
 91
      503
 95
  1638427
 70
     0
 96
      218
311
434C4009C00B400C00088008000F4008000C4009C00B400C0008800C
 93
      135
310
800000000000028400000000000000A100
 94
        0
  0
TABLESTYLE
  5
6A
102
{ACAD_XDICTIONARY
360
2BB
102
}
102
{ACAD_REACTORS
330
69
102
}
330
69
100
AcDbTableStyle
  3
Standard
 70
     0
 71
     0
 40
0.06
 41
0.06
280
     0
281
     0
  7
Standard
140
0.18
170
     2
 62
     0
 63
   257
283
     0
 90
        4
 91
        0
  1

274
    -2
284
     1
 64
     0
275
    -2
285
     1
 65
     0
276
    -2
286
     1
 66
     0
277
    -2
287
     1
 67
     0
278
    -2
288
     1
 68
     0
279
    -2
289
     1
 69
     0
  7
Standard
140
0.25
170
     5
 62
     0
 63
   257
283
     0
 90
        4
 91
        0
  1

274
    -2
284
     1
 64
     0
275
    -2
285
     1
 65
     0
276
    -2
286
     1
 66
     0
277
    -2
287
     1
 67
     0
278
    -2
288
     1
 68
     0
279
    -2
289
     1
 69
     0
  7
Standard
140
0.18
170
     5
 62
     0
 63
   257
283
     0
 90
        4
 91
        0
  1

274
    -2
284
     1
 64
     0
275
    -2
285
     1
 65
     0
276
    -2
286
     1
 66
     0
277
    -2
287
     1
 67
     0
278
    -2
288
     1
 68
     0
279
    -2
289
     1
 69
     0
  0
VISUALSTYLE
  5
2F
102
{ACAD_XDICTIONARY
360
293
102
}
102
{ACAD_REACTORS
330
2A
102
}
330
2A
100
AcDbVisualStyle
  2
2dWireframe
 70
     4
 71
     0
 72
     2
 73
     0
 90
        0
 40
-0.6
 41
-30.0
 62
     5
 63
     7
421
 16777215
 74
     1
 91
        4
 64
     7
 65
   257
 75
     1
175
     1
 42
1.0
 92
        0
 66
   257
 43
1.0
 76
     1
 77
     6
 78
     2
 67
     7
 79
     5
170
     0
171
     0
290
     0
174
     0
 93
        1
 44
0.0
173
     0
291
     0
 45
0.0
  0
VISUALSTYLE
  5
2C7
102
{ACAD_REACTORS
330
2A
102
}
330
2A
100
AcDbVisualStyle
  2
3D Hidden
 70
     6
 71
     1
 72
     2
 73
     2
 90
        0
 40
-0.6
 41
-30.0
 62
     5
 63
     7
421
 16777215
 74
     2
 91
        2
 64
     7
 65
   257
 75
     2
175
     1
 42
40.0
 92
        0
 66
   257
 43
1.0
 76
     1
 77
     6
 78
     2
 67
     7
 79
     3
170
     0
171
     0
290
     0
174
     0
 93
        1
 44
0.0
173
     0
291
     0
 45
0.0
  0
VISUALSTYLE
  5
2C6
102
{ACAD_REACTORS
330
2A
102
}
330
2A
100
AcDbVisualStyle
  2
3dWireframe
 70
     5
 71
     0
 72
     2
 73
     0
 90
        0
 40
-0.6
 41
-30.0
 62
     5
 63
     7
421
 16777215
 74
     1
 91
        4
 64
     7
 65
   257
 75
     1
175
     1
 42
1.0
 92
        0
 66
   257
 43
1.0
 76
     1
 77
     6
 78
     2
 67
     7
 79
     5
170
     0
171
     0
290
     0
174
     0
 93
        1
 44
0.0
173
     0
291
     0
 45
0.0
  0
VISUALSTYLE
  5
32
102
{ACAD_XDICTIONARY
360
299
102
}
102
{ACAD_REACTORS
330
2A
102
}
330
2A
100
AcDbVisualStyle
  2
Basic
 70
     7
 71
     1
 72
     0
 73
     1
 90
        0
 40
-0.6
 41
-30.0
 62
     5
 63
     7
421
 16777215
 74
     0
 91
        4
 64
     7
 65
   257
 75
     1
175
     1
 42
1.0
 92
        8
 66
     7
 43
1.0
 76
     1
 77
     6
 78
     2
 67
     7
 79
     5
170
     0
171
     0
290
     0
174
     0
 93
        1
 44
0.0
173
     0
291
     1
 45
0.0
  0
VISUALSTYLE
  5
36
102
{ACAD_XDICTIONARY
360
2A1
102
}
102
{ACAD_REACTORS
330
2A
102
}
330
2A
100
AcDbVisualStyle
  2
Brighten
 70
    12
 71
     2
 72
     2
 73
     0
 90
        0
 40
-0.6
 41
-30.0
 62
     5
 63
     7
421
 16777215
 74
     1
 91
        4
 64
     7
 65
   257
 75
     1
175
     1
 42
1.0
 92
        8
 66
     7
 43
1.0
 76
     1
 77
     6
 78
     2
 67
     7
 79
     5
170
     0
171
     0
290
     0
174
     0
 93
        1
 44
50.0
173
     0
291
     1
 45
0.0
  0
VISUALSTYLE
  5
3A
102
{ACAD_XDICTIONARY
360
2A9
102
}
102
{ACAD_REACTORS
330
2A
102
}
330
2A
100
AcDbVisualStyle
  2
ColorChange
 70
    16
 71
     2
 72
     2
 73
     3
 90
        0
 40
-0.6
 41
-30.0
 62
     5
 63
     8
421
  8421504
 74
     1
 91
        4
 64
     7
 65
   257
 75
     1
175
     1
 42
1.0
 92
        8
 66
     8
424
  8421504
 43
1.0
 76
     1
 77
     6
 78
     2
 67
     7
 79
     5
170
     0
171
     0
290
     0
174
     0
 93
        1
 44
0.0
173
     0
291
     1
 45
0.0
  0
VISUALSTYLE
  5
34
102
{ACAD_XDICTIONARY
360
29D
102
}
102
{ACAD_REACTORS
330
2A
102
}
330
2A
100
AcDbVisualStyle
  2
Conceptual
 70
     9
 71
     3
 72
     2
 73
     0
 90
        0
 40
-0.6
 41
-30.0
 62
     5
 63
     7
421
 16777215
 74
     2
 91
        2
 64
     7
 65
   257
 75
     1
175
     1
 42
179.0
 92
        8
 66
     7
 43
1.0
 76
     1
 77
     6
 78
     2
 67
     7
 79
     3
170
     0
171
     0
290
     0
174
     0
 93
        1
 44
0.0
173
     0
291
     0
 45
0.0
  0
VISUALSTYLE
  5
35
102
{ACAD_XDICTIONARY
360
29F
102
}
102
{ACAD_REACTORS
330
2A
102
}
330
2A
100
AcDbVisualStyle
  2
Dim
 70
    11
 71
     2
 72
     2
 73
     0
 90
        0
 40
-0.6
 41
-30.0
 62
     5
 63
     7
421
 16777215
 74
     1
 91
        4
 64
     7
 65
   257
 75
     1
175
     1
 42
1.0
 92
        8
 66
     7
 43
1.0
 76
     1
 77
     6
 78
     2
 67
     7
 79
     5
170
     0
171
     0
290
     0
174
     0
 93
        1
 44
-50.0
173
     0
291
     1
 45
0.0
  0
VISUALSTYLE
  5
3D
102
{ACAD_XDICTIONARY
360
2AF
102
}
102
{ACAD_REACTORS
330
2A
102
}
330
2A
100
AcDbVisualStyle
  2
EdgeColorOff
 70
    22
 71
     2
 72
     2
 73
     0
 90
        0
 40
-0.6
 41
-30.0
 62
     5
 63
     7
421
 16777215
 74
     1
 91
        4
 64
     7
 65
   257
 75
     1
175
     1
 42
1.0
 92
        8
 66
     7
 43
1.0
 76
     1
 77
     6
 78
     2
 67
     7
 79
     5
170
     0
171
     0
290
     0
174
     0
 93
        1
 44
0.0
173
     0
291
     1
 45
0.0
  0
VISUALSTYLE
  5
39
102
{ACAD_XDICTIONARY
360
2A7
102
}
102
{ACAD_REACTORS
330
2A
102
}
330
2A
100
AcDbVisualStyle
  2
Facepattern
 70
    15
 71
     2
 72
     2
 73
     0
 90
        0
 40
-0.6
 41
-30.0
 62
     5
 63
     7
421
 16777215
 74
     1
 91
        4
 64
     7
 65
   257
 75
     1
175
     1
 42
1.0
 92
        8
 66
     7
 43
1.0
 76
     1
 77
     6
 78
     2
 67
     7
 79
     5
170
     0
171
     0
290
     0
174
     0
 93
        1
 44
0.0
173
     0
291
     1
 45
0.0
  0
VISUALSTYLE
  5
2B
102
{ACAD_XDICTIONARY
360
28B
102
}
102
{ACAD_REACTORS
330
2A
102
}
330
2A
100
AcDbVisualStyle
  2
Flat
 70
     0
 71
     2
 72
     1
 73
     1
 90
        2
 40
-0.6
 41
30.0
 62
     5
 63
     7
421
 16777215
 74
     0
 91
        0
 64
     7
 65
   257
 75
     1
175
     1
 42
1.0
 92
        8
 66
     7
 43
1.0
 76
     1
 77
     6
 78
     2
 67
     7
 79
     5
170
     0
171
     0
290
     0
174
     0
 93
       13
 44
0.0
173
     0
291
     1
 45
0.0
  0
VISUALSTYLE
  5
2C
102
{ACAD_XDICTIONARY
360
28D
102
}
102
{ACAD_REACTORS
330
2A
102
}
330
2A
100
AcDbVisualStyle
  2
FlatWithEdges
 70
     1
 71
     2
 72
     1
 73
     1
 90
        2
 40
-0.6
 41
30.0
 62
     5
 63
     7
421
 16777215
 74
     1
 91
        0
 64
     7
 65
   257
 75
     1
175
     1
 42
1.0
 92
        0
 66
   257
 43
1.0
 76
     1
 77
     6
 78
     2
 67
     7
 79
     5
170
     0
171
     0
290
     0
174
     0
 93
       13
 44
0.0
173
     0
291
     1
 45
0.0
  0
VISUALSTYLE
  5
2D
102
{ACAD_XDICTIONARY
360
28F
102
}
102
{ACAD_REACTORS
330
2A
102
}
330
2A
100
AcDbVisualStyle
  2
Gouraud
 70
     2
 71
     2
 72
     2
 73
     1
 90
        2
 40
-0.6
 41
30.0
 62
     5
 63
     7
421
 16777215
 74
     0
 91
        0
 64
     7
 65
   257
 75
     1
175
     1
 42
1.0
 92
        0
 66
     7
 43
1.0
 76
     1
 77
     6
 78
     2
 67
     7
 79
     5
170
     0
171
     0
290
     0
174
     0
 93
       13
 44
0.0
173
     0
291
     1
 45
0.0
  0
VISUALSTYLE
  5
2E
102
{ACAD_XDICTIONARY
360
291
102
}
102
{ACAD_REACTORS
330
2A
102
}
330
2A
100
AcDbVisualStyle
  2
GouraudWithEdges
 70
     3
 71
     2
 72
     2
 73
     1
 90
        2
 40
-0.6
 41
30.0
 62
     5
 63
     7
421
 16777215
 74
     1
 91
        0
 64
     7
 65
   257
 75
     1
175
     1
 42
1.0
 92
        0
 66
   257
 43
1.0
 76
     1
 77
     6
 78
     2
 67
     7
 79
     5
170
     0
171
     0
290
     0
174
     0
 93
       13
 44
0.0
173
     0
291
     1
 45
0.0
  0
VISUALSTYLE
  5
31
102
{ACAD_XDICTIONARY
360
297
102
}
102
{ACAD_REACTORS
330
2A
102
}
330
2A
100
AcDbVisualStyle
  2
Hidden
 70
     6
 71
     1
 72
     2
 73
     2
 90
        0
 40
-0.6
 41
-30.0
 62
     5
 63
     7
421
 16777215
 74
     2
 91
        2
 64
     7
 65
   257
 75
     2
175
     1
 42
40.0
 92
        0
 66
   257
 43
1.0
 76
     1
 77
     6
 78
     2
 67
     7
 79
     3
170
     0
171
     0
290
     0
174
     0
 93
        1
 44
0.0
173
     0
291
     0
 45
0.0
  0
VISUALSTYLE
  5
3B
102
{ACAD_XDICTIONARY
360
2AB
102
}
102
{ACAD_REACTORS
330
2A
102
}
330
2A
100
AcDbVisualStyle
  2
JitterOff
 70
    20
 71
     2
 72
     2
 73
     0
 90
        0
 40
-0.6
 41
-30.0
 62
     5
 63
     7
421
 16777215
 74
     1
 91
        4
 64
     7
 65
   257
 75
     1
175
     1
 42
1.0
 92
       10
 66
     7
 43
1.0
 76
     1
 77
     6
 78
     2
 67
     7
 79
     5
170
     0
171
     0
290
     0
174
     0
 93
        1
 44
0.0
173
     0
291
     1
 45
0.0
  0
VISUALSTYLE
  5
38
102
{ACAD_XDICTIONARY
360
2A5
102
}
102
{ACAD_REACTORS
330
2A
102
}
330
2A
100
AcDbVisualStyle
  2
Linepattern
 70
    14
 71
     2
 72
     2
 73
     0
 90
        0
 40
-0.6
 41
-30.0
 62
     5
 63
     7
421
 16777215
 74
     1
 91
        4
 64
     7
 65
   257
 75
     7
175
     7
 42
1.0
 92
        8
 66
     7
 43
1.0
 76
     1
 77
     6
 78
     2
 67
     7
 79
     5
170
     0
171
     0
290
     0
174
     0
 93
        1
 44
0.0
173
     0
291
     1
 45
0.0
  0
VISUALSTYLE
  5
3C
102
{ACAD_XDICTIONARY
360
2AD
102
}
102
{ACAD_REACTORS
330
2A
102
}
330
2A
100
AcDbVisualStyle
  2
OverhangOff
 70
    21
 71
     2
 72
     2
 73
     0
 90
        0
 40
-0.6
 41
-30.0
 62
     5
 63
     7
421
 16777215
 74
     1
 91
        4
 64
     7
 65
   257
 75
     1
175
     1
 42
1.0
 92
        9
 66
     7
 43
1.0
 76
     1
 77
     6
 78
     2
 67
     7
 79
     5
170
     0
171
     0
290
     0
174
     0
 93
        1
 44
0.0
173
     0
291
     1
 45
0.0
  0
VISUALSTYLE
  5
33
102
{ACAD_XDICTIONARY
360
29B
102
}
102
{ACAD_REACTORS
330
2A
102
}
330
2A
100
AcDbVisualStyle
  2
Realistic
 70
     8
 71
     2
 72
     3
 73
     0
 90
        2
 40
-0.6
 41
30.0
 62
     5
 63
     7
421
 16777215
 74
     0
 91
        0
 64
     7
 65
   257
 75
     1
175
     1
 42
1.0
 92
        8
 66
   257
 43
1.0
 76
     1
 77
     6
 78
     2
 67
     7
 79
     3
170
     0
171
     0
290
     0
174
     0
 93
       13
 44
0.0
173
     0
291
     0
 45
0.0
  0
VISUALSTYLE
  5
42
102
{ACAD_XDICTIONARY
360
2B9
102
}
102
{ACAD_REACTORS
330
2A
102
}
330
2A
100
AcDbVisualStyle
  2
Shaded
 70
    27
 71
     2
 72
     2
 73
     1
 90
        2
 40
-0.6
 41
30.0
 62
     5
 63
     7
421
 16777215
 74
     0
 91
        4
 64
     7
 65
   257
 75
     1
175
     1
 42
1.0
 92
        8
 66
   257
 43
1.0
 76
     1
 77
     6
 78
     2
 67
     8
425
  7895160
 79
     3
170
     0
171
     0
290
     0
174
     0
 93
        5
 44
0.0
173
     0
291
     0
 45
0.0
  0
VISUALSTYLE
  5
41
102
{ACAD_XDICTIONARY
360
2B7
102
}
102
{ACAD_REACTORS
330
2A
102
}
330
2A
100
AcDbVisualStyle
  2
Shaded with edges
 70
    26
 71
     2
 72
     2
 73
     1
 90
        2
 40
-0.6
 41
30.0
 62
     5
 63
     7
421
 16777215
 74
     1
 91
       10
 64
     7
 65
   257
 75
     2
175
     1
 42
1.0
 92
        8
 66
   257
 43
1.0
 76
     1
 77
     6
 78
     2
 67
     7
 79
     3
170
     0
171
     0
290
     0
174
     0
 93
        5
 44
0.0
173
     0
291
     0
 45
0.0
  0
VISUALSTYLE
  5
3E
102
{ACAD_XDICTIONARY
360
2B1
102
}
102
{ACAD_REACTORS
330
2A
102
}
330
2A
100
AcDbVisualStyle
  2
Shades of Gray
 70
    23
 71
     2
 72
     2
 73
     3
 90
        0
 40
-0.6
 41
-30.0
 62
     5
 63
     7
421
 16777215
 74
     2
 91
        2
 64
     7
 65
     7
 75
     1
175
     1
 42
40.0
 92
        8
 66
     7
 43
1.0
 76
     1
 77
     6
 78
     2
 67
     7
 79
     3
170
     0
171
     0
290
     0
174
     0
 93
        1
 44
0.0
173
     0
291
     0
 45
0.0
  0
VISUALSTYLE
  5
3F
102
{ACAD_XDICTIONARY
360
2B3
102
}
102
{ACAD_REACTORS
330
2A
102
}
330
2A
100
AcDbVisualStyle
  2
Sketchy
 70
    24
 71
     1
 72
     2
 73
     2
 90
        0
 40
-0.6
 41
-30.0
 62
     5
 63
     7
421
 16777215
 74
     2
 91
        2
 64
     7
 65
     7
 75
     1
175
     1
 42
40.0
 92
       11
 66
     7
 43
1.0
 76
     1
 77
     6
 78
     2
 67
     7
 79
     6
170
     0
171
     0
290
     0
174
     0
 93
        1
 44
0.0
173
     0
291
     0
 45
0.0
  0
VISUALSTYLE
  5
37
102
{ACAD_XDICTIONARY
360
2A3
102
}
102
{ACAD_REACTORS
330
2A
102
}
330
2A
100
AcDbVisualStyle
  2
Thicken
 70
    13
 71
     2
 72
     2
 73
     0
 90
        0
 40
-0.6
 41
-30.0
 62
     5
 63
     7
421
 16777215
 74
     1
 91
        4
 64
     7
 65
   257
 75
     1
175
     1
 42
1.0
 92
       12
 66
     7
 43
1.0
 76
     1
 77
     6
 78
     2
 67
     7
 79
     5
170
     0
171
     0
290
     0
174
     0
 93
        1
 44
0.0
173
     0
291
     1
 45
0.0
  0
VISUALSTYLE
  5
30
102
{ACAD_XDICTIONARY
360
295
102
}
102
{ACAD_REACTORS
330
2A
102
}
330
2A
100
AcDbVisualStyle
  2
Wireframe
 70
     5
 71
     0
 72
     2
 73
     0
 90
        0
 40
-0.6
 41
-30.0
 62
     5
 63
     7
421
 16777215
 74
     1
 91
        4
 64
     7
 65
   257
 75
     1
175
     1
 42
1.0
 92
        0
 66
   257
 43
1.0
 76
     1
 77
     6
 78
     2
 67
     7
 79
     3
170
     0
171
     0
290
     0
174
     0
 93
        1
 44
0.0
173
     0
291
     0
 45
0.0
  0
VISUALSTYLE
  5
40
102
{ACAD_XDICTIONARY
360
2B5
102
}
102
{ACAD_REACTORS
330
2A
102
}
330
2A
100
AcDbVisualStyle
  2
X-Ray
 70
    25
 71
     2
 72
     2
 73
     1
 90
        1
 40
0.5
 41
-30.0
 62
     5
 63
     7
421
 16777215
 74
     1
 91
        0
 64
     7
 65
   257
 75
     1
175
     1
 42
1.0
 92
        8
 66
     7
 43
1.0
 76
     1
 77
     6
 78
     2
 67
     7
 79
     3
170
     0
171
     0
290
     0
174
     0
 93
       13
 44
0.0
173
     0
291
     0
 45
0.0
  0
DICTIONARYVAR
  5
289
102
{ACAD_REACTORS
330
288
102
}
330
288
100
DictionaryVariables
280
     0
  1
1:1
  0
DICTIONARYVAR
  5
2C2
102
{ACAD_REACTORS
330
288
102
}
330
288
100
DictionaryVariables
280
     0
  1
Standard
  0
DICTIONARYVAR
  5
2C1
102
{ACAD_REACTORS
330
288
102
}
330
288
100
DictionaryVariables
280
     0
  1
STANDARD
  0
DICTIONARYVAR
  5
28A
102
{ACAD_REACTORS
330
288
102
}
330
288
100
DictionaryVariables
280
     0
  1
2
  0
DICTIONARY
  5
2BE
330
6C
100
AcDbDictionary
280
     1
281
     1
  3
ACAD_XREC_ROUNDTRIP
360
2BF
  0
DICTIONARY
  5
2BB
330
6A
100
AcDbDictionary
280
     1
281
     1
  3
ACAD_ROUNDTRIP_2008_TABLESTYLE_CELLSTYLEMAP
360
2BC
  0
DICTIONARY
  5
293
330
2F
100
AcDbDictionary
280
     1
281
     1
  3
ACAD_XREC_ROUNDTRIP
360
294
  0
DICTIONARY
  5
299
330
32
100
AcDbDictionary
280
     1
281
     1
  3
ACAD_XREC_ROUNDTRIP
360
29A
  0
DICTIONARY
  5
2A1
330
36
100
AcDbDictionary
280
     1
281
     1
  3
ACAD_XREC_ROUNDTRIP
360
2A2
  0
DICTIONARY
  5
2A9
330
3A
100
AcDbDictionary
280
     1
281
     1
  3
ACAD_XREC_ROUNDTRIP
360
2AA
  0
DICTIONARY
  5
29D
330
34
100
AcDbDictionary
280
     1
281
     1
  3
ACAD_XREC_ROUNDTRIP
360
29E
  0
DICTIONARY
  5
29F
330
35
100
AcDbDictionary
280
     1
281
     1
  3
ACAD_XREC_ROUNDTRIP
360
2A0
  0
DICTIONARY
  5
2AF
330
3D
100
AcDbDictionary
280
     1
281
     1
  3
ACAD_XREC_ROUNDTRIP
360
2B0
  0
DICTIONARY
  5
2A7
330
39
100
AcDbDictionary
280
     1
281
     1
  3
ACAD_XREC_ROUNDTRIP
360
2A8
  0
DICTIONARY
  5
28B
330
2B
100
AcDbDictionary
280
     1
281
     1
  3
ACAD_XREC_ROUNDTRIP
360
28C
  0
DICTIONARY
  5
28D
330
2C
100
AcDbDictionary
280
     1
281
     1
  3
ACAD_XREC_ROUNDTRIP
360
28E
  0
DICTIONARY
  5
28F
330
2D
100
AcDbDictionary
280
     1
281
     1
  3
ACAD_XREC_ROUNDTRIP
360
290
  0
DICTIONARY
  5
291
330
2E
100
AcDbDictionary
280
     1
281
     1
  3
ACAD_XREC_ROUNDTRIP
360
292
  0
DICTIONARY
  5
297
330
31
100
AcDbDictionary
280
     1
281
     1
  3
ACAD_XREC_ROUNDTRIP
360
298
  0
DICTIONARY
  5
2AB
330
3B
100
AcDbDictionary
280
     1
281
     1
  3
ACAD_XREC_ROUNDTRIP
360
2AC
  0
DICTIONARY
  5
2A5
330
38
100
AcDbDictionary
280
     1
281
     1
  3
ACAD_XREC_ROUNDTRIP
360
2A6
  0
DICTIONARY
  5
2AD
330
3C
100
AcDbDictionary
280
     1
281
     1
  3
ACAD_XREC_ROUNDTRIP
360
2AE
  0
DICTIONARY
  5
29B
330
33
100
AcDbDictionary
280
     1
281
     1
  3
ACAD_XREC_ROUNDTRIP
360
29C
  0
DICTIONARY
  5
2B9
330
42
100
AcDbDictionary
280
     1
281
     1
  3
ACAD_XREC_ROUNDTRIP
360
2BA
  0
DICTIONARY
  5
2B7
330
41
100
AcDbDictionary
280
     1
281
     1
  3
ACAD_XREC_ROUNDTRIP
360
2B8
  0
DICTIONARY
  5
2B1
330
3E
100
AcDbDictionary
280
     1
281
     1
  3
ACAD_XREC_ROUNDTRIP
360
2B2
  0
DICTIONARY
  5
2B3
330
3F
100
AcDbDictionary
280
     1
281
     1
  3
ACAD_XREC_ROUNDTRIP
360
2B4
  0
DICTIONARY
  5
2A3
330
37
100
AcDbDictionary
280
     1
281
     1
  3
ACAD_XREC_ROUNDTRIP
360
2A4
  0
DICTIONARY
  5
295
330
30
100
AcDbDictionary
280
     1
281
     1
  3
ACAD_XREC_ROUNDTRIP
360
296
  0
DICTIONARY
  5
2B5
330
40
100
AcDbDictionary
280
     1
281
     1
  3
ACAD_XREC_ROUNDTRIP
360
2B6
  0
XRECORD
  5
2BF
102
{ACAD_REACTORS
330
2BE
102
}
330
2BE
100
AcDbXrecord
280
     1
102
ACAD_ROUNDTRIP_2010_MLEADER_STYLE
  0
ACAD_PROXY_OBJECT
  5
2BC
102
{ACAD_REACTORS
330
2BB
102
}
330
2BB
100
AcDbProxyObject
 90
      499
 91
      509
 95
  1638427
 70
     0
 96
      324
311
9055F0044004100540041009065F005400490054004C0045009075F00480045004100440045005200F
 93
     5028
310
40D05406A0000003200101A412940A000000304000AD7A3703D0AC73F404B81E85EB51B8AE3F2E07A17AD46E2B8FCB81E85EB51B8AE3F2E07A17AD46E2B8FCB81E85EB51B8AE3F2E07A17AD46E2B8FD0640640600000030400FEFFFFFF80AD7A3703D0AA73F40A40600000030400FEFFFFFF80AD7A3703D0AA73F412406000
310
00030400FEFFFFFF80AD7A3703D0AA73F42240600000030400FEFFFFFF80AD7A3703D0AA73F44240600000030400FEFFFFFF80AD7A3703D0AA73F48240600000030400FEFFFFFF80AD7A3703D0AA73F40D02415018008000008000000C800406904A5058000000C100000000000000340FD012E07A17AD46E2B8FCB81E85EB
310
51B8AE3F2E07A17AD46E2B8FCB81E85EB51B8AE3F2E07A17AD46E2B8FCB81E85EB51B8AE3F419019018000000C1003FBFFFFFE02B5E8DC0F42A9CFD029018000000C1003FBFFFFFE02B5E8DC0F42A9CFD049018000000C1003FBFFFFFE02B5E8DC0F42A9CFD089018000000C1003FBFFFFFE02B5E8DC0F42A9CFD109018000
310
000C1003FBFFFFFE02B5E8DC0F42A9CFD209018000000C1003FBFFFFFE02B5E8DC0F42A9CFD0140505406A0000003200101A4129416000000304000AD7A3703D0AC73F404B81E85EB51B8AE3F2E07A17AD46E2B8FCB81E85EB51B8AE3F2E07A17AD46E2B8FCB81E85EB51B8AE3F2E07A17AD46E2B8FD064064060000003040
310
0FEFFFFFF80AD7A3703D0AA73F40A40600000030400FEFFFFFF80AD7A3703D0AA73F41240600000030400FEFFFFFF80AD7A3703D0AA73F42240600000030400FEFFFFFF80AD7A3703D0AA73F44240600000030400FEFFFFFF80AD7A3703D0AA73F48240600000030400FEFFFFFF80AD7A3703D0AA73F40901F
340
11
340
14
340
14
340
14
340
14
340
14
340
14
340
11
340
14
340
14
340
14
340
14
340
14
340
14
340
11
340
14
340
14
340
14
340
14
340
14
340
14
 94
        0
  0
XRECORD
  5
294
102
{ACAD_REACTORS
330
293
102
}
330
293
100
AcDbXrecord
280
     1
102
RTVSPropertyOp0
 70
     1
102
RTVSPropertyOp1
 70
     1
102
RTVSPropertyOp2
 70
     1
102
RTVSPropertyOp3
 70
     1
102
RTVSPropertyOp4
 70
     1
102
RTVSPropertyOp5
 70
     1
102
RTVSPropertyOp6
 70
     1
102
RTVSPropertyOp7
 70
     1
102
RTVSPropertyOp8
 70
     1
102
RTVSPropertyOp9
 70
     1
102
RTVSPropertyOp10
 70
     1
102
RTVSPropertyOp11
 70
     1
102
RTVSPropertyOp12
 70
     1
102
RTVSPropertyOp13
 70
     1
102
RTVSPropertyOp14
 70
     1
102
RTVSPropertyOp15
 70
     1
102
RTVSPropertyOp16
 70
     1
102
RTVSPropertyOp17
 70
     1
102
RTVSPropertyOp18
 70
     1
102
RTVSPropertyOp19
 70
     1
102
RTVSPropertyOp20
 70
     1
102
RTVSPropertyOp21
 70
     1
102
RTVSPropertyOp22
 70
     1
102
RTVSPropertyOp23
 70
     1
102
RTVSPropertyOp24
 70
     1
102
RTVSPropertyOp25
 70
     1
102
RTVSPropertyOp26
 70
     1
102
RTVSPropertyOp27
 70
     1
102
RTVSPropertyOp28
 70
     1
102
RTVSPropertyOp29
 70
     1
102
RTVSPropertyOp30
 70
     1
102
RTVSPropertyOp31
 70
     1
102
RTVSPropertyOp32
 70
     1
102
RTVSPropertyOp33
 70
     1
102
RTVSPropertyOp34
 70
     1
102
RTVSPropertyOp35
 70
     1
102
RTVSPropertyOp36
 70
     1
102
RTVSPropertyOp37
 70
     1
102
RTVSPropertyOp38
 70
     1
102
RTVSPropertyOp39
 70
     1
102
RTVSPropertyOp40
 70
     1
102
RTVSPropertyOp41
 70
     1
102
RTVSPropertyOp42
 70
     1
102
RTVSPropertyOp43
 70
     1
102
RTVSPropertyOp44
 70
     1
102
RTVSPropertyOp45
 70
     1
102
RTVSPropertyOp46
 70
     1
102
RTVSPropertyOp47
 70
     1
102
RTVSPropertyOp48
 70
     1
102
RTVSPropertyOp49
 70
     1
102
RTVSPropertyOp50
 70
     1
102
RTVSPropertyOp51
 70
     0
102
RTVSPropertyOp52
 70
     0
102
RTVSPropertyOp53
 70
     1
102
RTVSPropertyOp54
 70
     1
102
RTVSPropertyOp55
 70
     1
102
RTVSPropertyOp56
 70
     1
102
RTVSPropertyOp57
 70
     1
102
RTVSPost2010Prop28
280
     1
102
RTVSPost2010PropOp28
 70
     1
102
RTVSPost2010Prop29
280
     1
102
RTVSPost2010PropOp29
 70
     1
102
RTVSPost2010Prop30
280
     0
102
RTVSPost2010PropOp30
 70
     1
102
RTVSPost2010Prop31
280
     0
102
RTVSPost2010PropOp31
 70
     1
102
RTVSPost2010Prop32
280
     0
102
RTVSPost2010PropOp32
 70
     1
102
RTVSPost2010Prop33
280
     0
102
RTVSPost2010PropOp33
 70
     1
102
RTVSPost2010Prop34
280
     0
102
RTVSPost2010PropOp34
 70
     1
102
RTVSPost2010Prop35
280
     0
102
RTVSPost2010PropOp35
 70
     1
102
RTVSPost2010Prop36
280
     0
102
RTVSPost2010PropOp36
 70
     1
102
RTVSPost2010Prop37
 90
       50
102
RTVSPost2010PropOp37
 70
     1
102
RTVSPost2010Prop38
140
0.0
102
RTVSPost2010PropOp38
 70
     1
102
RTVSPost2010Prop39
140
1.0
102
RTVSPost2010PropOp39
 70
     1
102
RTVSPost2010Prop40
 90
        0
102
RTVSPost2010PropOp40
 70
     1
102
RTVSPost2010Prop41ColorIndex
 90
       18
102
RTVSPost2010Prop41ColorRGB
 90
        0
102
RTVSPost2010PropOp41
 70
     1
102
RTVSPost2010Prop42
 90
       50
102
RTVSPost2010PropOp42
 70
     1
102
RTVSPost2010Prop43
 90
        3
102
RTVSPost2010PropOp43
 70
     1
102
RTVSPost2010Prop44ColorIndex
 90
        5
102
RTVSPost2010Prop44ColorRGB
 90
      255
102
RTVSPost2010PropOp44
 70
     1
102
RTVSPost2010Prop45
280
     0
102
RTVSPost2010PropOp45
 70
     1
102
RTVSPost2010Prop46
 90
       50
102
RTVSPost2010PropOp46
 70
     1
102
RTVSPost2010Prop47
 90
       50
102
RTVSPost2010PropOp47
 70
     1
102
RTVSPost2010Prop48
 90
       50
102
RTVSPost2010PropOp48
 70
     1
102
RTVSPost2010Prop49
280
     0
102
RTVSPost2010PropOp49
 70
     1
102
RTVSPost2010Prop50
 90
       50
102
RTVSPost2010PropOp50
 70
     1
102
RTVSPost2010Prop51ColorIndex
 90
      256
102
RTVSPost2010Prop51ColorRGB
 90
-16777216
102
RTVSPost2010PropOp51
 70
     0
102
RTVSPost2010Prop52
140
1.0
102
RTVSPost2010PropOp52
 70
     0
102
RTVSPost2010Prop53
 90
        2
102
RTVSPost2010PropOp53
 70
     1
102
RTVSPost2010Prop54
  1
strokes_ogs.tif
102
RTVSPost2010PropOp54
 70
     1
102
RTVSPost2010Prop55
280
     0
102
RTVSPost2010PropOp55
 70
     1
102
RTVSPost2010Prop56
140
1.0
102
RTVSPost2010PropOp56
 70
     1
102
RTVSPost2010Prop57
140
1.0
102
RTVSPost2010PropOp57
 70
     1
  0
XRECORD
  5
29A
102
{ACAD_REACTORS
330
299
102
}
330
299
100
AcDbXrecord
280
     1
102
RTVSPropertyOp0
 70
     1
102
RTVSPropertyOp1
 70
     1
102
RTVSPropertyOp2
 70
     1
102
RTVSPropertyOp3
 70
     1
102
RTVSPropertyOp4
 70
     1
102
RTVSPropertyOp5
 70
     1
102
RTVSPropertyOp6
 70
     1
102
RTVSPropertyOp7
 70
     1
102
RTVSPropertyOp8
 70
     1
102
RTVSPropertyOp9
 70
     1
102
RTVSPropertyOp10
 70
     1
102
RTVSPropertyOp11
 70
     1
102
RTVSPropertyOp12
 70
     1
102
RTVSPropertyOp13
 70
     1
102
RTVSPropertyOp14
 70
     1
102
RTVSPropertyOp15
 70
     1
102
RTVSPropertyOp16
 70
     1
102
RTVSPropertyOp17
 70
     1
102
RTVSPropertyOp18
 70
     1
102
RTVSPropertyOp19
 70
     1
102
RTVSPropertyOp20
 70
     1
102
RTVSPropertyOp21
 70
     1
102
RTVSPropertyOp22
 70
     1
102
RTVSPropertyOp23
 70
     1
102
RTVSPropertyOp24
 70
     1
102
RTVSPropertyOp25
 70
     1
102
RTVSPropertyOp26
 70
     1
102
RTVSPropertyOp27
 70
     1
102
RTVSPropertyOp28
 70
     1
102
RTVSPropertyOp29
 70
     1
102
RTVSPropertyOp30
 70
     1
102
RTVSPropertyOp31
 70
     1
102
RTVSPropertyOp32
 70
     1
102
RTVSPropertyOp33
 70
     1
102
RTVSPropertyOp34
 70
     1
102
RTVSPropertyOp35
 70
     1
102
RTVSPropertyOp36
 70
     1
102
RTVSPropertyOp37
 70
     1
102
RTVSPropertyOp38
 70
     1
102
RTVSPropertyOp39
 70
     1
102
RTVSPropertyOp40
 70
     1
102
RTVSPropertyOp41
 70
     1
102
RTVSPropertyOp42
 70
     1
102
RTVSPropertyOp43
 70
     1
102
RTVSPropertyOp44
 70
     1
102
RTVSPropertyOp45
 70
     1
102
RTVSPropertyOp46
 70
     1
102
RTVSPropertyOp47
 70
     1
102
RTVSPropertyOp48
 70
     1
102
RTVSPropertyOp49
 70
     1
102
RTVSPropertyOp50
 70
     1
102
RTVSPropertyOp51
 70
     0
102
RTVSPropertyOp52
 70
     0
102
RTVSPropertyOp53
 70
     1
102
RTVSPropertyOp54
 70
     1
102
RTVSPropertyOp55
 70
     1
102
RTVSPropertyOp56
 70
     1
102
RTVSPropertyOp57
 70
     1
102
RTVSPost2010Prop28
280
     0
102
RTVSPost2010PropOp28
 70
     1
102
RTVSPost2010Prop29
280
     1
102
RTVSPost2010PropOp29
 70
     1
102
RTVSPost2010Prop30
280
     1
102
RTVSPost2010PropOp30
 70
     1
102
RTVSPost2010Prop31
280
     0
102
RTVSPost2010PropOp31
 70
     1
102
RTVSPost2010Prop32
280
     0
102
RTVSPost2010PropOp32
 70
     1
102
RTVSPost2010Prop33
280
     0
102
RTVSPost2010PropOp33
 70
     1
102
RTVSPost2010Prop34
280
     0
102
RTVSPost2010PropOp34
 70
     1
102
RTVSPost2010Prop35
280
     0
102
RTVSPost2010PropOp35
 70
     1
102
RTVSPost2010Prop36
280
     0
102
RTVSPost2010PropOp36
 70
     1
102
RTVSPost2010Prop37
 90
       50
102
RTVSPost2010PropOp37
 70
     1
102
RTVSPost2010Prop38
140
0.0
102
RTVSPost2010PropOp38
 70
     1
102
RTVSPost2010Prop39
140
1.0
102
RTVSPost2010PropOp39
 70
     1
102
RTVSPost2010Prop40
 90
        0
102
RTVSPost2010PropOp40
 70
     1
102
RTVSPost2010Prop41ColorIndex
 90
       18
102
RTVSPost2010Prop41ColorRGB
 90
        0
102
RTVSPost2010PropOp41
 70
     1
102
RTVSPost2010Prop42
 90
       50
102
RTVSPost2010PropOp42
 70
     1
102
RTVSPost2010Prop43
 90
        3
102
RTVSPost2010PropOp43
 70
     1
102
RTVSPost2010Prop44ColorIndex
 90
        5
102
RTVSPost2010Prop44ColorRGB
 90
      255
102
RTVSPost2010PropOp44
 70
     1
102
RTVSPost2010Prop45
280
     0
102
RTVSPost2010PropOp45
 70
     1
102
RTVSPost2010Prop46
 90
       50
102
RTVSPost2010PropOp46
 70
     1
102
RTVSPost2010Prop47
 90
       50
102
RTVSPost2010PropOp47
 70
     1
102
RTVSPost2010Prop48
 90
       50
102
RTVSPost2010PropOp48
 70
     1
102
RTVSPost2010Prop49
280
     0
102
RTVSPost2010PropOp49
 70
     1
102
RTVSPost2010Prop50
 90
       50
102
RTVSPost2010PropOp50
 70
     1
102
RTVSPost2010Prop51ColorIndex
 90
      256
102
RTVSPost2010Prop51ColorRGB
 90
-16777216
102
RTVSPost2010PropOp51
 70
     0
102
RTVSPost2010Prop52
140
1.0
102
RTVSPost2010PropOp52
 70
     0
102
RTVSPost2010Prop53
 90
        2
102
RTVSPost2010PropOp53
 70
     1
102
RTVSPost2010Prop54
  1
strokes_ogs.tif
102
RTVSPost2010PropOp54
 70
     1
102
RTVSPost2010Prop55
280
     0
102
RTVSPost2010PropOp55
 70
     1
102
RTVSPost2010Prop56
140
1.0
102
RTVSPost2010PropOp56
 70
     1
102
RTVSPost2010Prop57
140
1.0
102
RTVSPost2010PropOp57
 70
     1
  0
XRECORD
  5
2A2
102
{ACAD_REACTORS
330
2A1
102
}
330
2A1
100
AcDbXrecord
280
     1
102
RTVSPropertyOp0
 70
     1
102
RTVSPropertyOp1
 70
     1
102
RTVSPropertyOp2
 70
     1
102
RTVSPropertyOp3
 70
     1
102
RTVSPropertyOp4
 70
     1
102
RTVSPropertyOp5
 70
     1
102
RTVSPropertyOp6
 70
     1
102
RTVSPropertyOp7
 70
     1
102
RTVSPropertyOp8
 70
     1
102
RTVSPropertyOp9
 70
     1
102
RTVSPropertyOp10
 70
     1
102
RTVSPropertyOp11
 70
     1
102
RTVSPropertyOp12
 70
     1
102
RTVSPropertyOp13
 70
     1
102
RTVSPropertyOp14
 70
     1
102
RTVSPropertyOp15
 70
     1
102
RTVSPropertyOp16
 70
     1
102
RTVSPropertyOp17
 70
     1
102
RTVSPropertyOp18
 70
     1
102
RTVSPropertyOp19
 70
     1
102
RTVSPropertyOp20
 70
     1
102
RTVSPropertyOp21
 70
     1
102
RTVSPropertyOp22
 70
     1
102
RTVSPropertyOp23
 70
     1
102
RTVSPropertyOp24
 70
     1
102
RTVSPropertyOp25
 70
     1
102
RTVSPropertyOp26
 70
     1
102
RTVSPropertyOp27
 70
     1
102
RTVSPropertyOp28
 70
     1
102
RTVSPropertyOp29
 70
     1
102
RTVSPropertyOp30
 70
     1
102
RTVSPropertyOp31
 70
     1
102
RTVSPropertyOp32
 70
     1
102
RTVSPropertyOp33
 70
     1
102
RTVSPropertyOp34
 70
     1
102
RTVSPropertyOp35
 70
     1
102
RTVSPropertyOp36
 70
     1
102
RTVSPropertyOp37
 70
     1
102
RTVSPropertyOp38
 70
     1
102
RTVSPropertyOp39
 70
     1
102
RTVSPropertyOp40
 70
     1
102
RTVSPropertyOp41
 70
     1
102
RTVSPropertyOp42
 70
     1
102
RTVSPropertyOp43
 70
     1
102
RTVSPropertyOp44
 70
     1
102
RTVSPropertyOp45
 70
     1
102
RTVSPropertyOp46
 70
     1
102
RTVSPropertyOp47
 70
     1
102
RTVSPropertyOp48
 70
     1
102
RTVSPropertyOp49
 70
     1
102
RTVSPropertyOp50
 70
     1
102
RTVSPropertyOp51
 70
     0
102
RTVSPropertyOp52
 70
     0
102
RTVSPropertyOp53
 70
     1
102
RTVSPropertyOp54
 70
     1
102
RTVSPropertyOp55
 70
     1
102
RTVSPropertyOp56
 70
     1
102
RTVSPropertyOp57
 70
     1
102
RTVSPost2010Prop28
280
     0
102
RTVSPost2010PropOp28
 70
     1
102
RTVSPost2010Prop29
280
     1
102
RTVSPost2010PropOp29
 70
     1
102
RTVSPost2010Prop30
280
     1
102
RTVSPost2010PropOp30
 70
     1
102
RTVSPost2010Prop31
280
     0
102
RTVSPost2010PropOp31
 70
     1
102
RTVSPost2010Prop32
280
     0
102
RTVSPost2010PropOp32
 70
     1
102
RTVSPost2010Prop33
280
     0
102
RTVSPost2010PropOp33
 70
     1
102
RTVSPost2010Prop34
280
     0
102
RTVSPost2010PropOp34
 70
     1
102
RTVSPost2010Prop35
280
     0
102
RTVSPost2010PropOp35
 70
     1
102
RTVSPost2010Prop36
280
     0
102
RTVSPost2010PropOp36
 70
     1
102
RTVSPost2010Prop37
 90
       50
102
RTVSPost2010PropOp37
 70
     1
102
RTVSPost2010Prop38
140
0.0
102
RTVSPost2010PropOp38
 70
     1
102
RTVSPost2010Prop39
140
1.0
102
RTVSPost2010PropOp39
 70
     1
102
RTVSPost2010Prop40
 90
        0
102
RTVSPost2010PropOp40
 70
     1
102
RTVSPost2010Prop41ColorIndex
 90
       18
102
RTVSPost2010Prop41ColorRGB
 90
        0
102
RTVSPost2010PropOp41
 70
     1
102
RTVSPost2010Prop42
 90
       50
102
RTVSPost2010PropOp42
 70
     1
102
RTVSPost2010Prop43
 90
        3
102
RTVSPost2010PropOp43
 70
     1
102
RTVSPost2010Prop44ColorIndex
 90
        5
102
RTVSPost2010Prop44ColorRGB
 90
      255
102
RTVSPost2010PropOp44
 70
     1
102
RTVSPost2010Prop45
280
     0
102
RTVSPost2010PropOp45
 70
     1
102
RTVSPost2010Prop46
 90
       50
102
RTVSPost2010PropOp46
 70
     1
102
RTVSPost2010Prop47
 90
       50
102
RTVSPost2010PropOp47
 70
     1
102
RTVSPost2010Prop48
 90
       50
102
RTVSPost2010PropOp48
 70
     1
102
RTVSPost2010Prop49
280
     0
102
RTVSPost2010PropOp49
 70
     1
102
RTVSPost2010Prop50
 90
       50
102
RTVSPost2010PropOp50
 70
     1
102
RTVSPost2010Prop51ColorIndex
 90
      256
102
RTVSPost2010Prop51ColorRGB
 90
-16777216
102
RTVSPost2010PropOp51
 70
     0
102
RTVSPost2010Prop52
140
1.0
102
RTVSPost2010PropOp52
 70
     0
102
RTVSPost2010Prop53
 90
        2
102
RTVSPost2010PropOp53
 70
     1
102
RTVSPost2010Prop54
  1
strokes_ogs.tif
102
RTVSPost2010PropOp54
 70
     1
102
RTVSPost2010Prop55
280
     0
102
RTVSPost2010PropOp55
 70
     1
102
RTVSPost2010Prop56
140
1.0
102
RTVSPost2010PropOp56
 70
     1
102
RTVSPost2010Prop57
140
1.0
102
RTVSPost2010PropOp57
 70
     1
  0
XRECORD
  5
2AA
102
{ACAD_REACTORS
330
2A9
102
}
330
2A9
100
AcDbXrecord
280
     1
102
RTVSPropertyOp0
 70
     1
102
RTVSPropertyOp1
 70
     1
102
RTVSPropertyOp2
 70
     1
102
RTVSPropertyOp3
 70
     1
102
RTVSPropertyOp4
 70
     1
102
RTVSPropertyOp5
 70
     1
102
RTVSPropertyOp6
 70
     1
102
RTVSPropertyOp7
 70
     1
102
RTVSPropertyOp8
 70
     1
102
RTVSPropertyOp9
 70
     1
102
RTVSPropertyOp10
 70
     1
102
RTVSPropertyOp11
 70
     1
102
RTVSPropertyOp12
 70
     1
102
RTVSPropertyOp13
 70
     1
102
RTVSPropertyOp14
 70
     1
102
RTVSPropertyOp15
 70
     1
102
RTVSPropertyOp16
 70
     1
102
RTVSPropertyOp17
 70
     1
102
RTVSPropertyOp18
 70
     1
102
RTVSPropertyOp19
 70
     1
102
RTVSPropertyOp20
 70
     1
102
RTVSPropertyOp21
 70
     1
102
RTVSPropertyOp22
 70
     1
102
RTVSPropertyOp23
 70
     1
102
RTVSPropertyOp24
 70
     1
102
RTVSPropertyOp25
 70
     1
102
RTVSPropertyOp26
 70
     1
102
RTVSPropertyOp27
 70
     1
102
RTVSPropertyOp28
 70
     1
102
RTVSPropertyOp29
 70
     1
102
RTVSPropertyOp30
 70
     1
102
RTVSPropertyOp31
 70
     1
102
RTVSPropertyOp32
 70
     1
102
RTVSPropertyOp33
 70
     1
102
RTVSPropertyOp34
 70
     1
102
RTVSPropertyOp35
 70
     1
102
RTVSPropertyOp36
 70
     1
102
RTVSPropertyOp37
 70
     1
102
RTVSPropertyOp38
 70
     1
102
RTVSPropertyOp39
 70
     1
102
RTVSPropertyOp40
 70
     1
102
RTVSPropertyOp41
 70
     1
102
RTVSPropertyOp42
 70
     1
102
RTVSPropertyOp43
 70
     1
102
RTVSPropertyOp44
 70
     1
102
RTVSPropertyOp45
 70
     1
102
RTVSPropertyOp46
 70
     1
102
RTVSPropertyOp47
 70
     1
102
RTVSPropertyOp48
 70
     1
102
RTVSPropertyOp49
 70
     1
102
RTVSPropertyOp50
 70
     1
102
RTVSPropertyOp51
 70
     0
102
RTVSPropertyOp52
 70
     0
102
RTVSPropertyOp53
 70
     1
102
RTVSPropertyOp54
 70
     1
102
RTVSPropertyOp55
 70
     1
102
RTVSPropertyOp56
 70
     1
102
RTVSPropertyOp57
 70
     1
102
RTVSPost2010Prop28
280
     0
102
RTVSPost2010PropOp28
 70
     1
102
RTVSPost2010Prop29
280
     1
102
RTVSPost2010PropOp29
 70
     1
102
RTVSPost2010Prop30
280
     1
102
RTVSPost2010PropOp30
 70
     1
102
RTVSPost2010Prop31
280
     0
102
RTVSPost2010PropOp31
 70
     1
102
RTVSPost2010Prop32
280
     0
102
RTVSPost2010PropOp32
 70
     1
102
RTVSPost2010Prop33
280
     0
102
RTVSPost2010PropOp33
 70
     1
102
RTVSPost2010Prop34
280
     0
102
RTVSPost2010PropOp34
 70
     1
102
RTVSPost2010Prop35
280
     0
102
RTVSPost2010PropOp35
 70
     1
102
RTVSPost2010Prop36
280
     0
102
RTVSPost2010PropOp36
 70
     1
102
RTVSPost2010Prop37
 90
       50
102
RTVSPost2010PropOp37
 70
     1
102
RTVSPost2010Prop38
140
0.0
102
RTVSPost2010PropOp38
 70
     1
102
RTVSPost2010Prop39
140
1.0
102
RTVSPost2010PropOp39
 70
     1
102
RTVSPost2010Prop40
 90
        0
102
RTVSPost2010PropOp40
 70
     1
102
RTVSPost2010Prop41ColorIndex
 90
       18
102
RTVSPost2010Prop41ColorRGB
 90
        0
102
RTVSPost2010PropOp41
 70
     1
102
RTVSPost2010Prop42
 90
       50
102
RTVSPost2010PropOp42
 70
     1
102
RTVSPost2010Prop43
 90
        3
102
RTVSPost2010PropOp43
 70
     1
102
RTVSPost2010Prop44ColorIndex
 90
        5
102
RTVSPost2010Prop44ColorRGB
 90
      255
102
RTVSPost2010PropOp44
 70
     1
102
RTVSPost2010Prop45
280
     0
102
RTVSPost2010PropOp45
 70
     1
102
RTVSPost2010Prop46
 90
       50
102
RTVSPost2010PropOp46
 70
     1
102
RTVSPost2010Prop47
 90
       50
102
RTVSPost2010PropOp47
 70
     1
102
RTVSPost2010Prop48
 90
       50
102
RTVSPost2010PropOp48
 70
     1
102
RTVSPost2010Prop49
280
     0
102
RTVSPost2010PropOp49
 70
     1
102
RTVSPost2010Prop50
 90
       50
102
RTVSPost2010PropOp50
 70
     1
102
RTVSPost2010Prop51ColorIndex
 90
      256
102
RTVSPost2010Prop51ColorRGB
 90
-16777216
102
RTVSPost2010PropOp51
 70
     0
102
RTVSPost2010Prop52
140
1.0
102
RTVSPost2010PropOp52
 70
     0
102
RTVSPost2010Prop53
 90
        2
102
RTVSPost2010PropOp53
 70
     1
102
RTVSPost2010Prop54
  1
strokes_ogs.tif
102
RTVSPost2010PropOp54
 70
     1
102
RTVSPost2010Prop55
280
     0
102
RTVSPost2010PropOp55
 70
     1
102
RTVSPost2010Prop56
140
1.0
102
RTVSPost2010PropOp56
 70
     1
102
RTVSPost2010Prop57
140
1.0
102
RTVSPost2010PropOp57
 70
     1
  0
XRECORD
  5
29E
102
{ACAD_REACTORS
330
29D
102
}
330
29D
100
AcDbXrecord
280
     1
102
RTVSPropertyOp0
 70
     1
102
RTVSPropertyOp1
 70
     1
102
RTVSPropertyOp2
 70
     1
102
RTVSPropertyOp3
 70
     1
102
RTVSPropertyOp4
 70
     1
102
RTVSPropertyOp5
 70
     1
102
RTVSPropertyOp6
 70
     1
102
RTVSPropertyOp7
 70
     1
102
RTVSPropertyOp8
 70
     1
102
RTVSPropertyOp9
 70
     1
102
RTVSPropertyOp10
 70
     1
102
RTVSPropertyOp11
 70
     1
102
RTVSPropertyOp12
 70
     1
102
RTVSPropertyOp13
 70
     1
102
RTVSPropertyOp14
 70
     1
102
RTVSPropertyOp15
 70
     1
102
RTVSPropertyOp16
 70
     1
102
RTVSPropertyOp17
 70
     1
102
RTVSPropertyOp18
 70
     1
102
RTVSPropertyOp19
 70
     1
102
RTVSPropertyOp20
 70
     1
102
RTVSPropertyOp21
 70
     1
102
RTVSPropertyOp22
 70
     1
102
RTVSPropertyOp23
 70
     1
102
RTVSPropertyOp24
 70
     1
102
RTVSPropertyOp25
 70
     1
102
RTVSPropertyOp26
 70
     1
102
RTVSPropertyOp27
 70
     1
102
RTVSPropertyOp28
 70
     1
102
RTVSPropertyOp29
 70
     1
102
RTVSPropertyOp30
 70
     1
102
RTVSPropertyOp31
 70
     1
102
RTVSPropertyOp32
 70
     1
102
RTVSPropertyOp33
 70
     1
102
RTVSPropertyOp34
 70
     1
102
RTVSPropertyOp35
 70
     1
102
RTVSPropertyOp36
 70
     1
102
RTVSPropertyOp37
 70
     1
102
RTVSPropertyOp38
 70
     1
102
RTVSPropertyOp39
 70
     1
102
RTVSPropertyOp40
 70
     1
102
RTVSPropertyOp41
 70
     1
102
RTVSPropertyOp42
 70
     1
102
RTVSPropertyOp43
 70
     1
102
RTVSPropertyOp44
 70
     1
102
RTVSPropertyOp45
 70
     1
102
RTVSPropertyOp46
 70
     1
102
RTVSPropertyOp47
 70
     1
102
RTVSPropertyOp48
 70
     1
102
RTVSPropertyOp49
 70
     1
102
RTVSPropertyOp50
 70
     1
102
RTVSPropertyOp51
 70
     0
102
RTVSPropertyOp52
 70
     0
102
RTVSPropertyOp53
 70
     1
102
RTVSPropertyOp54
 70
     1
102
RTVSPropertyOp55
 70
     1
102
RTVSPropertyOp56
 70
     1
102
RTVSPropertyOp57
 70
     1
102
RTVSPost2010Prop28
280
     0
102
RTVSPost2010PropOp28
 70
     1
102
RTVSPost2010Prop29
280
     1
102
RTVSPost2010PropOp29
 70
     1
102
RTVSPost2010Prop30
280
     1
102
RTVSPost2010PropOp30
 70
     1
102
RTVSPost2010Prop31
280
     0
102
RTVSPost2010PropOp31
 70
     1
102
RTVSPost2010Prop32
280
     0
102
RTVSPost2010PropOp32
 70
     1
102
RTVSPost2010Prop33
280
     0
102
RTVSPost2010PropOp33
 70
     1
102
RTVSPost2010Prop34
280
     0
102
RTVSPost2010PropOp34
 70
     1
102
RTVSPost2010Prop35
280
     0
102
RTVSPost2010PropOp35
 70
     1
102
RTVSPost2010Prop36
280
     0
102
RTVSPost2010PropOp36
 70
     1
102
RTVSPost2010Prop37
 90
       50
102
RTVSPost2010PropOp37
 70
     1
102
RTVSPost2010Prop38
140
0.0
102
RTVSPost2010PropOp38
 70
     1
102
RTVSPost2010Prop39
140
1.0
102
RTVSPost2010PropOp39
 70
     1
102
RTVSPost2010Prop40
 90
        0
102
RTVSPost2010PropOp40
 70
     1
102
RTVSPost2010Prop41ColorIndex
 90
       18
102
RTVSPost2010Prop41ColorRGB
 90
        0
102
RTVSPost2010PropOp41
 70
     1
102
RTVSPost2010Prop42
 90
       50
102
RTVSPost2010PropOp42
 70
     1
102
RTVSPost2010Prop43
 90
        3
102
RTVSPost2010PropOp43
 70
     1
102
RTVSPost2010Prop44ColorIndex
 90
        5
102
RTVSPost2010Prop44ColorRGB
 90
      255
102
RTVSPost2010PropOp44
 70
     1
102
RTVSPost2010Prop45
280
     0
102
RTVSPost2010PropOp45
 70
     1
102
RTVSPost2010Prop46
 90
       50
102
RTVSPost2010PropOp46
 70
     1
102
RTVSPost2010Prop47
 90
       50
102
RTVSPost2010PropOp47
 70
     1
102
RTVSPost2010Prop48
 90
       50
102
RTVSPost2010PropOp48
 70
     1
102
RTVSPost2010Prop49
280
     0
102
RTVSPost2010PropOp49
 70
     1
102
RTVSPost2010Prop50
 90
       50
102
RTVSPost2010PropOp50
 70
     1
102
RTVSPost2010Prop51ColorIndex
 90
      256
102
RTVSPost2010Prop51ColorRGB
 90
-16777216
102
RTVSPost2010PropOp51
 70
     0
102
RTVSPost2010Prop52
140
1.0
102
RTVSPost2010PropOp52
 70
     0
102
RTVSPost2010Prop53
 90
        2
102
RTVSPost2010PropOp53
 70
     1
102
RTVSPost2010Prop54
  1
strokes_ogs.tif
102
RTVSPost2010PropOp54
 70
     1
102
RTVSPost2010Prop55
280
     0
102
RTVSPost2010PropOp55
 70
     1
102
RTVSPost2010Prop56
140
1.0
102
RTVSPost2010PropOp56
 70
     1
102
RTVSPost2010Prop57
140
1.0
102
RTVSPost2010PropOp57
 70
     1
  0
XRECORD
  5
2A0
102
{ACAD_REACTORS
330
29F
102
}
330
29F
100
AcDbXrecord
280
     1
102
RTVSPropertyOp0
 70
     1
102
RTVSPropertyOp1
 70
     1
102
RTVSPropertyOp2
 70
     1
102
RTVSPropertyOp3
 70
     1
102
RTVSPropertyOp4
 70
     1
102
RTVSPropertyOp5
 70
     1
102
RTVSPropertyOp6
 70
     1
102
RTVSPropertyOp7
 70
     1
102
RTVSPropertyOp8
 70
     1
102
RTVSPropertyOp9
 70
     1
102
RTVSPropertyOp10
 70
     1
102
RTVSPropertyOp11
 70
     1
102
RTVSPropertyOp12
 70
     1
102
RTVSPropertyOp13
 70
     1
102
RTVSPropertyOp14
 70
     1
102
RTVSPropertyOp15
 70
     1
102
RTVSPropertyOp16
 70
     1
102
RTVSPropertyOp17
 70
     1
102
RTVSPropertyOp18
 70
     1
102
RTVSPropertyOp19
 70
     1
102
RTVSPropertyOp20
 70
     1
102
RTVSPropertyOp21
 70
     1
102
RTVSPropertyOp22
 70
     1
102
RTVSPropertyOp23
 70
     1
102
RTVSPropertyOp24
 70
     1
102
RTVSPropertyOp25
 70
     1
102
RTVSPropertyOp26
 70
     1
102
RTVSPropertyOp27
 70
     1
102
RTVSPropertyOp28
 70
     1
102
RTVSPropertyOp29
 70
     1
102
RTVSPropertyOp30
 70
     1
102
RTVSPropertyOp31
 70
     1
102
RTVSPropertyOp32
 70
     1
102
RTVSPropertyOp33
 70
     1
102
RTVSPropertyOp34
 70
     1
102
RTVSPropertyOp35
 70
     1
102
RTVSPropertyOp36
 70
     1
102
RTVSPropertyOp37
 70
     1
102
RTVSPropertyOp38
 70
     1
102
RTVSPropertyOp39
 70
     1
102
RTVSPropertyOp40
 70
     1
102
RTVSPropertyOp41
 70
     1
102
RTVSPropertyOp42
 70
     1
102
RTVSPropertyOp43
 70
     1
102
RTVSPropertyOp44
 70
     1
102
RTVSPropertyOp45
 70
     1
102
RTVSPropertyOp46
 70
     1
102
RTVSPropertyOp47
 70
     1
102
RTVSPropertyOp48
 70
     1
102
RTVSPropertyOp49
 70
     1
102
RTVSPropertyOp50
 70
     1
102
RTVSPropertyOp51
 70
     0
102
RTVSPropertyOp52
 70
     0
102
RTVSPropertyOp53
 70
     1
102
RTVSPropertyOp54
 70
     1
102
RTVSPropertyOp55
 70
     1
102
RTVSPropertyOp56
 70
     1
102
RTVSPropertyOp57
 70
     1
102
RTVSPost2010Prop28
280
     0
102
RTVSPost2010PropOp28
 70
     1
102
RTVSPost2010Prop29
280
     1
102
RTVSPost2010PropOp29
 70
     1
102
RTVSPost2010Prop30
280
     1
102
RTVSPost2010PropOp30
 70
     1
102
RTVSPost2010Prop31
280
     0
102
RTVSPost2010PropOp31
 70
     1
102
RTVSPost2010Prop32
280
     0
102
RTVSPost2010PropOp32
 70
     1
102
RTVSPost2010Prop33
280
     0
102
RTVSPost2010PropOp33
 70
     1
102
RTVSPost2010Prop34
280
     0
102
RTVSPost2010PropOp34
 70
     1
102
RTVSPost2010Prop35
280
     0
102
RTVSPost2010PropOp35
 70
     1
102
RTVSPost2010Prop36
280
     0
102
RTVSPost2010PropOp36
 70
     1
102
RTVSPost2010Prop37
 90
       50
102
RTVSPost2010PropOp37
 70
     1
102
RTVSPost2010Prop38
140
0.0
102
RTVSPost2010PropOp38
 70
     1
102
RTVSPost2010Prop39
140
1.0
102
RTVSPost2010PropOp39
 70
     1
102
RTVSPost2010Prop40
 90
        0
102
RTVSPost2010PropOp40
 70
     1
102
RTVSPost2010Prop41ColorIndex
 90
       18
102
RTVSPost2010Prop41ColorRGB
 90
        0
102
RTVSPost2010PropOp41
 70
     1
102
RTVSPost2010Prop42
 90
       50
102
RTVSPost2010PropOp42
 70
     1
102
RTVSPost2010Prop43
 90
        3
102
RTVSPost2010PropOp43
 70
     1
102
RTVSPost2010Prop44ColorIndex
 90
        5
102
RTVSPost2010Prop44ColorRGB
 90
      255
102
RTVSPost2010PropOp44
 70
     1
102
RTVSPost2010Prop45
280
     0
102
RTVSPost2010PropOp45
 70
     1
102
RTVSPost2010Prop46
 90
       50
102
RTVSPost2010PropOp46
 70
     1
102
RTVSPost2010Prop47
 90
       50
102
RTVSPost2010PropOp47
 70
     1
102
RTVSPost2010Prop48
 90
       50
102
RTVSPost2010PropOp48
 70
     1
102
RTVSPost2010Prop49
280
     0
102
RTVSPost2010PropOp49
 70
     1
102
RTVSPost2010Prop50
 90
       50
102
RTVSPost2010PropOp50
 70
     1
102
RTVSPost2010Prop51ColorIndex
 90
      256
102
RTVSPost2010Prop51ColorRGB
 90
-16777216
102
RTVSPost2010PropOp51
 70
     0
102
RTVSPost2010Prop52
140
1.0
102
RTVSPost2010PropOp52
 70
     0
102
RTVSPost2010Prop53
 90
        2
102
RTVSPost2010PropOp53
 70
     1
102
RTVSPost2010Prop54
  1
strokes_ogs.tif
102
RTVSPost2010PropOp54
 70
     1
102
RTVSPost2010Prop55
280
     0
102
RTVSPost2010PropOp55
 70
     1
102
RTVSPost2010Prop56
140
1.0
102
RTVSPost2010PropOp56
 70
     1
102
RTVSPost2010Prop57
140
1.0
102
RTVSPost2010PropOp57
 70
     1
  0
XRECORD
  5
2B0
102
{ACAD_REACTORS
330
2AF
102
}
330
2AF
100
AcDbXrecord
280
     1
102
RTVSPropertyOp0
 70
     0
102
RTVSPropertyOp1
 70
     0
102
RTVSPropertyOp2
 70
     0
102
RTVSPropertyOp3
 70
     0
102
RTVSPropertyOp4
 70
     0
102
RTVSPropertyOp5
 70
     0
102
RTVSPropertyOp6
 70
     0
102
RTVSPropertyOp7
 70
     0
102
RTVSPropertyOp8
 70
     0
102
RTVSPropertyOp9
 70
     0
102
RTVSPropertyOp10
 70
     0
102
RTVSPropertyOp11
 70
     0
102
RTVSPropertyOp12
 70
     0
102
RTVSPropertyOp13
 70
     0
102
RTVSPropertyOp14
 70
     2
102
RTVSPropertyOp15
 70
     0
102
RTVSPropertyOp16
 70
     0
102
RTVSPropertyOp17
 70
     0
102
RTVSPropertyOp18
 70
     0
102
RTVSPropertyOp19
 70
     0
102
RTVSPropertyOp20
 70
     0
102
RTVSPropertyOp21
 70
     0
102
RTVSPropertyOp22
 70
     0
102
RTVSPropertyOp23
 70
     0
102
RTVSPropertyOp24
 70
     0
102
RTVSPropertyOp25
 70
     0
102
RTVSPropertyOp26
 70
     0
102
RTVSPropertyOp27
 70
     0
102
RTVSPropertyOp28
 70
     0
102
RTVSPropertyOp29
 70
     0
102
RTVSPropertyOp30
 70
     0
102
RTVSPropertyOp31
 70
     0
102
RTVSPropertyOp32
 70
     0
102
RTVSPropertyOp33
 70
     0
102
RTVSPropertyOp34
 70
     0
102
RTVSPropertyOp35
 70
     0
102
RTVSPropertyOp36
 70
     0
102
RTVSPropertyOp37
 70
     0
102
RTVSPropertyOp38
 70
     0
102
RTVSPropertyOp39
 70
     0
102
RTVSPropertyOp40
 70
     0
102
RTVSPropertyOp41
 70
     0
102
RTVSPropertyOp42
 70
     0
102
RTVSPropertyOp43
 70
     0
102
RTVSPropertyOp44
 70
     0
102
RTVSPropertyOp45
 70
     0
102
RTVSPropertyOp46
 70
     0
102
RTVSPropertyOp47
 70
     0
102
RTVSPropertyOp48
 70
     0
102
RTVSPropertyOp49
 70
     0
102
RTVSPropertyOp50
 70
     0
102
RTVSPropertyOp51
 70
     0
102
RTVSPropertyOp52
 70
     0
102
RTVSPropertyOp53
 70
     0
102
RTVSPropertyOp54
 70
     0
102
RTVSPropertyOp55
 70
     0
102
RTVSPropertyOp56
 70
     0
102
RTVSPropertyOp57
 70
     0
102
RTVSPost2010Prop28
280
     0
102
RTVSPost2010PropOp28
 70
     0
102
RTVSPost2010Prop29
280
     1
102
RTVSPost2010PropOp29
 70
     0
102
RTVSPost2010Prop30
280
     1
102
RTVSPost2010PropOp30
 70
     0
102
RTVSPost2010Prop31
280
     0
102
RTVSPost2010PropOp31
 70
     0
102
RTVSPost2010Prop32
280
     0
102
RTVSPost2010PropOp32
 70
     0
102
RTVSPost2010Prop33
280
     0
102
RTVSPost2010PropOp33
 70
     0
102
RTVSPost2010Prop34
280
     0
102
RTVSPost2010PropOp34
 70
     0
102
RTVSPost2010Prop35
280
     0
102
RTVSPost2010PropOp35
 70
     0
102
RTVSPost2010Prop36
280
     0
102
RTVSPost2010PropOp36
 70
     0
102
RTVSPost2010Prop37
 90
       50
102
RTVSPost2010PropOp37
 70
     0
102
RTVSPost2010Prop38
140
0.0
102
RTVSPost2010PropOp38
 70
     0
102
RTVSPost2010Prop39
140
1.0
102
RTVSPost2010PropOp39
 70
     0
102
RTVSPost2010Prop40
 90
        0
102
RTVSPost2010PropOp40
 70
     0
102
RTVSPost2010Prop41ColorIndex
 90
       18
102
RTVSPost2010Prop41ColorRGB
 90
        0
102
RTVSPost2010PropOp41
 70
     0
102
RTVSPost2010Prop42
 90
       50
102
RTVSPost2010PropOp42
 70
     0
102
RTVSPost2010Prop43
 90
        3
102
RTVSPost2010PropOp43
 70
     0
102
RTVSPost2010Prop44ColorIndex
 90
        5
102
RTVSPost2010Prop44ColorRGB
 90
      255
102
RTVSPost2010PropOp44
 70
     0
102
RTVSPost2010Prop45
280
     0
102
RTVSPost2010PropOp45
 70
     0
102
RTVSPost2010Prop46
 90
       50
102
RTVSPost2010PropOp46
 70
     0
102
RTVSPost2010Prop47
 90
       50
102
RTVSPost2010PropOp47
 70
     0
102
RTVSPost2010Prop48
 90
       50
102
RTVSPost2010PropOp48
 70
     0
102
RTVSPost2010Prop49
280
     0
102
RTVSPost2010PropOp49
 70
     0
102
RTVSPost2010Prop50
 90
       50
102
RTVSPost2010PropOp50
 70
     0
102
RTVSPost2010Prop51ColorIndex
 90
      256
102
RTVSPost2010Prop51ColorRGB
 90
-16777216
102
RTVSPost2010PropOp51
 70
     0
102
RTVSPost2010Prop52
140
1.0
102
RTVSPost2010PropOp52
 70
     0
102
RTVSPost2010Prop53
 90
        2
102
RTVSPost2010PropOp53
 70
     0
102
RTVSPost2010Prop54
  1
strokes_ogs.tif
102
RTVSPost2010PropOp54
 70
     0
102
RTVSPost2010Prop55
280
     0
102
RTVSPost2010PropOp55
 70
     0
102
RTVSPost2010Prop56
140
1.0
102
RTVSPost2010PropOp56
 70
     0
102
RTVSPost2010Prop57
140
1.0
102
RTVSPost2010PropOp57
 70
     0
  0
XRECORD
  5
2A8
102
{ACAD_REACTORS
330
2A7
102
}
330
2A7
100
AcDbXrecord
280
     1
102
RTVSPropertyOp0
 70
     1
102
RTVSPropertyOp1
 70
     1
102
RTVSPropertyOp2
 70
     1
102
RTVSPropertyOp3
 70
     1
102
RTVSPropertyOp4
 70
     1
102
RTVSPropertyOp5
 70
     1
102
RTVSPropertyOp6
 70
     1
102
RTVSPropertyOp7
 70
     1
102
RTVSPropertyOp8
 70
     1
102
RTVSPropertyOp9
 70
     1
102
RTVSPropertyOp10
 70
     1
102
RTVSPropertyOp11
 70
     1
102
RTVSPropertyOp12
 70
     1
102
RTVSPropertyOp13
 70
     1
102
RTVSPropertyOp14
 70
     1
102
RTVSPropertyOp15
 70
     1
102
RTVSPropertyOp16
 70
     1
102
RTVSPropertyOp17
 70
     1
102
RTVSPropertyOp18
 70
     1
102
RTVSPropertyOp19
 70
     1
102
RTVSPropertyOp20
 70
     1
102
RTVSPropertyOp21
 70
     1
102
RTVSPropertyOp22
 70
     1
102
RTVSPropertyOp23
 70
     1
102
RTVSPropertyOp24
 70
     1
102
RTVSPropertyOp25
 70
     1
102
RTVSPropertyOp26
 70
     1
102
RTVSPropertyOp27
 70
     1
102
RTVSPropertyOp28
 70
     1
102
RTVSPropertyOp29
 70
     1
102
RTVSPropertyOp30
 70
     1
102
RTVSPropertyOp31
 70
     1
102
RTVSPropertyOp32
 70
     1
102
RTVSPropertyOp33
 70
     1
102
RTVSPropertyOp34
 70
     1
102
RTVSPropertyOp35
 70
     1
102
RTVSPropertyOp36
 70
     1
102
RTVSPropertyOp37
 70
     1
102
RTVSPropertyOp38
 70
     1
102
RTVSPropertyOp39
 70
     1
102
RTVSPropertyOp40
 70
     1
102
RTVSPropertyOp41
 70
     1
102
RTVSPropertyOp42
 70
     1
102
RTVSPropertyOp43
 70
     1
102
RTVSPropertyOp44
 70
     1
102
RTVSPropertyOp45
 70
     1
102
RTVSPropertyOp46
 70
     1
102
RTVSPropertyOp47
 70
     1
102
RTVSPropertyOp48
 70
     1
102
RTVSPropertyOp49
 70
     1
102
RTVSPropertyOp50
 70
     1
102
RTVSPropertyOp51
 70
     0
102
RTVSPropertyOp52
 70
     0
102
RTVSPropertyOp53
 70
     1
102
RTVSPropertyOp54
 70
     1
102
RTVSPropertyOp55
 70
     1
102
RTVSPropertyOp56
 70
     1
102
RTVSPropertyOp57
 70
     1
102
RTVSPost2010Prop28
280
     0
102
RTVSPost2010PropOp28
 70
     1
102
RTVSPost2010Prop29
280
     1
102
RTVSPost2010PropOp29
 70
     1
102
RTVSPost2010Prop30
280
     1
102
RTVSPost2010PropOp30
 70
     1
102
RTVSPost2010Prop31
280
     0
102
RTVSPost2010PropOp31
 70
     1
102
RTVSPost2010Prop32
280
     0
102
RTVSPost2010PropOp32
 70
     1
102
RTVSPost2010Prop33
280
     0
102
RTVSPost2010PropOp33
 70
     1
102
RTVSPost2010Prop34
280
     0
102
RTVSPost2010PropOp34
 70
     1
102
RTVSPost2010Prop35
280
     0
102
RTVSPost2010PropOp35
 70
     1
102
RTVSPost2010Prop36
280
     0
102
RTVSPost2010PropOp36
 70
     1
102
RTVSPost2010Prop37
 90
       50
102
RTVSPost2010PropOp37
 70
     1
102
RTVSPost2010Prop38
140
0.0
102
RTVSPost2010PropOp38
 70
     1
102
RTVSPost2010Prop39
140
1.0
102
RTVSPost2010PropOp39
 70
     1
102
RTVSPost2010Prop40
 90
        0
102
RTVSPost2010PropOp40
 70
     1
102
RTVSPost2010Prop41ColorIndex
 90
       18
102
RTVSPost2010Prop41ColorRGB
 90
        0
102
RTVSPost2010PropOp41
 70
     1
102
RTVSPost2010Prop42
 90
       50
102
RTVSPost2010PropOp42
 70
     1
102
RTVSPost2010Prop43
 90
        3
102
RTVSPost2010PropOp43
 70
     1
102
RTVSPost2010Prop44ColorIndex
 90
        5
102
RTVSPost2010Prop44ColorRGB
 90
      255
102
RTVSPost2010PropOp44
 70
     1
102
RTVSPost2010Prop45
280
     0
102
RTVSPost2010PropOp45
 70
     1
102
RTVSPost2010Prop46
 90
       50
102
RTVSPost2010PropOp46
 70
     1
102
RTVSPost2010Prop47
 90
       50
102
RTVSPost2010PropOp47
 70
     1
102
RTVSPost2010Prop48
 90
       50
102
RTVSPost2010PropOp48
 70
     1
102
RTVSPost2010Prop49
280
     0
102
RTVSPost2010PropOp49
 70
     1
102
RTVSPost2010Prop50
 90
       50
102
RTVSPost2010PropOp50
 70
     1
102
RTVSPost2010Prop51ColorIndex
 90
      256
102
RTVSPost2010Prop51ColorRGB
 90
-16777216
102
RTVSPost2010PropOp51
 70
     0
102
RTVSPost2010Prop52
140
1.0
102
RTVSPost2010PropOp52
 70
     0
102
RTVSPost2010Prop53
 90
        2
102
RTVSPost2010PropOp53
 70
     1
102
RTVSPost2010Prop54
  1
strokes_ogs.tif
102
RTVSPost2010PropOp54
 70
     1
102
RTVSPost2010Prop55
280
     0
102
RTVSPost2010PropOp55
 70
     1
102
RTVSPost2010Prop56
140
1.0
102
RTVSPost2010PropOp56
 70
     1
102
RTVSPost2010Prop57
140
1.0
102
RTVSPost2010PropOp57
 70
     1
  0
XRECORD
  5
28C
102
{ACAD_REACTORS
330
28B
102
}
330
28B
100
AcDbXrecord
280
     1
102
RTVSPropertyOp0
 70
     1
102
RTVSPropertyOp1
 70
     1
102
RTVSPropertyOp2
 70
     1
102
RTVSPropertyOp3
 70
     1
102
RTVSPropertyOp4
 70
     1
102
RTVSPropertyOp5
 70
     1
102
RTVSPropertyOp6
 70
     1
102
RTVSPropertyOp7
 70
     1
102
RTVSPropertyOp8
 70
     1
102
RTVSPropertyOp9
 70
     1
102
RTVSPropertyOp10
 70
     1
102
RTVSPropertyOp11
 70
     1
102
RTVSPropertyOp12
 70
     1
102
RTVSPropertyOp13
 70
     1
102
RTVSPropertyOp14
 70
     1
102
RTVSPropertyOp15
 70
     1
102
RTVSPropertyOp16
 70
     1
102
RTVSPropertyOp17
 70
     1
102
RTVSPropertyOp18
 70
     1
102
RTVSPropertyOp19
 70
     1
102
RTVSPropertyOp20
 70
     1
102
RTVSPropertyOp21
 70
     1
102
RTVSPropertyOp22
 70
     1
102
RTVSPropertyOp23
 70
     1
102
RTVSPropertyOp24
 70
     1
102
RTVSPropertyOp25
 70
     1
102
RTVSPropertyOp26
 70
     1
102
RTVSPropertyOp27
 70
     1
102
RTVSPropertyOp28
 70
     1
102
RTVSPropertyOp29
 70
     1
102
RTVSPropertyOp30
 70
     1
102
RTVSPropertyOp31
 70
     1
102
RTVSPropertyOp32
 70
     1
102
RTVSPropertyOp33
 70
     1
102
RTVSPropertyOp34
 70
     1
102
RTVSPropertyOp35
 70
     1
102
RTVSPropertyOp36
 70
     1
102
RTVSPropertyOp37
 70
     1
102
RTVSPropertyOp38
 70
     1
102
RTVSPropertyOp39
 70
     1
102
RTVSPropertyOp40
 70
     1
102
RTVSPropertyOp41
 70
     1
102
RTVSPropertyOp42
 70
     1
102
RTVSPropertyOp43
 70
     1
102
RTVSPropertyOp44
 70
     1
102
RTVSPropertyOp45
 70
     1
102
RTVSPropertyOp46
 70
     1
102
RTVSPropertyOp47
 70
     1
102
RTVSPropertyOp48
 70
     1
102
RTVSPropertyOp49
 70
     1
102
RTVSPropertyOp50
 70
     1
102
RTVSPropertyOp51
 70
     0
102
RTVSPropertyOp52
 70
     0
102
RTVSPropertyOp53
 70
     1
102
RTVSPropertyOp54
 70
     1
102
RTVSPropertyOp55
 70
     1
102
RTVSPropertyOp56
 70
     1
102
RTVSPropertyOp57
 70
     1
102
RTVSPost2010Prop28
280
     0
102
RTVSPost2010PropOp28
 70
     1
102
RTVSPost2010Prop29
280
     1
102
RTVSPost2010PropOp29
 70
     1
102
RTVSPost2010Prop30
280
     1
102
RTVSPost2010PropOp30
 70
     1
102
RTVSPost2010Prop31
280
     0
102
RTVSPost2010PropOp31
 70
     1
102
RTVSPost2010Prop32
280
     0
102
RTVSPost2010PropOp32
 70
     1
102
RTVSPost2010Prop33
280
     0
102
RTVSPost2010PropOp33
 70
     1
102
RTVSPost2010Prop34
280
     0
102
RTVSPost2010PropOp34
 70
     1
102
RTVSPost2010Prop35
280
     0
102
RTVSPost2010PropOp35
 70
     1
102
RTVSPost2010Prop36
280
     0
102
RTVSPost2010PropOp36
 70
     1
102
RTVSPost2010Prop37
 90
       50
102
RTVSPost2010PropOp37
 70
     1
102
RTVSPost2010Prop38
140
0.0
102
RTVSPost2010PropOp38
 70
     1
102
RTVSPost2010Prop39
140
1.0
102
RTVSPost2010PropOp39
 70
     1
102
RTVSPost2010Prop40
 90
        0
102
RTVSPost2010PropOp40
 70
     1
102
RTVSPost2010Prop41ColorIndex
 90
       18
102
RTVSPost2010Prop41ColorRGB
 90
        0
102
RTVSPost2010PropOp41
 70
     1
102
RTVSPost2010Prop42
 90
       50
102
RTVSPost2010PropOp42
 70
     1
102
RTVSPost2010Prop43
 90
        3
102
RTVSPost2010PropOp43
 70
     1
102
RTVSPost2010Prop44ColorIndex
 90
        5
102
RTVSPost2010Prop44ColorRGB
 90
      255
102
RTVSPost2010PropOp44
 70
     1
102
RTVSPost2010Prop45
280
     0
102
RTVSPost2010PropOp45
 70
     1
102
RTVSPost2010Prop46
 90
       50
102
RTVSPost2010PropOp46
 70
     1
102
RTVSPost2010Prop47
 90
       50
102
RTVSPost2010PropOp47
 70
     1
102
RTVSPost2010Prop48
 90
       50
102
RTVSPost2010PropOp48
 70
     1
102
RTVSPost2010Prop49
280
     0
102
RTVSPost2010PropOp49
 70
     1
102
RTVSPost2010Prop50
 90
       50
102
RTVSPost2010PropOp50
 70
     1
102
RTVSPost2010Prop51ColorIndex
 90
      256
102
RTVSPost2010Prop51ColorRGB
 90
-16777216
102
RTVSPost2010PropOp51
 70
     0
102
RTVSPost2010Prop52
140
1.0
102
RTVSPost2010PropOp52
 70
     0
102
RTVSPost2010Prop53
 90
        2
102
RTVSPost2010PropOp53
 70
     1
102
RTVSPost2010Prop54
  1
strokes_ogs.tif
102
RTVSPost2010PropOp54
 70
     1
102
RTVSPost2010Prop55
280
     0
102
RTVSPost2010PropOp55
 70
     1
102
RTVSPost2010Prop56
140
1.0
102
RTVSPost2010PropOp56
 70
     1
102
RTVSPost2010Prop57
140
1.0
102
RTVSPost2010PropOp57
 70
     1
  0
XRECORD
  5
28E
102
{ACAD_REACTORS
330
28D
102
}
330
28D
100
AcDbXrecord
280
     1
102
RTVSPropertyOp0
 70
     1
102
RTVSPropertyOp1
 70
     1
102
RTVSPropertyOp2
 70
     1
102
RTVSPropertyOp3
 70
     1
102
RTVSPropertyOp4
 70
     1
102
RTVSPropertyOp5
 70
     1
102
RTVSPropertyOp6
 70
     1
102
RTVSPropertyOp7
 70
     1
102
RTVSPropertyOp8
 70
     1
102
RTVSPropertyOp9
 70
     1
102
RTVSPropertyOp10
 70
     1
102
RTVSPropertyOp11
 70
     1
102
RTVSPropertyOp12
 70
     1
102
RTVSPropertyOp13
 70
     1
102
RTVSPropertyOp14
 70
     1
102
RTVSPropertyOp15
 70
     1
102
RTVSPropertyOp16
 70
     1
102
RTVSPropertyOp17
 70
     1
102
RTVSPropertyOp18
 70
     1
102
RTVSPropertyOp19
 70
     1
102
RTVSPropertyOp20
 70
     1
102
RTVSPropertyOp21
 70
     1
102
RTVSPropertyOp22
 70
     1
102
RTVSPropertyOp23
 70
     1
102
RTVSPropertyOp24
 70
     1
102
RTVSPropertyOp25
 70
     1
102
RTVSPropertyOp26
 70
     1
102
RTVSPropertyOp27
 70
     1
102
RTVSPropertyOp28
 70
     1
102
RTVSPropertyOp29
 70
     1
102
RTVSPropertyOp30
 70
     1
102
RTVSPropertyOp31
 70
     1
102
RTVSPropertyOp32
 70
     1
102
RTVSPropertyOp33
 70
     1
102
RTVSPropertyOp34
 70
     1
102
RTVSPropertyOp35
 70
     1
102
RTVSPropertyOp36
 70
     1
102
RTVSPropertyOp37
 70
     1
102
RTVSPropertyOp38
 70
     1
102
RTVSPropertyOp39
 70
     1
102
RTVSPropertyOp40
 70
     1
102
RTVSPropertyOp41
 70
     1
102
RTVSPropertyOp42
 70
     1
102
RTVSPropertyOp43
 70
     1
102
RTVSPropertyOp44
 70
     1
102
RTVSPropertyOp45
 70
     1
102
RTVSPropertyOp46
 70
     1
102
RTVSPropertyOp47
 70
     1
102
RTVSPropertyOp48
 70
     1
102
RTVSPropertyOp49
 70
     1
102
RTVSPropertyOp50
 70
     1
102
RTVSPropertyOp51
 70
     0
102
RTVSPropertyOp52
 70
     0
102
RTVSPropertyOp53
 70
     1
102
RTVSPropertyOp54
 70
     1
102
RTVSPropertyOp55
 70
     1
102
RTVSPropertyOp56
 70
     1
102
RTVSPropertyOp57
 70
     1
102
RTVSPost2010Prop28
280
     0
102
RTVSPost2010PropOp28
 70
     1
102
RTVSPost2010Prop29
280
     1
102
RTVSPost2010PropOp29
 70
     1
102
RTVSPost2010Prop30
280
     1
102
RTVSPost2010PropOp30
 70
     1
102
RTVSPost2010Prop31
280
     0
102
RTVSPost2010PropOp31
 70
     1
102
RTVSPost2010Prop32
280
     0
102
RTVSPost2010PropOp32
 70
     1
102
RTVSPost2010Prop33
280
     0
102
RTVSPost2010PropOp33
 70
     1
102
RTVSPost2010Prop34
280
     0
102
RTVSPost2010PropOp34
 70
     1
102
RTVSPost2010Prop35
280
     0
102
RTVSPost2010PropOp35
 70
     1
102
RTVSPost2010Prop36
280
     0
102
RTVSPost2010PropOp36
 70
     1
102
RTVSPost2010Prop37
 90
       50
102
RTVSPost2010PropOp37
 70
     1
102
RTVSPost2010Prop38
140
0.0
102
RTVSPost2010PropOp38
 70
     1
102
RTVSPost2010Prop39
140
1.0
102
RTVSPost2010PropOp39
 70
     1
102
RTVSPost2010Prop40
 90
        0
102
RTVSPost2010PropOp40
 70
     1
102
RTVSPost2010Prop41ColorIndex
 90
       18
102
RTVSPost2010Prop41ColorRGB
 90
        0
102
RTVSPost2010PropOp41
 70
     1
102
RTVSPost2010Prop42
 90
       50
102
RTVSPost2010PropOp42
 70
     1
102
RTVSPost2010Prop43
 90
        3
102
RTVSPost2010PropOp43
 70
     1
102
RTVSPost2010Prop44ColorIndex
 90
        5
102
RTVSPost2010Prop44ColorRGB
 90
      255
102
RTVSPost2010PropOp44
 70
     1
102
RTVSPost2010Prop45
280
     0
102
RTVSPost2010PropOp45
 70
     1
102
RTVSPost2010Prop46
 90
       50
102
RTVSPost2010PropOp46
 70
     1
102
RTVSPost2010Prop47
 90
       50
102
RTVSPost2010PropOp47
 70
     1
102
RTVSPost2010Prop48
 90
       50
102
RTVSPost2010PropOp48
 70
     1
102
RTVSPost2010Prop49
280
     0
102
RTVSPost2010PropOp49
 70
     1
102
RTVSPost2010Prop50
 90
       50
102
RTVSPost2010PropOp50
 70
     1
102
RTVSPost2010Prop51ColorIndex
 90
      256
102
RTVSPost2010Prop51ColorRGB
 90
-16777216
102
RTVSPost2010PropOp51
 70
     0
102
RTVSPost2010Prop52
140
1.0
102
RTVSPost2010PropOp52
 70
     0
102
RTVSPost2010Prop53
 90
        2
102
RTVSPost2010PropOp53
 70
     1
102
RTVSPost2010Prop54
  1
strokes_ogs.tif
102
RTVSPost2010PropOp54
 70
     1
102
RTVSPost2010Prop55
280
     0
102
RTVSPost2010PropOp55
 70
     1
102
RTVSPost2010Prop56
140
1.0
102
RTVSPost2010PropOp56
 70
     1
102
RTVSPost2010Prop57
140
1.0
102
RTVSPost2010PropOp57
 70
     1
  0
XRECORD
  5
290
102
{ACAD_REACTORS
330
28F
102
}
330
28F
100
AcDbXrecord
280
     1
102
RTVSPropertyOp0
 70
     1
102
RTVSPropertyOp1
 70
     1
102
RTVSPropertyOp2
 70
     1
102
RTVSPropertyOp3
 70
     1
102
RTVSPropertyOp4
 70
     1
102
RTVSPropertyOp5
 70
     1
102
RTVSPropertyOp6
 70
     1
102
RTVSPropertyOp7
 70
     1
102
RTVSPropertyOp8
 70
     1
102
RTVSPropertyOp9
 70
     1
102
RTVSPropertyOp10
 70
     1
102
RTVSPropertyOp11
 70
     1
102
RTVSPropertyOp12
 70
     1
102
RTVSPropertyOp13
 70
     1
102
RTVSPropertyOp14
 70
     1
102
RTVSPropertyOp15
 70
     1
102
RTVSPropertyOp16
 70
     1
102
RTVSPropertyOp17
 70
     1
102
RTVSPropertyOp18
 70
     1
102
RTVSPropertyOp19
 70
     1
102
RTVSPropertyOp20
 70
     1
102
RTVSPropertyOp21
 70
     1
102
RTVSPropertyOp22
 70
     1
102
RTVSPropertyOp23
 70
     1
102
RTVSPropertyOp24
 70
     1
102
RTVSPropertyOp25
 70
     1
102
RTVSPropertyOp26
 70
     1
102
RTVSPropertyOp27
 70
     1
102
RTVSPropertyOp28
 70
     1
102
RTVSPropertyOp29
 70
     1
102
RTVSPropertyOp30
 70
     1
102
RTVSPropertyOp31
 70
     1
102
RTVSPropertyOp32
 70
     1
102
RTVSPropertyOp33
 70
     1
102
RTVSPropertyOp34
 70
     1
102
RTVSPropertyOp35
 70
     1
102
RTVSPropertyOp36
 70
     1
102
RTVSPropertyOp37
 70
     1
102
RTVSPropertyOp38
 70
     1
102
RTVSPropertyOp39
 70
     1
102
RTVSPropertyOp40
 70
     1
102
RTVSPropertyOp41
 70
     1
102
RTVSPropertyOp42
 70
     1
102
RTVSPropertyOp43
 70
     1
102
RTVSPropertyOp44
 70
     1
102
RTVSPropertyOp45
 70
     1
102
RTVSPropertyOp46
 70
     1
102
RTVSPropertyOp47
 70
     1
102
RTVSPropertyOp48
 70
     1
102
RTVSPropertyOp49
 70
     1
102
RTVSPropertyOp50
 70
     1
102
RTVSPropertyOp51
 70
     0
102
RTVSPropertyOp52
 70
     0
102
RTVSPropertyOp53
 70
     1
102
RTVSPropertyOp54
 70
     1
102
RTVSPropertyOp55
 70
     1
102
RTVSPropertyOp56
 70
     1
102
RTVSPropertyOp57
 70
     1
102
RTVSPost2010Prop28
280
     0
102
RTVSPost2010PropOp28
 70
     1
102
RTVSPost2010Prop29
280
     1
102
RTVSPost2010PropOp29
 70
     1
102
RTVSPost2010Prop30
280
     1
102
RTVSPost2010PropOp30
 70
     1
102
RTVSPost2010Prop31
280
     0
102
RTVSPost2010PropOp31
 70
     1
102
RTVSPost2010Prop32
280
     0
102
RTVSPost2010PropOp32
 70
     1
102
RTVSPost2010Prop33
280
     0
102
RTVSPost2010PropOp33
 70
     1
102
RTVSPost2010Prop34
280
     0
102
RTVSPost2010PropOp34
 70
     1
102
RTVSPost2010Prop35
280
     0
102
RTVSPost2010PropOp35
 70
     1
102
RTVSPost2010Prop36
280
     0
102
RTVSPost2010PropOp36
 70
     1
102
RTVSPost2010Prop37
 90
       50
102
RTVSPost2010PropOp37
 70
     1
102
RTVSPost2010Prop38
140
0.0
102
RTVSPost2010PropOp38
 70
     1
102
RTVSPost2010Prop39
140
1.0
102
RTVSPost2010PropOp39
 70
     1
102
RTVSPost2010Prop40
 90
        0
102
RTVSPost2010PropOp40
 70
     1
102
RTVSPost2010Prop41ColorIndex
 90
       18
102
RTVSPost2010Prop41ColorRGB
 90
        0
102
RTVSPost2010PropOp41
 70
     1
102
RTVSPost2010Prop42
 90
       50
102
RTVSPost2010PropOp42
 70
     1
102
RTVSPost2010Prop43
 90
        3
102
RTVSPost2010PropOp43
 70
     1
102
RTVSPost2010Prop44ColorIndex
 90
        5
102
RTVSPost2010Prop44ColorRGB
 90
      255
102
RTVSPost2010PropOp44
 70
     1
102
RTVSPost2010Prop45
280
     0
102
RTVSPost2010PropOp45
 70
     1
102
RTVSPost2010Prop46
 90
       50
102
RTVSPost2010PropOp46
 70
     1
102
RTVSPost2010Prop47
 90
       50
102
RTVSPost2010PropOp47
 70
     1
102
RTVSPost2010Prop48
 90
       50
102
RTVSPost2010PropOp48
 70
     1
102
RTVSPost2010Prop49
280
     0
102
RTVSPost2010PropOp49
 70
     1
102
RTVSPost2010Prop50
 90
       50
102
RTVSPost2010PropOp50
 70
     1
102
RTVSPost2010Prop51ColorIndex
 90
      256
102
RTVSPost2010Prop51ColorRGB
 90
-16777216
102
RTVSPost2010PropOp51
 70
     0
102
RTVSPost2010Prop52
140
1.0
102
RTVSPost2010PropOp52
 70
     0
102
RTVSPost2010Prop53
 90
        2
102
RTVSPost2010PropOp53
 70
     1
102
RTVSPost2010Prop54
  1
strokes_ogs.tif
102
RTVSPost2010PropOp54
 70
     1
102
RTVSPost2010Prop55
280
     0
102
RTVSPost2010PropOp55
 70
     1
102
RTVSPost2010Prop56
140
1.0
102
RTVSPost2010PropOp56
 70
     1
102
RTVSPost2010Prop57
140
1.0
102
RTVSPost2010PropOp57
 70
     1
  0
XRECORD
  5
292
102
{ACAD_REACTORS
330
291
102
}
330
291
100
AcDbXrecord
280
     1
102
RTVSPropertyOp0
 70
     1
102
RTVSPropertyOp1
 70
     1
102
RTVSPropertyOp2
 70
     1
102
RTVSPropertyOp3
 70
     1
102
RTVSPropertyOp4
 70
     1
102
RTVSPropertyOp5
 70
     1
102
RTVSPropertyOp6
 70
     1
102
RTVSPropertyOp7
 70
     1
102
RTVSPropertyOp8
 70
     1
102
RTVSPropertyOp9
 70
     1
102
RTVSPropertyOp10
 70
     1
102
RTVSPropertyOp11
 70
     1
102
RTVSPropertyOp12
 70
     1
102
RTVSPropertyOp13
 70
     1
102
RTVSPropertyOp14
 70
     1
102
RTVSPropertyOp15
 70
     1
102
RTVSPropertyOp16
 70
     1
102
RTVSPropertyOp17
 70
     1
102
RTVSPropertyOp18
 70
     1
102
RTVSPropertyOp19
 70
     1
102
RTVSPropertyOp20
 70
     1
102
RTVSPropertyOp21
 70
     1
102
RTVSPropertyOp22
 70
     1
102
RTVSPropertyOp23
 70
     1
102
RTVSPropertyOp24
 70
     1
102
RTVSPropertyOp25
 70
     1
102
RTVSPropertyOp26
 70
     1
102
RTVSPropertyOp27
 70
     1
102
RTVSPropertyOp28
 70
     1
102
RTVSPropertyOp29
 70
     1
102
RTVSPropertyOp30
 70
     1
102
RTVSPropertyOp31
 70
     1
102
RTVSPropertyOp32
 70
     1
102
RTVSPropertyOp33
 70
     1
102
RTVSPropertyOp34
 70
     1
102
RTVSPropertyOp35
 70
     1
102
RTVSPropertyOp36
 70
     1
102
RTVSPropertyOp37
 70
     1
102
RTVSPropertyOp38
 70
     1
102
RTVSPropertyOp39
 70
     1
102
RTVSPropertyOp40
 70
     1
102
RTVSPropertyOp41
 70
     1
102
RTVSPropertyOp42
 70
     1
102
RTVSPropertyOp43
 70
     1
102
RTVSPropertyOp44
 70
     1
102
RTVSPropertyOp45
 70
     1
102
RTVSPropertyOp46
 70
     1
102
RTVSPropertyOp47
 70
     1
102
RTVSPropertyOp48
 70
     1
102
RTVSPropertyOp49
 70
     1
102
RTVSPropertyOp50
 70
     1
102
RTVSPropertyOp51
 70
     0
102
RTVSPropertyOp52
 70
     0
102
RTVSPropertyOp53
 70
     1
102
RTVSPropertyOp54
 70
     1
102
RTVSPropertyOp55
 70
     1
102
RTVSPropertyOp56
 70
     1
102
RTVSPropertyOp57
 70
     1
102
RTVSPost2010Prop28
280
     0
102
RTVSPost2010PropOp28
 70
     1
102
RTVSPost2010Prop29
280
     1
102
RTVSPost2010PropOp29
 70
     1
102
RTVSPost2010Prop30
280
     1
102
RTVSPost2010PropOp30
 70
     1
102
RTVSPost2010Prop31
280
     0
102
RTVSPost2010PropOp31
 70
     1
102
RTVSPost2010Prop32
280
     0
102
RTVSPost2010PropOp32
 70
     1
102
RTVSPost2010Prop33
280
     0
102
RTVSPost2010PropOp33
 70
     1
102
RTVSPost2010Prop34
280
     0
102
RTVSPost2010PropOp34
 70
     1
102
RTVSPost2010Prop35
280
     0
102
RTVSPost2010PropOp35
 70
     1
102
RTVSPost2010Prop36
280
     0
102
RTVSPost2010PropOp36
 70
     1
102
RTVSPost2010Prop37
 90
       50
102
RTVSPost2010PropOp37
 70
     1
102
RTVSPost2010Prop38
140
0.0
102
RTVSPost2010PropOp38
 70
     1
102
RTVSPost2010Prop39
140
1.0
102
RTVSPost2010PropOp39
 70
     1
102
RTVSPost2010Prop40
 90
        0
102
RTVSPost2010PropOp40
 70
     1
102
RTVSPost2010Prop41ColorIndex
 90
       18
102
RTVSPost2010Prop41ColorRGB
 90
        0
102
RTVSPost2010PropOp41
 70
     1
102
RTVSPost2010Prop42
 90
       50
102
RTVSPost2010PropOp42
 70
     1
102
RTVSPost2010Prop43
 90
        3
102
RTVSPost2010PropOp43
 70
     1
102
RTVSPost2010Prop44ColorIndex
 90
        5
102
RTVSPost2010Prop44ColorRGB
 90
      255
102
RTVSPost2010PropOp44
 70
     1
102
RTVSPost2010Prop45
280
     0
102
RTVSPost2010PropOp45
 70
     1
102
RTVSPost2010Prop46
 90
       50
102
RTVSPost2010PropOp46
 70
     1
102
RTVSPost2010Prop47
 90
       50
102
RTVSPost2010PropOp47
 70
     1
102
RTVSPost2010Prop48
 90
       50
102
RTVSPost2010PropOp48
 70
     1
102
RTVSPost2010Prop49
280
     0
102
RTVSPost2010PropOp49
 70
     1
102
RTVSPost2010Prop50
 90
       50
102
RTVSPost2010PropOp50
 70
     1
102
RTVSPost2010Prop51ColorIndex
 90
      256
102
RTVSPost2010Prop51ColorRGB
 90
-16777216
102
RTVSPost2010PropOp51
 70
     0
102
RTVSPost2010Prop52
140
1.0
102
RTVSPost2010PropOp52
 70
     0
102
RTVSPost2010Prop53
 90
        2
102
RTVSPost2010PropOp53
 70
     1
102
RTVSPost2010Prop54
  1
strokes_ogs.tif
102
RTVSPost2010PropOp54
 70
     1
102
RTVSPost2010Prop55
280
     0
102
RTVSPost2010PropOp55
 70
     1
102
RTVSPost2010Prop56
140
1.0
102
RTVSPost2010PropOp56
 70
     1
102
RTVSPost2010Prop57
140
1.0
102
RTVSPost2010PropOp57
 70
     1
  0
XRECORD
  5
298
102
{ACAD_REACTORS
330
297
102
}
330
297
100
AcDbXrecord
280
     1
102
RTVSPropertyOp0
 70
     1
102
RTVSPropertyOp1
 70
     1
102
RTVSPropertyOp2
 70
     1
102
RTVSPropertyOp3
 70
     1
102
RTVSPropertyOp4
 70
     1
102
RTVSPropertyOp5
 70
     1
102
RTVSPropertyOp6
 70
     1
102
RTVSPropertyOp7
 70
     1
102
RTVSPropertyOp8
 70
     1
102
RTVSPropertyOp9
 70
     1
102
RTVSPropertyOp10
 70
     1
102
RTVSPropertyOp11
 70
     1
102
RTVSPropertyOp12
 70
     1
102
RTVSPropertyOp13
 70
     1
102
RTVSPropertyOp14
 70
     1
102
RTVSPropertyOp15
 70
     1
102
RTVSPropertyOp16
 70
     1
102
RTVSPropertyOp17
 70
     1
102
RTVSPropertyOp18
 70
     1
102
RTVSPropertyOp19
 70
     1
102
RTVSPropertyOp20
 70
     1
102
RTVSPropertyOp21
 70
     1
102
RTVSPropertyOp22
 70
     1
102
RTVSPropertyOp23
 70
     1
102
RTVSPropertyOp24
 70
     1
102
RTVSPropertyOp25
 70
     1
102
RTVSPropertyOp26
 70
     1
102
RTVSPropertyOp27
 70
     1
102
RTVSPropertyOp28
 70
     1
102
RTVSPropertyOp29
 70
     1
102
RTVSPropertyOp30
 70
     1
102
RTVSPropertyOp31
 70
     1
102
RTVSPropertyOp32
 70
     1
102
RTVSPropertyOp33
 70
     1
102
RTVSPropertyOp34
 70
     1
102
RTVSPropertyOp35
 70
     1
102
RTVSPropertyOp36
 70
     1
102
RTVSPropertyOp37
 70
     1
102
RTVSPropertyOp38
 70
     1
102
RTVSPropertyOp39
 70
     1
102
RTVSPropertyOp40
 70
     1
102
RTVSPropertyOp41
 70
     1
102
RTVSPropertyOp42
 70
     1
102
RTVSPropertyOp43
 70
     1
102
RTVSPropertyOp44
 70
     1
102
RTVSPropertyOp45
 70
     1
102
RTVSPropertyOp46
 70
     1
102
RTVSPropertyOp47
 70
     1
102
RTVSPropertyOp48
 70
     1
102
RTVSPropertyOp49
 70
     1
102
RTVSPropertyOp50
 70
     1
102
RTVSPropertyOp51
 70
     0
102
RTVSPropertyOp52
 70
     0
102
RTVSPropertyOp53
 70
     1
102
RTVSPropertyOp54
 70
     1
102
RTVSPropertyOp55
 70
     1
102
RTVSPropertyOp56
 70
     1
102
RTVSPropertyOp57
 70
     1
102
RTVSPost2010Prop28
280
     0
102
RTVSPost2010PropOp28
 70
     1
102
RTVSPost2010Prop29
280
     1
102
RTVSPost2010PropOp29
 70
     1
102
RTVSPost2010Prop30
280
     1
102
RTVSPost2010PropOp30
 70
     1
102
RTVSPost2010Prop31
280
     0
102
RTVSPost2010PropOp31
 70
     1
102
RTVSPost2010Prop32
280
     0
102
RTVSPost2010PropOp32
 70
     1
102
RTVSPost2010Prop33
280
     0
102
RTVSPost2010PropOp33
 70
     1
102
RTVSPost2010Prop34
280
     0
102
RTVSPost2010PropOp34
 70
     1
102
RTVSPost2010Prop35
280
     0
102
RTVSPost2010PropOp35
 70
     1
102
RTVSPost2010Prop36
280
     0
102
RTVSPost2010PropOp36
 70
     1
102
RTVSPost2010Prop37
 90
       50
102
RTVSPost2010PropOp37
 70
     1
102
RTVSPost2010Prop38
140
0.0
102
RTVSPost2010PropOp38
 70
     1
102
RTVSPost2010Prop39
140
1.0
102
RTVSPost2010PropOp39
 70
     1
102
RTVSPost2010Prop40
 90
        0
102
RTVSPost2010PropOp40
 70
     1
102
RTVSPost2010Prop41ColorIndex
 90
       18
102
RTVSPost2010Prop41ColorRGB
 90
        0
102
RTVSPost2010PropOp41
 70
     1
102
RTVSPost2010Prop42
 90
       50
102
RTVSPost2010PropOp42
 70
     1
102
RTVSPost2010Prop43
 90
        3
102
RTVSPost2010PropOp43
 70
     1
102
RTVSPost2010Prop44ColorIndex
 90
        5
102
RTVSPost2010Prop44ColorRGB
 90
      255
102
RTVSPost2010PropOp44
 70
     1
102
RTVSPost2010Prop45
280
     0
102
RTVSPost2010PropOp45
 70
     1
102
RTVSPost2010Prop46
 90
       50
102
RTVSPost2010PropOp46
 70
     1
102
RTVSPost2010Prop47
 90
       50
102
RTVSPost2010PropOp47
 70
     1
102
RTVSPost2010Prop48
 90
       50
102
RTVSPost2010PropOp48
 70
     1
102
RTVSPost2010Prop49
280
     0
102
RTVSPost2010PropOp49
 70
     1
102
RTVSPost2010Prop50
 90
       50
102
RTVSPost2010PropOp50
 70
     1
102
RTVSPost2010Prop51ColorIndex
 90
      256
102
RTVSPost2010Prop51ColorRGB
 90
-16777216
102
RTVSPost2010PropOp51
 70
     0
102
RTVSPost2010Prop52
140
1.0
102
RTVSPost2010PropOp52
 70
     0
102
RTVSPost2010Prop53
 90
        2
102
RTVSPost2010PropOp53
 70
     1
102
RTVSPost2010Prop54
  1
strokes_ogs.tif
102
RTVSPost2010PropOp54
 70
     1
102
RTVSPost2010Prop55
280
     0
102
RTVSPost2010PropOp55
 70
     1
102
RTVSPost2010Prop56
140
1.0
102
RTVSPost2010PropOp56
 70
     1
102
RTVSPost2010Prop57
140
1.0
102
RTVSPost2010PropOp57
 70
     1
  0
XRECORD
  5
2AC
102
{ACAD_REACTORS
330
2AB
102
}
330
2AB
100
AcDbXrecord
280
     1
102
RTVSPropertyOp0
 70
     0
102
RTVSPropertyOp1
 70
     0
102
RTVSPropertyOp2
 70
     0
102
RTVSPropertyOp3
 70
     0
102
RTVSPropertyOp4
 70
     0
102
RTVSPropertyOp5
 70
     0
102
RTVSPropertyOp6
 70
     0
102
RTVSPropertyOp7
 70
     0
102
RTVSPropertyOp8
 70
     0
102
RTVSPropertyOp9
 70
     0
102
RTVSPropertyOp10
 70
     0
102
RTVSPropertyOp11
 70
     0
102
RTVSPropertyOp12
 70
     0
102
RTVSPropertyOp13
 70
     0
102
RTVSPropertyOp14
 70
     2
102
RTVSPropertyOp15
 70
     0
102
RTVSPropertyOp16
 70
     0
102
RTVSPropertyOp17
 70
     0
102
RTVSPropertyOp18
 70
     0
102
RTVSPropertyOp19
 70
     0
102
RTVSPropertyOp20
 70
     0
102
RTVSPropertyOp21
 70
     0
102
RTVSPropertyOp22
 70
     0
102
RTVSPropertyOp23
 70
     0
102
RTVSPropertyOp24
 70
     0
102
RTVSPropertyOp25
 70
     0
102
RTVSPropertyOp26
 70
     0
102
RTVSPropertyOp27
 70
     0
102
RTVSPropertyOp28
 70
     0
102
RTVSPropertyOp29
 70
     0
102
RTVSPropertyOp30
 70
     0
102
RTVSPropertyOp31
 70
     0
102
RTVSPropertyOp32
 70
     0
102
RTVSPropertyOp33
 70
     0
102
RTVSPropertyOp34
 70
     0
102
RTVSPropertyOp35
 70
     0
102
RTVSPropertyOp36
 70
     0
102
RTVSPropertyOp37
 70
     0
102
RTVSPropertyOp38
 70
     0
102
RTVSPropertyOp39
 70
     0
102
RTVSPropertyOp40
 70
     0
102
RTVSPropertyOp41
 70
     0
102
RTVSPropertyOp42
 70
     0
102
RTVSPropertyOp43
 70
     0
102
RTVSPropertyOp44
 70
     0
102
RTVSPropertyOp45
 70
     0
102
RTVSPropertyOp46
 70
     0
102
RTVSPropertyOp47
 70
     0
102
RTVSPropertyOp48
 70
     0
102
RTVSPropertyOp49
 70
     0
102
RTVSPropertyOp50
 70
     0
102
RTVSPropertyOp51
 70
     0
102
RTVSPropertyOp52
 70
     0
102
RTVSPropertyOp53
 70
     0
102
RTVSPropertyOp54
 70
     0
102
RTVSPropertyOp55
 70
     0
102
RTVSPropertyOp56
 70
     0
102
RTVSPropertyOp57
 70
     0
102
RTVSPost2010Prop28
280
     0
102
RTVSPost2010PropOp28
 70
     0
102
RTVSPost2010Prop29
280
     1
102
RTVSPost2010PropOp29
 70
     0
102
RTVSPost2010Prop30
280
     1
102
RTVSPost2010PropOp30
 70
     0
102
RTVSPost2010Prop31
280
     0
102
RTVSPost2010PropOp31
 70
     0
102
RTVSPost2010Prop32
280
     0
102
RTVSPost2010PropOp32
 70
     0
102
RTVSPost2010Prop33
280
     0
102
RTVSPost2010PropOp33
 70
     0
102
RTVSPost2010Prop34
280
     0
102
RTVSPost2010PropOp34
 70
     0
102
RTVSPost2010Prop35
280
     0
102
RTVSPost2010PropOp35
 70
     0
102
RTVSPost2010Prop36
280
     0
102
RTVSPost2010PropOp36
 70
     0
102
RTVSPost2010Prop37
 90
       50
102
RTVSPost2010PropOp37
 70
     0
102
RTVSPost2010Prop38
140
0.0
102
RTVSPost2010PropOp38
 70
     0
102
RTVSPost2010Prop39
140
1.0
102
RTVSPost2010PropOp39
 70
     0
102
RTVSPost2010Prop40
 90
        0
102
RTVSPost2010PropOp40
 70
     0
102
RTVSPost2010Prop41ColorIndex
 90
       18
102
RTVSPost2010Prop41ColorRGB
 90
        0
102
RTVSPost2010PropOp41
 70
     0
102
RTVSPost2010Prop42
 90
       50
102
RTVSPost2010PropOp42
 70
     0
102
RTVSPost2010Prop43
 90
        3
102
RTVSPost2010PropOp43
 70
     0
102
RTVSPost2010Prop44ColorIndex
 90
        5
102
RTVSPost2010Prop44ColorRGB
 90
      255
102
RTVSPost2010PropOp44
 70
     0
102
RTVSPost2010Prop45
280
     0
102
RTVSPost2010PropOp45
 70
     0
102
RTVSPost2010Prop46
 90
       50
102
RTVSPost2010PropOp46
 70
     0
102
RTVSPost2010Prop47
 90
       50
102
RTVSPost2010PropOp47
 70
     0
102
RTVSPost2010Prop48
 90
       50
102
RTVSPost2010PropOp48
 70
     0
102
RTVSPost2010Prop49
280
     0
102
RTVSPost2010PropOp49
 70
     0
102
RTVSPost2010Prop50
 90
       50
102
RTVSPost2010PropOp50
 70
     0
102
RTVSPost2010Prop51ColorIndex
 90
      256
102
RTVSPost2010Prop51ColorRGB
 90
-16777216
102
RTVSPost2010PropOp51
 70
     0
102
RTVSPost2010Prop52
140
1.0
102
RTVSPost2010PropOp52
 70
     0
102
RTVSPost2010Prop53
 90
        2
102
RTVSPost2010PropOp53
 70
     0
102
RTVSPost2010Prop54
  1
strokes_ogs.tif
102
RTVSPost2010PropOp54
 70
     0
102
RTVSPost2010Prop55
280
     0
102
RTVSPost2010PropOp55
 70
     0
102
RTVSPost2010Prop56
140
1.0
102
RTVSPost2010PropOp56
 70
     0
102
RTVSPost2010Prop57
140
1.0
102
RTVSPost2010PropOp57
 70
     0
  0
XRECORD
  5
2A6
102
{ACAD_REACTORS
330
2A5
102
}
330
2A5
100
AcDbXrecord
280
     1
102
RTVSPropertyOp0
 70
     1
102
RTVSPropertyOp1
 70
     1
102
RTVSPropertyOp2
 70
     1
102
RTVSPropertyOp3
 70
     1
102
RTVSPropertyOp4
 70
     1
102
RTVSPropertyOp5
 70
     1
102
RTVSPropertyOp6
 70
     1
102
RTVSPropertyOp7
 70
     1
102
RTVSPropertyOp8
 70
     1
102
RTVSPropertyOp9
 70
     1
102
RTVSPropertyOp10
 70
     1
102
RTVSPropertyOp11
 70
     1
102
RTVSPropertyOp12
 70
     1
102
RTVSPropertyOp13
 70
     1
102
RTVSPropertyOp14
 70
     1
102
RTVSPropertyOp15
 70
     1
102
RTVSPropertyOp16
 70
     1
102
RTVSPropertyOp17
 70
     1
102
RTVSPropertyOp18
 70
     1
102
RTVSPropertyOp19
 70
     1
102
RTVSPropertyOp20
 70
     1
102
RTVSPropertyOp21
 70
     1
102
RTVSPropertyOp22
 70
     1
102
RTVSPropertyOp23
 70
     1
102
RTVSPropertyOp24
 70
     1
102
RTVSPropertyOp25
 70
     1
102
RTVSPropertyOp26
 70
     1
102
RTVSPropertyOp27
 70
     1
102
RTVSPropertyOp28
 70
     1
102
RTVSPropertyOp29
 70
     1
102
RTVSPropertyOp30
 70
     1
102
RTVSPropertyOp31
 70
     1
102
RTVSPropertyOp32
 70
     1
102
RTVSPropertyOp33
 70
     1
102
RTVSPropertyOp34
 70
     1
102
RTVSPropertyOp35
 70
     1
102
RTVSPropertyOp36
 70
     1
102
RTVSPropertyOp37
 70
     1
102
RTVSPropertyOp38
 70
     1
102
RTVSPropertyOp39
 70
     1
102
RTVSPropertyOp40
 70
     1
102
RTVSPropertyOp41
 70
     1
102
RTVSPropertyOp42
 70
     1
102
RTVSPropertyOp43
 70
     1
102
RTVSPropertyOp44
 70
     1
102
RTVSPropertyOp45
 70
     1
102
RTVSPropertyOp46
 70
     1
102
RTVSPropertyOp47
 70
     1
102
RTVSPropertyOp48
 70
     1
102
RTVSPropertyOp49
 70
     1
102
RTVSPropertyOp50
 70
     1
102
RTVSPropertyOp51
 70
     0
102
RTVSPropertyOp52
 70
     0
102
RTVSPropertyOp53
 70
     1
102
RTVSPropertyOp54
 70
     1
102
RTVSPropertyOp55
 70
     1
102
RTVSPropertyOp56
 70
     1
102
RTVSPropertyOp57
 70
     1
102
RTVSPost2010Prop28
280
     0
102
RTVSPost2010PropOp28
 70
     1
102
RTVSPost2010Prop29
280
     1
102
RTVSPost2010PropOp29
 70
     1
102
RTVSPost2010Prop30
280
     1
102
RTVSPost2010PropOp30
 70
     1
102
RTVSPost2010Prop31
280
     0
102
RTVSPost2010PropOp31
 70
     1
102
RTVSPost2010Prop32
280
     0
102
RTVSPost2010PropOp32
 70
     1
102
RTVSPost2010Prop33
280
     0
102
RTVSPost2010PropOp33
 70
     1
102
RTVSPost2010Prop34
280
     0
102
RTVSPost2010PropOp34
 70
     1
102
RTVSPost2010Prop35
280
     0
102
RTVSPost2010PropOp35
 70
     1
102
RTVSPost2010Prop36
280
     0
102
RTVSPost2010PropOp36
 70
     1
102
RTVSPost2010Prop37
 90
       50
102
RTVSPost2010PropOp37
 70
     1
102
RTVSPost2010Prop38
140
0.0
102
RTVSPost2010PropOp38
 70
     1
102
RTVSPost2010Prop39
140
1.0
102
RTVSPost2010PropOp39
 70
     1
102
RTVSPost2010Prop40
 90
        0
102
RTVSPost2010PropOp40
 70
     1
102
RTVSPost2010Prop41ColorIndex
 90
       18
102
RTVSPost2010Prop41ColorRGB
 90
        0
102
RTVSPost2010PropOp41
 70
     1
102
RTVSPost2010Prop42
 90
       50
102
RTVSPost2010PropOp42
 70
     1
102
RTVSPost2010Prop43
 90
        3
102
RTVSPost2010PropOp43
 70
     1
102
RTVSPost2010Prop44ColorIndex
 90
        5
102
RTVSPost2010Prop44ColorRGB
 90
      255
102
RTVSPost2010PropOp44
 70
     1
102
RTVSPost2010Prop45
280
     0
102
RTVSPost2010PropOp45
 70
     1
102
RTVSPost2010Prop46
 90
       50
102
RTVSPost2010PropOp46
 70
     1
102
RTVSPost2010Prop47
 90
       50
102
RTVSPost2010PropOp47
 70
     1
102
RTVSPost2010Prop48
 90
       50
102
RTVSPost2010PropOp48
 70
     1
102
RTVSPost2010Prop49
280
     0
102
RTVSPost2010PropOp49
 70
     1
102
RTVSPost2010Prop50
 90
       50
102
RTVSPost2010PropOp50
 70
     1
102
RTVSPost2010Prop51ColorIndex
 90
      256
102
RTVSPost2010Prop51ColorRGB
 90
-16777216
102
RTVSPost2010PropOp51
 70
     0
102
RTVSPost2010Prop52
140
1.0
102
RTVSPost2010PropOp52
 70
     0
102
RTVSPost2010Prop53
 90
        2
102
RTVSPost2010PropOp53
 70
     1
102
RTVSPost2010Prop54
  1
strokes_ogs.tif
102
RTVSPost2010PropOp54
 70
     1
102
RTVSPost2010Prop55
280
     0
102
RTVSPost2010PropOp55
 70
     1
102
RTVSPost2010Prop56
140
1.0
102
RTVSPost2010PropOp56
 70
     1
102
RTVSPost2010Prop57
140
1.0
102
RTVSPost2010PropOp57
 70
     1
  0
XRECORD
  5
2AE
102
{ACAD_REACTORS
330
2AD
102
}
330
2AD
100
AcDbXrecord
280
     1
102
RTVSPropertyOp0
 70
     0
102
RTVSPropertyOp1
 70
     0
102
RTVSPropertyOp2
 70
     0
102
RTVSPropertyOp3
 70
     0
102
RTVSPropertyOp4
 70
     0
102
RTVSPropertyOp5
 70
     0
102
RTVSPropertyOp6
 70
     0
102
RTVSPropertyOp7
 70
     0
102
RTVSPropertyOp8
 70
     0
102
RTVSPropertyOp9
 70
     0
102
RTVSPropertyOp10
 70
     0
102
RTVSPropertyOp11
 70
     0
102
RTVSPropertyOp12
 70
     0
102
RTVSPropertyOp13
 70
     0
102
RTVSPropertyOp14
 70
     2
102
RTVSPropertyOp15
 70
     0
102
RTVSPropertyOp16
 70
     0
102
RTVSPropertyOp17
 70
     0
102
RTVSPropertyOp18
 70
     0
102
RTVSPropertyOp19
 70
     0
102
RTVSPropertyOp20
 70
     0
102
RTVSPropertyOp21
 70
     0
102
RTVSPropertyOp22
 70
     0
102
RTVSPropertyOp23
 70
     0
102
RTVSPropertyOp24
 70
     0
102
RTVSPropertyOp25
 70
     0
102
RTVSPropertyOp26
 70
     0
102
RTVSPropertyOp27
 70
     0
102
RTVSPropertyOp28
 70
     0
102
RTVSPropertyOp29
 70
     0
102
RTVSPropertyOp30
 70
     0
102
RTVSPropertyOp31
 70
     0
102
RTVSPropertyOp32
 70
     0
102
RTVSPropertyOp33
 70
     0
102
RTVSPropertyOp34
 70
     0
102
RTVSPropertyOp35
 70
     0
102
RTVSPropertyOp36
 70
     0
102
RTVSPropertyOp37
 70
     0
102
RTVSPropertyOp38
 70
     0
102
RTVSPropertyOp39
 70
     0
102
RTVSPropertyOp40
 70
     0
102
RTVSPropertyOp41
 70
     0
102
RTVSPropertyOp42
 70
     0
102
RTVSPropertyOp43
 70
     0
102
RTVSPropertyOp44
 70
     0
102
RTVSPropertyOp45
 70
     0
102
RTVSPropertyOp46
 70
     0
102
RTVSPropertyOp47
 70
     0
102
RTVSPropertyOp48
 70
     0
102
RTVSPropertyOp49
 70
     0
102
RTVSPropertyOp50
 70
     0
102
RTVSPropertyOp51
 70
     0
102
RTVSPropertyOp52
 70
     0
102
RTVSPropertyOp53
 70
     0
102
RTVSPropertyOp54
 70
     0
102
RTVSPropertyOp55
 70
     0
102
RTVSPropertyOp56
 70
     0
102
RTVSPropertyOp57
 70
     0
102
RTVSPost2010Prop28
280
     0
102
RTVSPost2010PropOp28
 70
     0
102
RTVSPost2010Prop29
280
     1
102
RTVSPost2010PropOp29
 70
     0
102
RTVSPost2010Prop30
280
     1
102
RTVSPost2010PropOp30
 70
     0
102
RTVSPost2010Prop31
280
     0
102
RTVSPost2010PropOp31
 70
     0
102
RTVSPost2010Prop32
280
     0
102
RTVSPost2010PropOp32
 70
     0
102
RTVSPost2010Prop33
280
     0
102
RTVSPost2010PropOp33
 70
     0
102
RTVSPost2010Prop34
280
     0
102
RTVSPost2010PropOp34
 70
     0
102
RTVSPost2010Prop35
280
     0
102
RTVSPost2010PropOp35
 70
     0
102
RTVSPost2010Prop36
280
     0
102
RTVSPost2010PropOp36
 70
     0
102
RTVSPost2010Prop37
 90
       50
102
RTVSPost2010PropOp37
 70
     0
102
RTVSPost2010Prop38
140
0.0
102
RTVSPost2010PropOp38
 70
     0
102
RTVSPost2010Prop39
140
1.0
102
RTVSPost2010PropOp39
 70
     0
102
RTVSPost2010Prop40
 90
        0
102
RTVSPost2010PropOp40
 70
     0
102
RTVSPost2010Prop41ColorIndex
 90
       18
102
RTVSPost2010Prop41ColorRGB
 90
        0
102
RTVSPost2010PropOp41
 70
     0
102
RTVSPost2010Prop42
 90
       50
102
RTVSPost2010PropOp42
 70
     0
102
RTVSPost2010Prop43
 90
        3
102
RTVSPost2010PropOp43
 70
     0
102
RTVSPost2010Prop44ColorIndex
 90
        5
102
RTVSPost2010Prop44ColorRGB
 90
      255
102
RTVSPost2010PropOp44
 70
     0
102
RTVSPost2010Prop45
280
     0
102
RTVSPost2010PropOp45
 70
     0
102
RTVSPost2010Prop46
 90
       50
102
RTVSPost2010PropOp46
 70
     0
102
RTVSPost2010Prop47
 90
       50
102
RTVSPost2010PropOp47
 70
     0
102
RTVSPost2010Prop48
 90
       50
102
RTVSPost2010PropOp48
 70
     0
102
RTVSPost2010Prop49
280
     0
102
RTVSPost2010PropOp49
 70
     0
102
RTVSPost2010Prop50
 90
       50
102
RTVSPost2010PropOp50
 70
     0
102
RTVSPost2010Prop51ColorIndex
 90
      256
102
RTVSPost2010Prop51ColorRGB
 90
-16777216
102
RTVSPost2010PropOp51
 70
     0
102
RTVSPost2010Prop52
140
1.0
102
RTVSPost2010PropOp52
 70
     0
102
RTVSPost2010Prop53
 90
        2
102
RTVSPost2010PropOp53
 70
     0
102
RTVSPost2010Prop54
  1
strokes_ogs.tif
102
RTVSPost2010PropOp54
 70
     0
102
RTVSPost2010Prop55
280
     0
102
RTVSPost2010PropOp55
 70
     0
102
RTVSPost2010Prop56
140
1.0
102
RTVSPost2010PropOp56
 70
     0
102
RTVSPost2010Prop57
140
1.0
102
RTVSPost2010PropOp57
 70
     0
  0
XRECORD
  5
29C
102
{ACAD_REACTORS
330
29B
102
}
330
29B
100
AcDbXrecord
280
     1
102
RTVSPropertyOp0
 70
     1
102
RTVSPropertyOp1
 70
     1
102
RTVSPropertyOp2
 70
     1
102
RTVSPropertyOp3
 70
     1
102
RTVSPropertyOp4
 70
     1
102
RTVSPropertyOp5
 70
     1
102
RTVSPropertyOp6
 70
     1
102
RTVSPropertyOp7
 70
     1
102
RTVSPropertyOp8
 70
     1
102
RTVSPropertyOp9
 70
     1
102
RTVSPropertyOp10
 70
     1
102
RTVSPropertyOp11
 70
     1
102
RTVSPropertyOp12
 70
     1
102
RTVSPropertyOp13
 70
     1
102
RTVSPropertyOp14
 70
     1
102
RTVSPropertyOp15
 70
     1
102
RTVSPropertyOp16
 70
     1
102
RTVSPropertyOp17
 70
     1
102
RTVSPropertyOp18
 70
     1
102
RTVSPropertyOp19
 70
     1
102
RTVSPropertyOp20
 70
     1
102
RTVSPropertyOp21
 70
     1
102
RTVSPropertyOp22
 70
     1
102
RTVSPropertyOp23
 70
     1
102
RTVSPropertyOp24
 70
     1
102
RTVSPropertyOp25
 70
     1
102
RTVSPropertyOp26
 70
     1
102
RTVSPropertyOp27
 70
     1
102
RTVSPropertyOp28
 70
     1
102
RTVSPropertyOp29
 70
     1
102
RTVSPropertyOp30
 70
     1
102
RTVSPropertyOp31
 70
     1
102
RTVSPropertyOp32
 70
     1
102
RTVSPropertyOp33
 70
     1
102
RTVSPropertyOp34
 70
     1
102
RTVSPropertyOp35
 70
     1
102
RTVSPropertyOp36
 70
     1
102
RTVSPropertyOp37
 70
     1
102
RTVSPropertyOp38
 70
     1
102
RTVSPropertyOp39
 70
     1
102
RTVSPropertyOp40
 70
     1
102
RTVSPropertyOp41
 70
     1
102
RTVSPropertyOp42
 70
     1
102
RTVSPropertyOp43
 70
     1
102
RTVSPropertyOp44
 70
     1
102
RTVSPropertyOp45
 70
     1
102
RTVSPropertyOp46
 70
     1
102
RTVSPropertyOp47
 70
     1
102
RTVSPropertyOp48
 70
     1
102
RTVSPropertyOp49
 70
     1
102
RTVSPropertyOp50
 70
     1
102
RTVSPropertyOp51
 70
     0
102
RTVSPropertyOp52
 70
     0
102
RTVSPropertyOp53
 70
     1
102
RTVSPropertyOp54
 70
     1
102
RTVSPropertyOp55
 70
     1
102
RTVSPropertyOp56
 70
     1
102
RTVSPropertyOp57
 70
     1
102
RTVSPost2010Prop28
280
     0
102
RTVSPost2010PropOp28
 70
     1
102
RTVSPost2010Prop29
280
     1
102
RTVSPost2010PropOp29
 70
     1
102
RTVSPost2010Prop30
280
     1
102
RTVSPost2010PropOp30
 70
     1
102
RTVSPost2010Prop31
280
     0
102
RTVSPost2010PropOp31
 70
     1
102
RTVSPost2010Prop32
280
     0
102
RTVSPost2010PropOp32
 70
     1
102
RTVSPost2010Prop33
280
     0
102
RTVSPost2010PropOp33
 70
     1
102
RTVSPost2010Prop34
280
     0
102
RTVSPost2010PropOp34
 70
     1
102
RTVSPost2010Prop35
280
     0
102
RTVSPost2010PropOp35
 70
     1
102
RTVSPost2010Prop36
280
     0
102
RTVSPost2010PropOp36
 70
     1
102
RTVSPost2010Prop37
 90
       50
102
RTVSPost2010PropOp37
 70
     1
102
RTVSPost2010Prop38
140
0.0
102
RTVSPost2010PropOp38
 70
     1
102
RTVSPost2010Prop39
140
1.0
102
RTVSPost2010PropOp39
 70
     1
102
RTVSPost2010Prop40
 90
        0
102
RTVSPost2010PropOp40
 70
     1
102
RTVSPost2010Prop41ColorIndex
 90
       18
102
RTVSPost2010Prop41ColorRGB
 90
        0
102
RTVSPost2010PropOp41
 70
     1
102
RTVSPost2010Prop42
 90
       50
102
RTVSPost2010PropOp42
 70
     1
102
RTVSPost2010Prop43
 90
        3
102
RTVSPost2010PropOp43
 70
     1
102
RTVSPost2010Prop44ColorIndex
 90
        5
102
RTVSPost2010Prop44ColorRGB
 90
      255
102
RTVSPost2010PropOp44
 70
     1
102
RTVSPost2010Prop45
280
     0
102
RTVSPost2010PropOp45
 70
     1
102
RTVSPost2010Prop46
 90
       50
102
RTVSPost2010PropOp46
 70
     1
102
RTVSPost2010Prop47
 90
       50
102
RTVSPost2010PropOp47
 70
     1
102
RTVSPost2010Prop48
 90
       50
102
RTVSPost2010PropOp48
 70
     1
102
RTVSPost2010Prop49
280
     0
102
RTVSPost2010PropOp49
 70
     1
102
RTVSPost2010Prop50
 90
       50
102
RTVSPost2010PropOp50
 70
     1
102
RTVSPost2010Prop51ColorIndex
 90
      256
102
RTVSPost2010Prop51ColorRGB
 90
-16777216
102
RTVSPost2010PropOp51
 70
     0
102
RTVSPost2010Prop52
140
1.0
102
RTVSPost2010PropOp52
 70
     0
102
RTVSPost2010Prop53
 90
        2
102
RTVSPost2010PropOp53
 70
     1
102
RTVSPost2010Prop54
  1
strokes_ogs.tif
102
RTVSPost2010PropOp54
 70
     1
102
RTVSPost2010Prop55
280
     0
102
RTVSPost2010PropOp55
 70
     1
102
RTVSPost2010Prop56
140
1.0
102
RTVSPost2010PropOp56
 70
     1
102
RTVSPost2010Prop57
140
1.0
102
RTVSPost2010PropOp57
 70
     1
  0
XRECORD
  5
2BA
102
{ACAD_REACTORS
330
2B9
102
}
330
2B9
100
AcDbXrecord
280
     1
102
RTVSPropertyOp0
 70
     1
102
RTVSPropertyOp1
 70
     1
102
RTVSPropertyOp2
 70
     1
102
RTVSPropertyOp3
 70
     1
102
RTVSPropertyOp4
 70
     1
102
RTVSPropertyOp5
 70
     1
102
RTVSPropertyOp6
 70
     1
102
RTVSPropertyOp7
 70
     1
102
RTVSPropertyOp8
 70
     1
102
RTVSPropertyOp9
 70
     1
102
RTVSPropertyOp10
 70
     1
102
RTVSPropertyOp11
 70
     1
102
RTVSPropertyOp12
 70
     1
102
RTVSPropertyOp13
 70
     1
102
RTVSPropertyOp14
 70
     1
102
RTVSPropertyOp15
 70
     1
102
RTVSPropertyOp16
 70
     1
102
RTVSPropertyOp17
 70
     1
102
RTVSPropertyOp18
 70
     1
102
RTVSPropertyOp19
 70
     1
102
RTVSPropertyOp20
 70
     1
102
RTVSPropertyOp21
 70
     1
102
RTVSPropertyOp22
 70
     1
102
RTVSPropertyOp23
 70
     1
102
RTVSPropertyOp24
 70
     1
102
RTVSPropertyOp25
 70
     1
102
RTVSPropertyOp26
 70
     1
102
RTVSPropertyOp27
 70
     1
102
RTVSPropertyOp28
 70
     1
102
RTVSPropertyOp29
 70
     1
102
RTVSPropertyOp30
 70
     1
102
RTVSPropertyOp31
 70
     1
102
RTVSPropertyOp32
 70
     1
102
RTVSPropertyOp33
 70
     1
102
RTVSPropertyOp34
 70
     1
102
RTVSPropertyOp35
 70
     1
102
RTVSPropertyOp36
 70
     1
102
RTVSPropertyOp37
 70
     1
102
RTVSPropertyOp38
 70
     1
102
RTVSPropertyOp39
 70
     1
102
RTVSPropertyOp40
 70
     1
102
RTVSPropertyOp41
 70
     1
102
RTVSPropertyOp42
 70
     1
102
RTVSPropertyOp43
 70
     1
102
RTVSPropertyOp44
 70
     1
102
RTVSPropertyOp45
 70
     1
102
RTVSPropertyOp46
 70
     1
102
RTVSPropertyOp47
 70
     1
102
RTVSPropertyOp48
 70
     1
102
RTVSPropertyOp49
 70
     1
102
RTVSPropertyOp50
 70
     1
102
RTVSPropertyOp51
 70
     0
102
RTVSPropertyOp52
 70
     0
102
RTVSPropertyOp53
 70
     1
102
RTVSPropertyOp54
 70
     1
102
RTVSPropertyOp55
 70
     1
102
RTVSPropertyOp56
 70
     1
102
RTVSPropertyOp57
 70
     1
102
RTVSPost2010Prop28
280
     0
102
RTVSPost2010PropOp28
 70
     1
102
RTVSPost2010Prop29
280
     1
102
RTVSPost2010PropOp29
 70
     1
102
RTVSPost2010Prop30
280
     1
102
RTVSPost2010PropOp30
 70
     1
102
RTVSPost2010Prop31
280
     0
102
RTVSPost2010PropOp31
 70
     1
102
RTVSPost2010Prop32
280
     0
102
RTVSPost2010PropOp32
 70
     1
102
RTVSPost2010Prop33
280
     0
102
RTVSPost2010PropOp33
 70
     1
102
RTVSPost2010Prop34
280
     0
102
RTVSPost2010PropOp34
 70
     1
102
RTVSPost2010Prop35
280
     0
102
RTVSPost2010PropOp35
 70
     1
102
RTVSPost2010Prop36
280
     0
102
RTVSPost2010PropOp36
 70
     1
102
RTVSPost2010Prop37
 90
       50
102
RTVSPost2010PropOp37
 70
     1
102
RTVSPost2010Prop38
140
0.0
102
RTVSPost2010PropOp38
 70
     1
102
RTVSPost2010Prop39
140
1.0
102
RTVSPost2010PropOp39
 70
     1
102
RTVSPost2010Prop40
 90
        0
102
RTVSPost2010PropOp40
 70
     1
102
RTVSPost2010Prop41ColorIndex
 90
       18
102
RTVSPost2010Prop41ColorRGB
 90
        0
102
RTVSPost2010PropOp41
 70
     1
102
RTVSPost2010Prop42
 90
       50
102
RTVSPost2010PropOp42
 70
     1
102
RTVSPost2010Prop43
 90
        3
102
RTVSPost2010PropOp43
 70
     1
102
RTVSPost2010Prop44ColorIndex
 90
        5
102
RTVSPost2010Prop44ColorRGB
 90
      255
102
RTVSPost2010PropOp44
 70
     1
102
RTVSPost2010Prop45
280
     0
102
RTVSPost2010PropOp45
 70
     1
102
RTVSPost2010Prop46
 90
       50
102
RTVSPost2010PropOp46
 70
     1
102
RTVSPost2010Prop47
 90
       50
102
RTVSPost2010PropOp47
 70
     1
102
RTVSPost2010Prop48
 90
       50
102
RTVSPost2010PropOp48
 70
     1
102
RTVSPost2010Prop49
280
     0
102
RTVSPost2010PropOp49
 70
     1
102
RTVSPost2010Prop50
 90
       50
102
RTVSPost2010PropOp50
 70
     1
102
RTVSPost2010Prop51ColorIndex
 90
      256
102
RTVSPost2010Prop51ColorRGB
 90
-16777216
102
RTVSPost2010PropOp51
 70
     0
102
RTVSPost2010Prop52
140
1.0
102
RTVSPost2010PropOp52
 70
     0
102
RTVSPost2010Prop53
 90
        2
102
RTVSPost2010PropOp53
 70
     1
102
RTVSPost2010Prop54
  1
strokes_ogs.tif
102
RTVSPost2010PropOp54
 70
     1
102
RTVSPost2010Prop55
280
     0
102
RTVSPost2010PropOp55
 70
     1
102
RTVSPost2010Prop56
140
1.0
102
RTVSPost2010PropOp56
 70
     1
102
RTVSPost2010Prop57
140
1.0
102
RTVSPost2010PropOp57
 70
     1
  0
XRECORD
  5
2B8
102
{ACAD_REACTORS
330
2B7
102
}
330
2B7
100
AcDbXrecord
280
     1
102
RTVSPropertyOp0
 70
     1
102
RTVSPropertyOp1
 70
     1
102
RTVSPropertyOp2
 70
     1
102
RTVSPropertyOp3
 70
     1
102
RTVSPropertyOp4
 70
     1
102
RTVSPropertyOp5
 70
     1
102
RTVSPropertyOp6
 70
     1
102
RTVSPropertyOp7
 70
     1
102
RTVSPropertyOp8
 70
     1
102
RTVSPropertyOp9
 70
     1
102
RTVSPropertyOp10
 70
     1
102
RTVSPropertyOp11
 70
     1
102
RTVSPropertyOp12
 70
     1
102
RTVSPropertyOp13
 70
     1
102
RTVSPropertyOp14
 70
     1
102
RTVSPropertyOp15
 70
     1
102
RTVSPropertyOp16
 70
     1
102
RTVSPropertyOp17
 70
     1
102
RTVSPropertyOp18
 70
     1
102
RTVSPropertyOp19
 70
     1
102
RTVSPropertyOp20
 70
     1
102
RTVSPropertyOp21
 70
     1
102
RTVSPropertyOp22
 70
     1
102
RTVSPropertyOp23
 70
     1
102
RTVSPropertyOp24
 70
     1
102
RTVSPropertyOp25
 70
     1
102
RTVSPropertyOp26
 70
     1
102
RTVSPropertyOp27
 70
     1
102
RTVSPropertyOp28
 70
     1
102
RTVSPropertyOp29
 70
     1
102
RTVSPropertyOp30
 70
     1
102
RTVSPropertyOp31
 70
     1
102
RTVSPropertyOp32
 70
     1
102
RTVSPropertyOp33
 70
     1
102
RTVSPropertyOp34
 70
     1
102
RTVSPropertyOp35
 70
     1
102
RTVSPropertyOp36
 70
     1
102
RTVSPropertyOp37
 70
     1
102
RTVSPropertyOp38
 70
     1
102
RTVSPropertyOp39
 70
     1
102
RTVSPropertyOp40
 70
     1
102
RTVSPropertyOp41
 70
     1
102
RTVSPropertyOp42
 70
     1
102
RTVSPropertyOp43
 70
     1
102
RTVSPropertyOp44
 70
     1
102
RTVSPropertyOp45
 70
     1
102
RTVSPropertyOp46
 70
     1
102
RTVSPropertyOp47
 70
     1
102
RTVSPropertyOp48
 70
     1
102
RTVSPropertyOp49
 70
     1
102
RTVSPropertyOp50
 70
     1
102
RTVSPropertyOp51
 70
     0
102
RTVSPropertyOp52
 70
     0
102
RTVSPropertyOp53
 70
     1
102
RTVSPropertyOp54
 70
     1
102
RTVSPropertyOp55
 70
     1
102
RTVSPropertyOp56
 70
     1
102
RTVSPropertyOp57
 70
     1
102
RTVSPost2010Prop28
280
     0
102
RTVSPost2010PropOp28
 70
     1
102
RTVSPost2010Prop29
280
     1
102
RTVSPost2010PropOp29
 70
     1
102
RTVSPost2010Prop30
280
     1
102
RTVSPost2010PropOp30
 70
     1
102
RTVSPost2010Prop31
280
     0
102
RTVSPost2010PropOp31
 70
     1
102
RTVSPost2010Prop32
280
     0
102
RTVSPost2010PropOp32
 70
     1
102
RTVSPost2010Prop33
280
     0
102
RTVSPost2010PropOp33
 70
     1
102
RTVSPost2010Prop34
280
     0
102
RTVSPost2010PropOp34
 70
     1
102
RTVSPost2010Prop35
280
     0
102
RTVSPost2010PropOp35
 70
     1
102
RTVSPost2010Prop36
280
     0
102
RTVSPost2010PropOp36
 70
     1
102
RTVSPost2010Prop37
 90
       50
102
RTVSPost2010PropOp37
 70
     1
102
RTVSPost2010Prop38
140
0.0
102
RTVSPost2010PropOp38
 70
     1
102
RTVSPost2010Prop39
140
1.0
102
RTVSPost2010PropOp39
 70
     1
102
RTVSPost2010Prop40
 90
        0
102
RTVSPost2010PropOp40
 70
     1
102
RTVSPost2010Prop41ColorIndex
 90
       18
102
RTVSPost2010Prop41ColorRGB
 90
        0
102
RTVSPost2010PropOp41
 70
     1
102
RTVSPost2010Prop42
 90
       50
102
RTVSPost2010PropOp42
 70
     1
102
RTVSPost2010Prop43
 90
        3
102
RTVSPost2010PropOp43
 70
     1
102
RTVSPost2010Prop44ColorIndex
 90
        5
102
RTVSPost2010Prop44ColorRGB
 90
      255
102
RTVSPost2010PropOp44
 70
     1
102
RTVSPost2010Prop45
280
     0
102
RTVSPost2010PropOp45
 70
     1
102
RTVSPost2010Prop46
 90
       50
102
RTVSPost2010PropOp46
 70
     1
102
RTVSPost2010Prop47
 90
       50
102
RTVSPost2010PropOp47
 70
     1
102
RTVSPost2010Prop48
 90
       50
102
RTVSPost2010PropOp48
 70
     1
102
RTVSPost2010Prop49
280
     0
102
RTVSPost2010PropOp49
 70
     1
102
RTVSPost2010Prop50
 90
       50
102
RTVSPost2010PropOp50
 70
     1
102
RTVSPost2010Prop51ColorIndex
 90
      256
102
RTVSPost2010Prop51ColorRGB
 90
-16777216
102
RTVSPost2010PropOp51
 70
     0
102
RTVSPost2010Prop52
140
1.0
102
RTVSPost2010PropOp52
 70
     0
102
RTVSPost2010Prop53
 90
        2
102
RTVSPost2010PropOp53
 70
     1
102
RTVSPost2010Prop54
  1
strokes_ogs.tif
102
RTVSPost2010PropOp54
 70
     1
102
RTVSPost2010Prop55
280
     0
102
RTVSPost2010PropOp55
 70
     1
102
RTVSPost2010Prop56
140
1.0
102
RTVSPost2010PropOp56
 70
     1
102
RTVSPost2010Prop57
140
1.0
102
RTVSPost2010PropOp57
 70
     1
  0
XRECORD
  5
2B2
102
{ACAD_REACTORS
330
2B1
102
}
330
2B1
100
AcDbXrecord
280
     1
102
RTVSPropertyOp0
 70
     1
102
RTVSPropertyOp1
 70
     1
102
RTVSPropertyOp2
 70
     1
102
RTVSPropertyOp3
 70
     1
102
RTVSPropertyOp4
 70
     1
102
RTVSPropertyOp5
 70
     1
102
RTVSPropertyOp6
 70
     1
102
RTVSPropertyOp7
 70
     1
102
RTVSPropertyOp8
 70
     1
102
RTVSPropertyOp9
 70
     1
102
RTVSPropertyOp10
 70
     1
102
RTVSPropertyOp11
 70
     1
102
RTVSPropertyOp12
 70
     1
102
RTVSPropertyOp13
 70
     1
102
RTVSPropertyOp14
 70
     1
102
RTVSPropertyOp15
 70
     1
102
RTVSPropertyOp16
 70
     1
102
RTVSPropertyOp17
 70
     1
102
RTVSPropertyOp18
 70
     1
102
RTVSPropertyOp19
 70
     1
102
RTVSPropertyOp20
 70
     1
102
RTVSPropertyOp21
 70
     1
102
RTVSPropertyOp22
 70
     1
102
RTVSPropertyOp23
 70
     1
102
RTVSPropertyOp24
 70
     1
102
RTVSPropertyOp25
 70
     1
102
RTVSPropertyOp26
 70
     1
102
RTVSPropertyOp27
 70
     1
102
RTVSPropertyOp28
 70
     1
102
RTVSPropertyOp29
 70
     1
102
RTVSPropertyOp30
 70
     1
102
RTVSPropertyOp31
 70
     1
102
RTVSPropertyOp32
 70
     1
102
RTVSPropertyOp33
 70
     1
102
RTVSPropertyOp34
 70
     1
102
RTVSPropertyOp35
 70
     1
102
RTVSPropertyOp36
 70
     1
102
RTVSPropertyOp37
 70
     1
102
RTVSPropertyOp38
 70
     1
102
RTVSPropertyOp39
 70
     1
102
RTVSPropertyOp40
 70
     1
102
RTVSPropertyOp41
 70
     1
102
RTVSPropertyOp42
 70
     1
102
RTVSPropertyOp43
 70
     1
102
RTVSPropertyOp44
 70
     1
102
RTVSPropertyOp45
 70
     1
102
RTVSPropertyOp46
 70
     1
102
RTVSPropertyOp47
 70
     1
102
RTVSPropertyOp48
 70
     1
102
RTVSPropertyOp49
 70
     1
102
RTVSPropertyOp50
 70
     1
102
RTVSPropertyOp51
 70
     0
102
RTVSPropertyOp52
 70
     0
102
RTVSPropertyOp53
 70
     1
102
RTVSPropertyOp54
 70
     1
102
RTVSPropertyOp55
 70
     1
102
RTVSPropertyOp56
 70
     1
102
RTVSPropertyOp57
 70
     1
102
RTVSPost2010Prop28
280
     0
102
RTVSPost2010PropOp28
 70
     1
102
RTVSPost2010Prop29
280
     1
102
RTVSPost2010PropOp29
 70
     1
102
RTVSPost2010Prop30
280
     1
102
RTVSPost2010PropOp30
 70
     1
102
RTVSPost2010Prop31
280
     0
102
RTVSPost2010PropOp31
 70
     1
102
RTVSPost2010Prop32
280
     0
102
RTVSPost2010PropOp32
 70
     1
102
RTVSPost2010Prop33
280
     0
102
RTVSPost2010PropOp33
 70
     1
102
RTVSPost2010Prop34
280
     0
102
RTVSPost2010PropOp34
 70
     1
102
RTVSPost2010Prop35
280
     0
102
RTVSPost2010PropOp35
 70
     1
102
RTVSPost2010Prop36
280
     0
102
RTVSPost2010PropOp36
 70
     1
102
RTVSPost2010Prop37
 90
       50
102
RTVSPost2010PropOp37
 70
     1
102
RTVSPost2010Prop38
140
0.0
102
RTVSPost2010PropOp38
 70
     1
102
RTVSPost2010Prop39
140
1.0
102
RTVSPost2010PropOp39
 70
     1
102
RTVSPost2010Prop40
 90
        0
102
RTVSPost2010PropOp40
 70
     1
102
RTVSPost2010Prop41ColorIndex
 90
       18
102
RTVSPost2010Prop41ColorRGB
 90
        0
102
RTVSPost2010PropOp41
 70
     1
102
RTVSPost2010Prop42
 90
       50
102
RTVSPost2010PropOp42
 70
     1
102
RTVSPost2010Prop43
 90
        3
102
RTVSPost2010PropOp43
 70
     1
102
RTVSPost2010Prop44ColorIndex
 90
        5
102
RTVSPost2010Prop44ColorRGB
 90
      255
102
RTVSPost2010PropOp44
 70
     1
102
RTVSPost2010Prop45
280
     0
102
RTVSPost2010PropOp45
 70
     1
102
RTVSPost2010Prop46
 90
       50
102
RTVSPost2010PropOp46
 70
     1
102
RTVSPost2010Prop47
 90
       50
102
RTVSPost2010PropOp47
 70
     1
102
RTVSPost2010Prop48
 90
       50
102
RTVSPost2010PropOp48
 70
     1
102
RTVSPost2010Prop49
280
     0
102
RTVSPost2010PropOp49
 70
     1
102
RTVSPost2010Prop50
 90
       50
102
RTVSPost2010PropOp50
 70
     1
102
RTVSPost2010Prop51ColorIndex
 90
      256
102
RTVSPost2010Prop51ColorRGB
 90
-16777216
102
RTVSPost2010PropOp51
 70
     0
102
RTVSPost2010Prop52
140
1.0
102
RTVSPost2010PropOp52
 70
     0
102
RTVSPost2010Prop53
 90
        2
102
RTVSPost2010PropOp53
 70
     1
102
RTVSPost2010Prop54
  1
strokes_ogs.tif
102
RTVSPost2010PropOp54
 70
     1
102
RTVSPost2010Prop55
280
     0
102
RTVSPost2010PropOp55
 70
     1
102
RTVSPost2010Prop56
140
1.0
102
RTVSPost2010PropOp56
 70
     1
102
RTVSPost2010Prop57
140
1.0
102
RTVSPost2010PropOp57
 70
     1
  0
XRECORD
  5
2B4
102
{ACAD_REACTORS
330
2B3
102
}
330
2B3
100
AcDbXrecord
280
     1
102
RTVSPropertyOp0
 70
     1
102
RTVSPropertyOp1
 70
     1
102
RTVSPropertyOp2
 70
     1
102
RTVSPropertyOp3
 70
     1
102
RTVSPropertyOp4
 70
     1
102
RTVSPropertyOp5
 70
     1
102
RTVSPropertyOp6
 70
     1
102
RTVSPropertyOp7
 70
     1
102
RTVSPropertyOp8
 70
     1
102
RTVSPropertyOp9
 70
     1
102
RTVSPropertyOp10
 70
     1
102
RTVSPropertyOp11
 70
     1
102
RTVSPropertyOp12
 70
     1
102
RTVSPropertyOp13
 70
     1
102
RTVSPropertyOp14
 70
     1
102
RTVSPropertyOp15
 70
     1
102
RTVSPropertyOp16
 70
     1
102
RTVSPropertyOp17
 70
     1
102
RTVSPropertyOp18
 70
     1
102
RTVSPropertyOp19
 70
     1
102
RTVSPropertyOp20
 70
     1
102
RTVSPropertyOp21
 70
     1
102
RTVSPropertyOp22
 70
     1
102
RTVSPropertyOp23
 70
     1
102
RTVSPropertyOp24
 70
     1
102
RTVSPropertyOp25
 70
     1
102
RTVSPropertyOp26
 70
     1
102
RTVSPropertyOp27
 70
     1
102
RTVSPropertyOp28
 70
     1
102
RTVSPropertyOp29
 70
     1
102
RTVSPropertyOp30
 70
     1
102
RTVSPropertyOp31
 70
     1
102
RTVSPropertyOp32
 70
     1
102
RTVSPropertyOp33
 70
     1
102
RTVSPropertyOp34
 70
     1
102
RTVSPropertyOp35
 70
     1
102
RTVSPropertyOp36
 70
     1
102
RTVSPropertyOp37
 70
     1
102
RTVSPropertyOp38
 70
     1
102
RTVSPropertyOp39
 70
     1
102
RTVSPropertyOp40
 70
     1
102
RTVSPropertyOp41
 70
     1
102
RTVSPropertyOp42
 70
     1
102
RTVSPropertyOp43
 70
     1
102
RTVSPropertyOp44
 70
     1
102
RTVSPropertyOp45
 70
     1
102
RTVSPropertyOp46
 70
     1
102
RTVSPropertyOp47
 70
     1
102
RTVSPropertyOp48
 70
     1
102
RTVSPropertyOp49
 70
     1
102
RTVSPropertyOp50
 70
     1
102
RTVSPropertyOp51
 70
     0
102
RTVSPropertyOp52
 70
     0
102
RTVSPropertyOp53
 70
     1
102
RTVSPropertyOp54
 70
     1
102
RTVSPropertyOp55
 70
     1
102
RTVSPropertyOp56
 70
     1
102
RTVSPropertyOp57
 70
     1
102
RTVSPost2010Prop28
280
     0
102
RTVSPost2010PropOp28
 70
     1
102
RTVSPost2010Prop29
280
     1
102
RTVSPost2010PropOp29
 70
     1
102
RTVSPost2010Prop30
280
     1
102
RTVSPost2010PropOp30
 70
     1
102
RTVSPost2010Prop31
280
     0
102
RTVSPost2010PropOp31
 70
     1
102
RTVSPost2010Prop32
280
     0
102
RTVSPost2010PropOp32
 70
     1
102
RTVSPost2010Prop33
280
     0
102
RTVSPost2010PropOp33
 70
     1
102
RTVSPost2010Prop34
280
     0
102
RTVSPost2010PropOp34
 70
     1
102
RTVSPost2010Prop35
280
     0
102
RTVSPost2010PropOp35
 70
     1
102
RTVSPost2010Prop36
280
     0
102
RTVSPost2010PropOp36
 70
     1
102
RTVSPost2010Prop37
 90
       50
102
RTVSPost2010PropOp37
 70
     1
102
RTVSPost2010Prop38
140
0.0
102
RTVSPost2010PropOp38
 70
     1
102
RTVSPost2010Prop39
140
1.0
102
RTVSPost2010PropOp39
 70
     1
102
RTVSPost2010Prop40
 90
        0
102
RTVSPost2010PropOp40
 70
     1
102
RTVSPost2010Prop41ColorIndex
 90
       18
102
RTVSPost2010Prop41ColorRGB
 90
        0
102
RTVSPost2010PropOp41
 70
     1
102
RTVSPost2010Prop42
 90
       50
102
RTVSPost2010PropOp42
 70
     1
102
RTVSPost2010Prop43
 90
        3
102
RTVSPost2010PropOp43
 70
     1
102
RTVSPost2010Prop44ColorIndex
 90
        5
102
RTVSPost2010Prop44ColorRGB
 90
      255
102
RTVSPost2010PropOp44
 70
     1
102
RTVSPost2010Prop45
280
     0
102
RTVSPost2010PropOp45
 70
     1
102
RTVSPost2010Prop46
 90
       50
102
RTVSPost2010PropOp46
 70
     1
102
RTVSPost2010Prop47
 90
       50
102
RTVSPost2010PropOp47
 70
     1
102
RTVSPost2010Prop48
 90
       50
102
RTVSPost2010PropOp48
 70
     1
102
RTVSPost2010Prop49
280
     0
102
RTVSPost2010PropOp49
 70
     1
102
RTVSPost2010Prop50
 90
       50
102
RTVSPost2010PropOp50
 70
     1
102
RTVSPost2010Prop51ColorIndex
 90
      256
102
RTVSPost2010Prop51ColorRGB
 90
-16777216
102
RTVSPost2010PropOp51
 70
     0
102
RTVSPost2010Prop52
140
1.0
102
RTVSPost2010PropOp52
 70
     0
102
RTVSPost2010Prop53
 90
        2
102
RTVSPost2010PropOp53
 70
     1
102
RTVSPost2010Prop54
  1
strokes_ogs.tif
102
RTVSPost2010PropOp54
 70
     1
102
RTVSPost2010Prop55
280
     0
102
RTVSPost2010PropOp55
 70
     1
102
RTVSPost2010Prop56
140
1.0
102
RTVSPost2010PropOp56
 70
     1
102
RTVSPost2010Prop57
140
1.0
102
RTVSPost2010PropOp57
 70
     1
  0
XRECORD
  5
2A4
102
{ACAD_REACTORS
330
2A3
102
}
330
2A3
100
AcDbXrecord
280
     1
102
RTVSPropertyOp0
 70
     1
102
RTVSPropertyOp1
 70
     1
102
RTVSPropertyOp2
 70
     1
102
RTVSPropertyOp3
 70
     1
102
RTVSPropertyOp4
 70
     1
102
RTVSPropertyOp5
 70
     1
102
RTVSPropertyOp6
 70
     1
102
RTVSPropertyOp7
 70
     1
102
RTVSPropertyOp8
 70
     1
102
RTVSPropertyOp9
 70
     1
102
RTVSPropertyOp10
 70
     1
102
RTVSPropertyOp11
 70
     1
102
RTVSPropertyOp12
 70
     1
102
RTVSPropertyOp13
 70
     1
102
RTVSPropertyOp14
 70
     1
102
RTVSPropertyOp15
 70
     1
102
RTVSPropertyOp16
 70
     1
102
RTVSPropertyOp17
 70
     1
102
RTVSPropertyOp18
 70
     1
102
RTVSPropertyOp19
 70
     1
102
RTVSPropertyOp20
 70
     1
102
RTVSPropertyOp21
 70
     1
102
RTVSPropertyOp22
 70
     1
102
RTVSPropertyOp23
 70
     1
102
RTVSPropertyOp24
 70
     1
102
RTVSPropertyOp25
 70
     1
102
RTVSPropertyOp26
 70
     1
102
RTVSPropertyOp27
 70
     1
102
RTVSPropertyOp28
 70
     1
102
RTVSPropertyOp29
 70
     1
102
RTVSPropertyOp30
 70
     1
102
RTVSPropertyOp31
 70
     1
102
RTVSPropertyOp32
 70
     1
102
RTVSPropertyOp33
 70
     1
102
RTVSPropertyOp34
 70
     1
102
RTVSPropertyOp35
 70
     1
102
RTVSPropertyOp36
 70
     1
102
RTVSPropertyOp37
 70
     1
102
RTVSPropertyOp38
 70
     1
102
RTVSPropertyOp39
 70
     1
102
RTVSPropertyOp40
 70
     1
102
RTVSPropertyOp41
 70
     1
102
RTVSPropertyOp42
 70
     1
102
RTVSPropertyOp43
 70
     1
102
RTVSPropertyOp44
 70
     1
102
RTVSPropertyOp45
 70
     1
102
RTVSPropertyOp46
 70
     1
102
RTVSPropertyOp47
 70
     1
102
RTVSPropertyOp48
 70
     1
102
RTVSPropertyOp49
 70
     1
102
RTVSPropertyOp50
 70
     1
102
RTVSPropertyOp51
 70
     0
102
RTVSPropertyOp52
 70
     0
102
RTVSPropertyOp53
 70
     1
102
RTVSPropertyOp54
 70
     1
102
RTVSPropertyOp55
 70
     1
102
RTVSPropertyOp56
 70
     1
102
RTVSPropertyOp57
 70
     1
102
RTVSPost2010Prop28
280
     0
102
RTVSPost2010PropOp28
 70
     1
102
RTVSPost2010Prop29
280
     1
102
RTVSPost2010PropOp29
 70
     1
102
RTVSPost2010Prop30
280
     1
102
RTVSPost2010PropOp30
 70
     1
102
RTVSPost2010Prop31
280
     0
102
RTVSPost2010PropOp31
 70
     1
102
RTVSPost2010Prop32
280
     0
102
RTVSPost2010PropOp32
 70
     1
102
RTVSPost2010Prop33
280
     0
102
RTVSPost2010PropOp33
 70
     1
102
RTVSPost2010Prop34
280
     0
102
RTVSPost2010PropOp34
 70
     1
102
RTVSPost2010Prop35
280
     0
102
RTVSPost2010PropOp35
 70
     1
102
RTVSPost2010Prop36
280
     0
102
RTVSPost2010PropOp36
 70
     1
102
RTVSPost2010Prop37
 90
       50
102
RTVSPost2010PropOp37
 70
     1
102
RTVSPost2010Prop38
140
0.0
102
RTVSPost2010PropOp38
 70
     1
102
RTVSPost2010Prop39
140
1.0
102
RTVSPost2010PropOp39
 70
     1
102
RTVSPost2010Prop40
 90
        0
102
RTVSPost2010PropOp40
 70
     1
102
RTVSPost2010Prop41ColorIndex
 90
       18
102
RTVSPost2010Prop41ColorRGB
 90
        0
102
RTVSPost2010PropOp41
 70
     1
102
RTVSPost2010Prop42
 90
       50
102
RTVSPost2010PropOp42
 70
     1
102
RTVSPost2010Prop43
 90
        3
102
RTVSPost2010PropOp43
 70
     1
102
RTVSPost2010Prop44ColorIndex
 90
        5
102
RTVSPost2010Prop44ColorRGB
 90
      255
102
RTVSPost2010PropOp44
 70
     1
102
RTVSPost2010Prop45
280
     0
102
RTVSPost2010PropOp45
 70
     1
102
RTVSPost2010Prop46
 90
       50
102
RTVSPost2010PropOp46
 70
     1
102
RTVSPost2010Prop47
 90
       50
102
RTVSPost2010PropOp47
 70
     1
102
RTVSPost2010Prop48
 90
       50
102
RTVSPost2010PropOp48
 70
     1
102
RTVSPost2010Prop49
280
     0
102
RTVSPost2010PropOp49
 70
     1
102
RTVSPost2010Prop50
 90
       50
102
RTVSPost2010PropOp50
 70
     1
102
RTVSPost2010Prop51ColorIndex
 90
      256
102
RTVSPost2010Prop51ColorRGB
 90
-16777216
102
RTVSPost2010PropOp51
 70
     0
102
RTVSPost2010Prop52
140
1.0
102
RTVSPost2010PropOp52
 70
     0
102
RTVSPost2010Prop53
 90
        2
102
RTVSPost2010PropOp53
 70
     1
102
RTVSPost2010Prop54
  1
strokes_ogs.tif
102
RTVSPost2010PropOp54
 70
     1
102
RTVSPost2010Prop55
280
     0
102
RTVSPost2010PropOp55
 70
     1
102
RTVSPost2010Prop56
140
1.0
102
RTVSPost2010PropOp56
 70
     1
102
RTVSPost2010Prop57
140
1.0
102
RTVSPost2010PropOp57
 70
     1
  0
XRECORD
  5
296
102
{ACAD_REACTORS
330
295
102
}
330
295
100
AcDbXrecord
280
     1
102
RTVSPropertyOp0
 70
     1
102
RTVSPropertyOp1
 70
     1
102
RTVSPropertyOp2
 70
     1
102
RTVSPropertyOp3
 70
     1
102
RTVSPropertyOp4
 70
     1
102
RTVSPropertyOp5
 70
     1
102
RTVSPropertyOp6
 70
     1
102
RTVSPropertyOp7
 70
     1
102
RTVSPropertyOp8
 70
     1
102
RTVSPropertyOp9
 70
     1
102
RTVSPropertyOp10
 70
     1
102
RTVSPropertyOp11
 70
     1
102
RTVSPropertyOp12
 70
     1
102
RTVSPropertyOp13
 70
     1
102
RTVSPropertyOp14
 70
     1
102
RTVSPropertyOp15
 70
     1
102
RTVSPropertyOp16
 70
     1
102
RTVSPropertyOp17
 70
     1
102
RTVSPropertyOp18
 70
     1
102
RTVSPropertyOp19
 70
     1
102
RTVSPropertyOp20
 70
     1
102
RTVSPropertyOp21
 70
     1
102
RTVSPropertyOp22
 70
     1
102
RTVSPropertyOp23
 70
     1
102
RTVSPropertyOp24
 70
     1
102
RTVSPropertyOp25
 70
     1
102
RTVSPropertyOp26
 70
     1
102
RTVSPropertyOp27
 70
     1
102
RTVSPropertyOp28
 70
     1
102
RTVSPropertyOp29
 70
     1
102
RTVSPropertyOp30
 70
     1
102
RTVSPropertyOp31
 70
     1
102
RTVSPropertyOp32
 70
     1
102
RTVSPropertyOp33
 70
     1
102
RTVSPropertyOp34
 70
     1
102
RTVSPropertyOp35
 70
     1
102
RTVSPropertyOp36
 70
     1
102
RTVSPropertyOp37
 70
     1
102
RTVSPropertyOp38
 70
     1
102
RTVSPropertyOp39
 70
     1
102
RTVSPropertyOp40
 70
     1
102
RTVSPropertyOp41
 70
     1
102
RTVSPropertyOp42
 70
     1
102
RTVSPropertyOp43
 70
     1
102
RTVSPropertyOp44
 70
     1
102
RTVSPropertyOp45
 70
     1
102
RTVSPropertyOp46
 70
     1
102
RTVSPropertyOp47
 70
     1
102
RTVSPropertyOp48
 70
     1
102
RTVSPropertyOp49
 70
     1
102
RTVSPropertyOp50
 70
     1
102
RTVSPropertyOp51
 70
     0
102
RTVSPropertyOp52
 70
     0
102
RTVSPropertyOp53
 70
     1
102
RTVSPropertyOp54
 70
     1
102
RTVSPropertyOp55
 70
     1
102
RTVSPropertyOp56
 70
     1
102
RTVSPropertyOp57
 70
     1
102
RTVSPost2010Prop28
280
     0
102
RTVSPost2010PropOp28
 70
     1
102
RTVSPost2010Prop29
280
     1
102
RTVSPost2010PropOp29
 70
     1
102
RTVSPost2010Prop30
280
     1
102
RTVSPost2010PropOp30
 70
     1
102
RTVSPost2010Prop31
280
     0
102
RTVSPost2010PropOp31
 70
     1
102
RTVSPost2010Prop32
280
     0
102
RTVSPost2010PropOp32
 70
     1
102
RTVSPost2010Prop33
280
     0
102
RTVSPost2010PropOp33
 70
     1
102
RTVSPost2010Prop34
280
     0
102
RTVSPost2010PropOp34
 70
     1
102
RTVSPost2010Prop35
280
     0
102
RTVSPost2010PropOp35
 70
     1
102
RTVSPost2010Prop36
280
     0
102
RTVSPost2010PropOp36
 70
     1
102
RTVSPost2010Prop37
 90
       50
102
RTVSPost2010PropOp37
 70
     1
102
RTVSPost2010Prop38
140
0.0
102
RTVSPost2010PropOp38
 70
     1
102
RTVSPost2010Prop39
140
1.0
102
RTVSPost2010PropOp39
 70
     1
102
RTVSPost2010Prop40
 90
        0
102
RTVSPost2010PropOp40
 70
     1
102
RTVSPost2010Prop41ColorIndex
 90
       18
102
RTVSPost2010Prop41ColorRGB
 90
        0
102
RTVSPost2010PropOp41
 70
     1
102
RTVSPost2010Prop42
 90
       50
102
RTVSPost2010PropOp42
 70
     1
102
RTVSPost2010Prop43
 90
        3
102
RTVSPost2010PropOp43
 70
     1
102
RTVSPost2010Prop44ColorIndex
 90
        5
102
RTVSPost2010Prop44ColorRGB
 90
      255
102
RTVSPost2010PropOp44
 70
     1
102
RTVSPost2010Prop45
280
     0
102
RTVSPost2010PropOp45
 70
     1
102
RTVSPost2010Prop46
 90
       50
102
RTVSPost2010PropOp46
 70
     1
102
RTVSPost2010Prop47
 90
       50
102
RTVSPost2010PropOp47
 70
     1
102
RTVSPost2010Prop48
 90
       50
102
RTVSPost2010PropOp48
 70
     1
102
RTVSPost2010Prop49
280
     0
102
RTVSPost2010PropOp49
 70
     1
102
RTVSPost2010Prop50
 90
       50
102
RTVSPost2010PropOp50
 70
     1
102
RTVSPost2010Prop51ColorIndex
 90
      256
102
RTVSPost2010Prop51ColorRGB
 90
-16777216
102
RTVSPost2010PropOp51
 70
     0
102
RTVSPost2010Prop52
140
1.0
102
RTVSPost2010PropOp52
 70
     0
102
RTVSPost2010Prop53
 90
        2
102
RTVSPost2010PropOp53
 70
     1
102
RTVSPost2010Prop54
  1
strokes_ogs.tif
102
RTVSPost2010PropOp54
 70
     1
102
RTVSPost2010Prop55
280
     0
102
RTVSPost2010PropOp55
 70
     1
102
RTVSPost2010Prop56
140
1.0
102
RTVSPost2010PropOp56
 70
     1
102
RTVSPost2010Prop57
140
1.0
102
RTVSPost2010PropOp57
 70
     1
  0
XRECORD
  5
2B6
102
{ACAD_REACTORS
330
2B5
102
}
330
2B5
100
AcDbXrecord
280
     1
102
RTVSPropertyOp0
 70
     1
102
RTVSPropertyOp1
 70
     1
102
RTVSPropertyOp2
 70
     1
102
RTVSPropertyOp3
 70
     1
102
RTVSPropertyOp4
 70
     1
102
RTVSPropertyOp5
 70
     1
102
RTVSPropertyOp6
 70
     1
102
RTVSPropertyOp7
 70
     1
102
RTVSPropertyOp8
 70
     1
102
RTVSPropertyOp9
 70
     1
102
RTVSPropertyOp10
 70
     1
102
RTVSPropertyOp11
 70
     1
102
RTVSPropertyOp12
 70
     1
102
RTVSPropertyOp13
 70
     1
102
RTVSPropertyOp14
 70
     1
102
RTVSPropertyOp15
 70
     1
102
RTVSPropertyOp16
 70
     1
102
RTVSPropertyOp17
 70
     1
102
RTVSPropertyOp18
 70
     1
102
RTVSPropertyOp19
 70
     1
102
RTVSPropertyOp20
 70
     1
102
RTVSPropertyOp21
 70
     1
102
RTVSPropertyOp22
 70
     1
102
RTVSPropertyOp23
 70
     1
102
RTVSPropertyOp24
 70
     1
102
RTVSPropertyOp25
 70
     1
102
RTVSPropertyOp26
 70
     1
102
RTVSPropertyOp27
 70
     1
102
RTVSPropertyOp28
 70
     1
102
RTVSPropertyOp29
 70
     1
102
RTVSPropertyOp30
 70
     1
102
RTVSPropertyOp31
 70
     1
102
RTVSPropertyOp32
 70
     1
102
RTVSPropertyOp33
 70
     1
102
RTVSPropertyOp34
 70
     1
102
RTVSPropertyOp35
 70
     1
102
RTVSPropertyOp36
 70
     1
102
RTVSPropertyOp37
 70
     1
102
RTVSPropertyOp38
 70
     1
102
RTVSPropertyOp39
 70
     1
102
RTVSPropertyOp40
 70
     1
102
RTVSPropertyOp41
 70
     1
102
RTVSPropertyOp42
 70
     1
102
RTVSPropertyOp43
 70
     1
102
RTVSPropertyOp44
 70
     1
102
RTVSPropertyOp45
 70
     1
102
RTVSPropertyOp46
 70
     1
102
RTVSPropertyOp47
 70
     1
102
RTVSPropertyOp48
 70
     1
102
RTVSPropertyOp49
 70
     1
102
RTVSPropertyOp50
 70
     1
102
RTVSPropertyOp51
 70
     0
102
RTVSPropertyOp52
 70
     0
102
RTVSPropertyOp53
 70
     1
102
RTVSPropertyOp54
 70
     1
102
RTVSPropertyOp55
 70
     1
102
RTVSPropertyOp56
 70
     1
102
RTVSPropertyOp57
 70
     1
102
RTVSPost2010Prop28
280
     0
102
RTVSPost2010PropOp28
 70
     1
102
RTVSPost2010Prop29
280
     1
102
RTVSPost2010PropOp29
 70
     1
102
RTVSPost2010Prop30
280
     1
102
RTVSPost2010PropOp30
 70
     1
102
RTVSPost2010Prop31
280
     0
102
RTVSPost2010PropOp31
 70
     1
102
RTVSPost2010Prop32
280
     0
102
RTVSPost2010PropOp32
 70
     1
102
RTVSPost2010Prop33
280
     0
102
RTVSPost2010PropOp33
 70
     1
102
RTVSPost2010Prop34
280
     0
102
RTVSPost2010PropOp34
 70
     1
102
RTVSPost2010Prop35
280
     0
102
RTVSPost2010PropOp35
 70
     1
102
RTVSPost2010Prop36
280
     0
102
RTVSPost2010PropOp36
 70
     1
102
RTVSPost2010Prop37
 90
       50
102
RTVSPost2010PropOp37
 70
     1
102
RTVSPost2010Prop38
140
0.0
102
RTVSPost2010PropOp38
 70
     1
102
RTVSPost2010Prop39
140
1.0
102
RTVSPost2010PropOp39
 70
     1
102
RTVSPost2010Prop40
 90
        0
102
RTVSPost2010PropOp40
 70
     1
102
RTVSPost2010Prop41ColorIndex
 90
       18
102
RTVSPost2010Prop41ColorRGB
 90
        0
102
RTVSPost2010PropOp41
 70
     1
102
RTVSPost2010Prop42
 90
       50
102
RTVSPost2010PropOp42
 70
     1
102
RTVSPost2010Prop43
 90
        3
102
RTVSPost2010PropOp43
 70
     1
102
RTVSPost2010Prop44ColorIndex
 90
        5
102
RTVSPost2010Prop44ColorRGB
 90
      255
102
RTVSPost2010PropOp44
 70
     1
102
RTVSPost2010Prop45
280
     0
102
RTVSPost2010PropOp45
 70
     1
102
RTVSPost2010Prop46
 90
       50
102
RTVSPost2010PropOp46
 70
     1
102
RTVSPost2010Prop47
 90
       50
102
RTVSPost2010PropOp47
 70
     1
102
RTVSPost2010Prop48
 90
       50
102
RTVSPost2010PropOp48
 70
     1
102
RTVSPost2010Prop49
280
     0
102
RTVSPost2010PropOp49
 70
     1
102
RTVSPost2010Prop50
 90
       50
102
RTVSPost2010PropOp50
 70
     1
102
RTVSPost2010Prop51ColorIndex
 90
      256
102
RTVSPost2010Prop51ColorRGB
 90
-16777216
102
RTVSPost2010PropOp51
 70
     0
102
RTVSPost2010Prop52
140
1.0
102
RTVSPost2010PropOp52
 70
     0
102
RTVSPost2010Prop53
 90
        2
102
RTVSPost2010PropOp53
 70
     1
102
RTVSPost2010Prop54
  1
strokes_ogs.tif
102
RTVSPost2010PropOp54
 70
     1
102
RTVSPost2010Prop55
280
     0
102
RTVSPost2010PropOp55
 70
     1
102
RTVSPost2010Prop56
140
1.0
102
RTVSPost2010PropOp56
 70
     1
102
RTVSPost2010Prop57
140
1.0
102
RTVSPost2010PropOp57
 70
     1
  0
ENDSEC
  0
EOF
