  0
SECTION
  2
HEADER
  9
$ACADVER
  1
AC1015
  9
$ACADMAINTVER
 70
    20
  9
$DWGCODEPAGE
  3
ANSI_932
  9
$INSBASE
 10
0.0
 20
0.0
 30
0.0
  9
$EXTMIN
 10
203850.8803683551
 20
13352.46376233559
 30
-0.0000000000000058
  9
$EXTMAX
 10
210168.3076558128
 20
17808.9008172339
 30
0.0000000000000104
  9
$LIMMIN
 10
0.0
 20
0.0
  9
$LIMMAX
 10
420.0
 20
297.0
  9
$ORTHOMODE
 70
     1
  9
$REGENMODE
 70
     1
  9
$FILLMODE
 70
     1
  9
$QTEXTMODE
 70
     0
  9
$MIRRTEXT
 70
     1
  9
$LTSCALE
 40
50.0
  9
$ATTMODE
 70
     1
  9
$TEXTSIZE
 40
0.2
  9
$TRACEWID
 40
0.05
  9
$TEXTSTYLE
  7
YOKO_GOTHIC
  9
$CLAYER
  8
D-STR　構造物外形線
  9
$CELTYPE
  6
ByLayer
  9
$CECOLOR
 62
   256
  9
$CELTSCALE
 40
1.0
  9
$DISPSILH
 70
     0
  9
$DIMSCALE
 40
40.0
  9
$DIMASZ
 40
3.0
  9
$DIMEXO
 40
1.6
  9
$DIMDLI
 40
0.38
  9
$DIMRND
 40
0.0
  9
$DIMDLE
 40
0.0
  9
$DIMEXE
 40
1.199999999999999
  9
$DIMTP
 40
0.0
  9
$DIMTM
 40
0.0
  9
$DIMTXT
 40
2.5
  9
$DIMCEN
 40
0.09
  9
$DIMTSZ
 40
0.0
  9
$DIMTOL
 70
     0
  9
$DIMLIM
 70
     0
  9
$DIMTIH
 70
     0
  9
$DIMTOH
 70
     0
  9
$DIMSE1
 70
     0
  9
$DIMSE2
 70
     0
  9
$DIMTAD
 70
     1
  9
$DIMZIN
 70
     8
  9
$DIMBLK
  1
DotSmall
  9
$DIMASO
 70
     1
  9
$DIMSHO
 70
     1
  9
$DIMPOST
  1

  9
$DIMAPOST
  1

  9
$DIMALT
 70
     0
  9
$DIMALTD
 70
     2
  9
$DIMALTF
 40
25.4
  9
$DIMLFAC
 40
1.0
  9
$DIMTOFL
 70
     1
  9
$DIMTVP
 40
0.0
  9
$DIMTIX
 70
     1
  9
$DIMSOXD
 70
     1
  9
$DIMSAH
 70
     0
  9
$DIMBLK1
  1

  9
$DIMBLK2
  1

  9
$DIMSTYLE
  2
1-40
  9
$DIMCLRD
 70
     0
  9
$DIMCLRE
 70
     0
  9
$DIMCLRT
 70
     0
  9
$DIMTFAC
 40
1.0
  9
$DIMGAP
 40
0.8877599999999999
  9
$DIMJUST
 70
     0
  9
$DIMSD1
 70
     0
  9
$DIMSD2
 70
     0
  9
$DIMTOLJ
 70
     1
  9
$DIMTZIN
 70
     0
  9
$DIMALTZ
 70
     0
  9
$DIMALTTZ
 70
     0
  9
$DIMUPT
 70
     0
  9
$DIMDEC
 70
     1
  9
$DIMTDEC
 70
     1
  9
$DIMALTU
 70
     2
  9
$DIMALTTD
 70
     2
  9
$DIMTXSTY
  7
YOKO_GOTHIC
  9
$DIMAUNIT
 70
     0
  9
$DIMADEC
 70
     0
  9
$DIMALTRND
 40
0.0
  9
$DIMAZIN
 70
     2
  9
$DIMDSEP
 70
     0
  9
$DIMATFIT
 70
     3
  9
$DIMFRAC
 70
     0
  9
$DIMLDRBLK
  1
OPEN30
  9
$DIMLUNIT
 70
     2
  9
$DIMLWD
 70
    -2
  9
$DIMLWE
 70
    -2
  9
$DIMTMOVE
 70
     0
  9
$LUNITS
 70
     2
  9
$LUPREC
 70
     4
  9
$SKETCHINC
 40
0.1
  9
$FILLETRAD
 40
6.0
  9
$AUNITS
 70
     0
  9
$AUPREC
 70
     0
  9
$MENU
  1
acad
  9
$ELEVATION
 40
0.0
  9
$PELEVATION
 40
0.0
  9
$THICKNESS
 40
0.0
  9
$LIMCHECK
 70
     0
  9
$CHAMFERA
 40
0.0
  9
$CHAMFERB
 40
0.0
  9
$CHAMFERC
 40
0.0
  9
$CHAMFERD
 40
0.0
  9
$SKPOLY
 70
     0
  9
$TDCREATE
 40
2455426.923043982
  9
$TDUCREATE
 40
2455426.548043982
  9
$TDUPDATE
 40
2457163.697137118
  9
$TDUUPDATE
 40
2457163.322137118
  9
$TDINDWG
 40
0.6497159954
  9
$TDUSRTIMER
 40
0.6497159954
  9
$USRTIMER
 70
     1
  9
$ANGBASE
 50
0.0
  9
$ANGDIR
 70
     0
  9
$PDMODE
 70
     0
  9
$PDSIZE
 40
0.0
  9
$PLINEWID
 40
0.0
  9
$SPLFRAME
 70
     0
  9
$SPLINETYPE
 70
     6
  9
$SPLINESEGS
 70
     8
  9
$HANDSEED
  5
35132
  9
$SURFTAB1
 70
     6
  9
$SURFTAB2
 70
     6
  9
$SURFTYPE
 70
     6
  9
$SURFU
 70
     6
  9
$SURFV
 70
     6
  9
$UCSBASE
  2

  9
$UCSNAME
  2

  9
$UCSORG
 10
0.0
 20
0.0
 30
0.0
  9
$UCSXDIR
 10
1.0
 20
0.0
 30
0.0
  9
$UCSYDIR
 10
0.0
 20
1.0
 30
0.0
  9
$UCSORTHOREF
  2

  9
$UCSORTHOVIEW
 70
     0
  9
$UCSORGTOP
 10
0.0
 20
0.0
 30
0.0
  9
$UCSORGBOTTOM
 10
0.0
 20
0.0
 30
0.0
  9
$UCSORGLEFT
 10
0.0
 20
0.0
 30
0.0
  9
$UCSORGRIGHT
 10
0.0
 20
0.0
 30
0.0
  9
$UCSORGFRONT
 10
0.0
 20
0.0
 30
0.0
  9
$UCSORGBACK
 10
0.0
 20
0.0
 30
0.0
  9
$PUCSBASE
  2

  9
$PUCSNAME
  2

  9
$PUCSORG
 10
0.0
 20
0.0
 30
0.0
  9
$PUCSXDIR
 10
1.0
 20
0.0
 30
0.0
  9
$PUCSYDIR
 10
0.0
 20
1.0
 30
0.0
  9
$PUCSORTHOREF
  2

  9
$PUCSORTHOVIEW
 70
     0
  9
$PUCSORGTOP
 10
0.0
 20
0.0
 30
0.0
  9
$PUCSORGBOTTOM
 10
0.0
 20
0.0
 30
0.0
  9
$PUCSORGLEFT
 10
0.0
 20
0.0
 30
0.0
  9
$PUCSORGRIGHT
 10
0.0
 20
0.0
 30
0.0
  9
$PUCSORGFRONT
 10
0.0
 20
0.0
 30
0.0
  9
$PUCSORGBACK
 10
0.0
 20
0.0
 30
0.0
  9
$USERI1
 70
     0
  9
$USERI2
 70
     0
  9
$USERI3
 70
     0
  9
$USERI4
 70
     0
  9
$USERI5
 70
     0
  9
$USERR1
 40
0.0
  9
$USERR2
 40
0.0
  9
$USERR3
 40
0.0
  9
$USERR4
 40
0.0
  9
$USERR5
 40
0.0
  9
$WORLDVIEW
 70
     1
  9
$SHADEDGE
 70
     3
  9
$SHADEDIF
 70
    70
  9
$TILEMODE
 70
     1
  9
$MAXACTVP
 70
    16
  9
$PINSBASE
 10
0.0
 20
0.0
 30
0.0
  9
$PLIMCHECK
 70
     0
  9
$PEXTMIN
 10
1.122749993181603
 20
0.7804166500962629
 30
0.0
  9
$PEXTMAX
 10
10.10474993863444
 20
7.023749850866362
 30
0.0
  9
$PLIMMIN
 10
-0.2312499519408218
 20
-0.2312499894870548
  9
$PLIMMAX
 10
11.45874984621063
 20
8.035416452903447
  9
$UNITMODE
 70
     0
  9
$VISRETAIN
 70
     0
  9
$PLINEGEN
 70
     1
  9
$PSLTSCALE
 70
     0
  9
$TREEDEPTH
 70
  3020
  9
$CMLSTYLE
  2
Standard
  9
$CMLJUST
 70
     0
  9
$CMLSCALE
 40
1.0
  9
$PROXYGRAPHICS
 70
     0
  9
$MEASUREMENT
 70
     0
  9
$CELWEIGHT
370
    -1
  9
$ENDCAPS
280
     0
  9
$JOINSTYLE
280
     0
  9
$LWDISPLAY
290
     0
  9
$INSUNITS
 70
     0
  9
$HYPERLINKBASE
  1

  9
$STYLESHEET
  1
monochrome.ctb
  9
$XEDIT
290
     1
  9
$CEPSNTYPE
380
     0
  9
$PSTYLEMODE
290
     1
  9
$FINGERPRINTGUID
  2

  9
$VERSIONGUID
  2
{8891C902-C265-4508-9391-4B3F112F227A}
  9
$EXTNAMES
290
     1
  9
$PSVPSCALE
 40
0.0
  9
$OLESTARTUP
290
     0
  0
ENDSEC
  0
SECTION
  2
CLASSES
  0
CLASS
  1
IMAGE
  2
AcDbRasterImage
  3
ISM
 90
    32895
280
     0
281
     1
  0
CLASS
  1
DICTIONARYVAR
  2
AcDbDictionaryVar
  3
ObjectDBX Classes
 90
        0
280
     0
281
     0
  0
CLASS
  1
RASTERVARIABLES
  2
AcDbRasterVariables
  3
ISM
 90
    32768
280
     0
281
     0
  0
CLASS
  1
IMAGEDEF
  2
AcDbRasterImageDef
  3
ISM
 90
    32768
280
     0
281
     0
  0
CLASS
  1
IMAGEDEF_REACTOR
  2
AcDbRasterImageDefReactor
  3
ISM
 90
    32769
280
     0
281
     0
  0
CLASS
  1
IDBUFFER
  2
AcDbIdBuffer
  3
ObjectDBX Classes
 90
    32768
280
     0
281
     0
  0
CLASS
  1
SPATIAL_FILTER
  2
AcDbSpatialFilter
  3
ObjectDBX Classes
 90
    32768
280
     0
281
     0
  0
CLASS
  1
SORTENTSTABLE
  2
AcDbSortentsTable
  3
ObjectDBX Classes
 90
        0
280
     0
281
     0
  0
CLASS
  1
LAYER_INDEX
  2
AcDbLayerIndex
  3
ObjectDBX Classes
 90
    32768
280
     0
281
     0
  0
CLASS
  1
SPATIAL_INDEX
  2
AcDbSpatialIndex
  3
ObjectDBX Classes
 90
    32768
280
     0
281
     0
  0
CLASS
  1
OBJECT_PTR
  2
CAseDLPNTableRecord
  3
"ASE-LPNTableRecord"
 90
    32769
280
     0
281
     0
  0
CLASS
  1
LAYOUT
  2
AcDbLayout
  3
ObjectDBX Classes
 90
        0
280
     0
281
     0
  0
CLASS
  1
PLOTSETTINGS
  2
AcDbPlotSettings
  3
ObjectDBX Classes
 90
    32768
280
     0
281
     0
  0
CLASS
  1
ACDBDICTIONARYWDFLT
  2
AcDbDictionaryWithDefault
  3
ObjectDBX Classes
 90
        0
280
     0
281
     0
  0
CLASS
  1
ACDBPLACEHOLDER
  2
AcDbPlaceHolder
  3
ObjectDBX Classes
 90
        0
280
     0
281
     0
  0
CLASS
  1
TABLESTYLE
  2
AcDbTableStyle
  3
ObjectDBX Classes
 90
     4095
280
     0
281
     0
  0
CLASS
  1
DIMASSOC
  2
AcDbDimAssoc
  3
"AcDbDimAssoc|Product Desc:     AcDim ARX App For Dimension|Company:          Autodesk, Inc.|WEB Address:      www.autodesk.com"
 90
    32768
280
     0
281
     0
  0
CLASS
  1
MATERIAL
  2
AcDbMaterial
  3
ObjectDBX Classes
 90
     1024
280
     0
281
     0
  0
CLASS
  1
VISUALSTYLE
  2
AcDbVisualStyle
  3
ObjectDBX Classes
 90
     4095
280
     0
281
     0
  0
ENDSEC
  0
SECTION
  2
TABLES
  0
TABLE
  2
VPORT
  5
7
102
{ACAD_XDICTIONARY
360
350C9
102
}
330
0
100
AcDbSymbolTable
 70
     1
  0
VPORT
  5
350A2
330
7
100
AcDbSymbolTableRecord
100
AcDbViewportTableRecord
  2
*Active
 70
     0
 10
0.0
 20
0.0
 11
1.0
 21
1.0
 12
207009.594012084
 22
15580.68228978474
 13
0.0
 23
0.0
 14
1.0
 24
1.0
 15
0.0
 25
0.0
 16
0.0
 26
0.0
 36
1.0
 17
0.0
 27
0.0
 37
0.0
 40
4499.356191863626
 41
1.435691318327974
 42
50.0
 43
0.0
 44
0.0
 50
0.0
 51
0.0
 71
     0
 72
   100
 73
     1
 74
     1
 75
     0
 76
     0
 77
     0
 78
     0
281
     0
 65
     0
110
0.0
120
0.0
130
0.0
111
1.0
121
0.0
131
0.0
112
0.0
122
1.0
132
0.0
 79
     0
146
0.0
  0
ENDTAB
  0
TABLE
  2
LTYPE
  5
4
330
0
100
AcDbSymbolTable
 70
     3
  0
LTYPE
  5
11
330
4
100
AcDbSymbolTableRecord
100
AcDbLinetypeTableRecord
  2
ByBlock
 70
     0
  3

 72
    65
 73
     0
 40
0.0
  0
LTYPE
  5
12
330
4
100
AcDbSymbolTableRecord
100
AcDbLinetypeTableRecord
  2
ByLayer
 70
     0
  3

 72
    65
 73
     0
 40
0.0
  0
LTYPE
  5
13
330
4
100
AcDbSymbolTableRecord
100
AcDbLinetypeTableRecord
  2
Continuous
 70
     0
  3
Solid line
 72
    65
 73
     0
 40
0.0
  0
LTYPE
  5
43
330
4
100
AcDbSymbolTableRecord
100
AcDbLinetypeTableRecord
  2
DOT
 70
     0
  3
DOT
 72
    65
 73
     2
 40
5.009999999999999
 49
0.01
 74
     0
 49
-5.0
 74
     0
  0
LTYPE
  5
321BF
330
4
100
AcDbSymbolTableRecord
100
AcDbLinetypeTableRecord
  2
STYLE_01
 70
     0
  3

 72
    65
 73
     2
 40
1.476377952755905
 49
0.9842519685039368
 74
     0
 49
-0.4921259842519686
 74
     0
  0
ENDTAB
  0
TABLE
  2
LAYER
  5
2
102
{ACAD_XDICTIONARY
360
891
102
}
330
0
100
AcDbSymbolTable
 70
    10
  0
LAYER
  5
14
330
2
100
AcDbSymbolTableRecord
100
AcDbLayerTableRecord
  2
0
 70
     0
 62
     7
  6
Continuous
370
    -3
390
1D
  0
LAYER
  5
750
330
2
100
AcDbSymbolTableRecord
100
AcDbLayerTableRecord
  2
D-TTL-FRAM　タイトル枠、凡例図枠
 70
     0
 62
     2
  6
Continuous
370
    50
390
1D
  0
LAYER
  5
751
330
2
100
AcDbSymbolTableRecord
100
AcDbLayerTableRecord
  2
D-TTL　外枠
 70
     0
 62
     2
  6
Continuous
370
   140
390
1D
  0
LAYER
  5
757
330
2
100
AcDbSymbolTableRecord
100
AcDbLayerTableRecord
  2
D-STR-HTXT　旗上げ
 70
     0
 62
     7
  6
Continuous
370
    13
390
1D
  0
LAYER
  5
759
330
2
100
AcDbSymbolTableRecord
100
AcDbLayerTableRecord
  2
D-STR-DIM　寸法線、寸法値
 70
     0
 62
     7
  6
Continuous
370
    13
390
1D
  0
LAYER
  5
75A
330
2
100
AcDbSymbolTableRecord
100
AcDbLayerTableRecord
  2
D-STR　構造物外形線
 70
     0
 62
     1
  6
Continuous
370
    25
390
1D
  0
LAYER
  5
881
330
2
100
AcDbSymbolTableRecord
100
AcDbLayerTableRecord
  2
Defpoints
 70
     0
 62
     7
  6
Continuous
290
     0
370
    -3
390
1D
  0
LAYER
  5
FFE
102
{ACAD_XDICTIONARY
360
FFF
102
}
330
2
100
AcDbSymbolTableRecord
100
AcDbLayerTableRecord
  2
D-TTL-LINE　区切り線、罫線
 70
     0
 62
     7
  6
Continuous
370
    25
390
1D
  0
LAYER
  5
1001
102
{ACAD_XDICTIONARY
360
1002
102
}
330
2
100
AcDbSymbolTableRecord
100
AcDbLayerTableRecord
  2
D-TTL-TXT　文字列
 70
     0
 62
     7
  6
Continuous
370
    13
390
1D
  0
LAYER
  5
1DC40
102
{ACAD_XDICTIONARY
360
1DC41
102
}
330
2
100
AcDbSymbolTableRecord
100
AcDbLayerTableRecord
  2
D-DOC　文章(説明、指示、参照事項等)
 70
     0
 62
     7
  6
Continuous
370
    13
390
1D
1001
AcAecLayerStandard
1000

1000

  0
ENDTAB
  0
TABLE
  2
STYLE
  5
3
330
0
100
AcDbSymbolTable
 70
     7
  0
STYLE
  5
17
330
3
100
AcDbSymbolTableRecord
100
AcDbTextStyleTableRecord
  2
Standard
 70
     0
 40
0.0
 41
1.0
 50
0.0
 71
     0
 42
0.0
  3
txt
  4

  0
STYLE
  5
764
330
3
100
AcDbSymbolTableRecord
100
AcDbTextStyleTableRecord
  2
YOKO_GOTHIC
 70
     0
 40
0.0
 41
1.0
 50
0.0
 71
     0
 42
0.2
  3

  4

1001
ACAD
1000
MS Gothic
1071
    32817
  0
STYLE
  5
321CC
330
3
100
AcDbSymbolTableRecord
100
AcDbTextStyleTableRecord
  2
ＭＳ ゴシック
 70
     0
 40
0.0
 41
1.0
 50
0.0
 71
     0
 42
0.0
  3

  4

1001
ACAD
1000
MS Gothic
1071
    32817
  0
STYLE
  5
34F8F
330
3
100
AcDbSymbolTableRecord
100
AcDbTextStyleTableRecord
  2
YOKO
 70
     0
 40
0.0
 41
1.0
 50
0.0
 71
     0
 42
0.0
  3
monotxt
  4
bigfont
  0
STYLE
  5
34F90
330
3
100
AcDbSymbolTableRecord
100
AcDbTextStyleTableRecord
  2
YOKO_MINCHO
 70
     0
 40
0.0
 41
1.0
 50
0.0
 71
     0
 42
0.0
  3

  4

1001
ACAD
1000
MS Mincho
1071
    32785
  0
STYLE
  5
34F91
330
3
100
AcDbSymbolTableRecord
100
AcDbTextStyleTableRecord
  2
YOKO_PMINCHO
 70
     0
 40
0.0
 41
1.0
 50
0.0
 71
     0
 42
0.0
  3

  4

1001
ACAD
1000
MS PMincho
1071
    32786
  0
STYLE
  5
34F92
330
3
100
AcDbSymbolTableRecord
100
AcDbTextStyleTableRecord
  2
YOKO_PGOTHIC
 70
     0
 40
0.0
 41
1.0
 50
0.0
 71
     0
 42
0.0
  3

  4

1001
ACAD
1000
MS PGothic
1071
    32818
  0
ENDTAB
  0
TABLE
  2
VIEW
  5
5
330
0
100
AcDbSymbolTable
 70
     0
  0
ENDTAB
  0
TABLE
  2
UCS
  5
6
330
0
100
AcDbSymbolTable
 70
     0
  0
ENDTAB
  0
TABLE
  2
APPID
  5
8
330
0
100
AcDbSymbolTable
 70
    15
  0
APPID
  5
16
330
8
100
AcDbSymbolTableRecord
100
AcDbRegAppTableRecord
  2
ACAD
 70
     0
  0
APPID
  5
7D0
330
8
100
AcDbSymbolTableRecord
100
AcDbRegAppTableRecord
  2
ACAD_DSTYLE_DIMTEXT_FILL
 70
     0
  0
APPID
  5
895
330
8
100
AcDbSymbolTableRecord
100
AcDbRegAppTableRecord
  2
AcAecLayerStandard
 70
     0
  0
APPID
  5
8B8
330
8
100
AcDbSymbolTableRecord
100
AcDbRegAppTableRecord
  2
ACAD_PSEXT
 70
     0
  0
APPID
  5
102E
330
8
100
AcDbSymbolTableRecord
100
AcDbRegAppTableRecord
  2
ACAD_DSTYLE_DIMEXT_LENGTH
 70
     0
  0
APPID
  5
102F
330
8
100
AcDbSymbolTableRecord
100
AcDbRegAppTableRecord
  2
ACAD_DSTYLE_DIMJOGGED_JOGANGLE_SYMBOL
 70
     0
  0
APPID
  5
1030
330
8
100
AcDbSymbolTableRecord
100
AcDbRegAppTableRecord
  2
ACAD_DSTYLE_DIM_LINETYPE
 70
     0
  0
APPID
  5
1031
330
8
100
AcDbSymbolTableRecord
100
AcDbRegAppTableRecord
  2
ACAD_DSTYLE_DIM_EXT1_LINETYPE
 70
     0
  0
APPID
  5
1032
330
8
100
AcDbSymbolTableRecord
100
AcDbRegAppTableRecord
  2
ACAD_DSTYLE_DIM_EXT2_LINETYPE
 70
     0
  0
APPID
  5
1033
330
8
100
AcDbSymbolTableRecord
100
AcDbRegAppTableRecord
  2
ACAD_DSTYLE_DIMJAG
 70
     0
  0
APPID
  5
1034
330
8
100
AcDbSymbolTableRecord
100
AcDbRegAppTableRecord
  2
ACAD_DSTYLE_DIMBREAK
 70
     0
  0
APPID
  5
1035
330
8
100
AcDbSymbolTableRecord
100
AcDbRegAppTableRecord
  2
ACAD_DSTYLE_DIMTALN
 70
     0
  0
APPID
  5
A2FB
330
8
100
AcDbSymbolTableRecord
100
AcDbRegAppTableRecord
  2
RAK
 70
     0
  0
APPID
  5
EC7F
330
8
100
AcDbSymbolTableRecord
100
AcDbRegAppTableRecord
  2
GENIUS_GENODEF_13
 70
     0
  0
APPID
  5
EC80
330
8
100
AcDbSymbolTableRecord
100
AcDbRegAppTableRecord
  2
GENIUS_GENOBJ-N-FIL_13
 70
     0
  0
ENDTAB
  0
TABLE
  2
DIMSTYLE
  5
9
330
0
100
AcDbSymbolTable
 70
     8
100
AcDbDimStyleTable
 71
     2
340
B41
340
30952
  0
DIMSTYLE
105
B41
330
9
100
AcDbSymbolTableRecord
100
AcDbDimStyleTableRecord
  2
1-40
 70
     0
 40
40.0
 41
3.0
 42
1.6
 44
1.199999999999999
 73
     0
 74
     0
 77
     1
 78
     8
 79
     2
140
2.5
147
0.8877599999999999
172
     1
174
     1
175
     1
271
     1
272
     1
278
     0
340
764
341
78C
342
CFB
  0
DIMSTYLE
105
3861
330
9
100
AcDbSymbolTableRecord
100
AcDbDimStyleTableRecord
  2
Standard
 70
     0
340
17
  0
DIMSTYLE
105
30952
102
{ACAD_REACTORS
330
31A44
330
31A45
330
31A46
330
31A47
330
341CD
330
341CE
330
341CF
330
341D0
330
341D1
330
341D2
330
34383
330
34384
330
34385
330
34386
330
34387
330
3445D
330
3445E
330
3445F
330
34460
330
34461
330
34501
330
34502
330
34503
330
34504
330
34552
330
345BD
330
34AAF
330
34DB0
330
34DCF
102
}
330
9
100
AcDbSymbolTableRecord
100
AcDbDimStyleTableRecord
  2
1-15
 70
     0
 40
15.0
 41
3.0
 42
1.6
 44
1.199999999999999
 73
     0
 74
     0
 77
     1
 78
     8
 79
     2
140
2.5
147
0.8877599999999999
172
     1
174
     1
175
     1
271
     1
272
     1
278
     0
340
764
341
78C
342
CFB
  0
DIMSTYLE
105
34F93
330
9
100
AcDbSymbolTableRecord
100
AcDbDimStyleTableRecord
  2
Vnas
 70
     0
 73
     0
 74
     0
 77
     1
173
     1
340
34F8F
  0
DIMSTYLE
105
34F94
330
9
100
AcDbSymbolTableRecord
100
AcDbDimStyleTableRecord
  2
Vnas_Mincho
 70
     0
 73
     0
 74
     0
 77
     1
173
     1
340
34F90
  0
DIMSTYLE
105
34F95
330
9
100
AcDbSymbolTableRecord
100
AcDbDimStyleTableRecord
  2
Vnas_Gothic
 70
     0
 73
     0
 74
     0
 77
     1
173
     1
340
764
  0
DIMSTYLE
105
34F96
330
9
100
AcDbSymbolTableRecord
100
AcDbDimStyleTableRecord
  2
Vnas_PMincho
 70
     0
 73
     0
 74
     0
 77
     1
173
     1
340
34F91
  0
DIMSTYLE
105
34F97
330
9
100
AcDbSymbolTableRecord
100
AcDbDimStyleTableRecord
  2
Vnas_PGothic
 70
     0
 73
     0
 74
     0
 77
     1
173
     1
340
34F92
  0
ENDTAB
  0
TABLE
  2
BLOCK_RECORD
  5
1
330
0
100
AcDbSymbolTable
 70
    32
  0
BLOCK_RECORD
  5
A
102
{ACAD_XDICTIONARY
360
C53
102
}
330
1
100
AcDbSymbolTableRecord
100
AcDbBlockTableRecord
  2
*MODEL_SPACE
340
20
  0
BLOCK_RECORD
  5
B
330
1
100
AcDbSymbolTableRecord
100
AcDbBlockTableRecord
  2
*PAPER_SPACE
340
21
  0
BLOCK_RECORD
  5
78C
330
1
100
AcDbSymbolTableRecord
100
AcDbBlockTableRecord
  2
_OPEN30
340
0
  0
BLOCK_RECORD
  5
CFB
330
1
100
AcDbSymbolTableRecord
100
AcDbBlockTableRecord
  2
_DotSmall
340
0
102
{BLKREFS
331
34816
331
34817
331
3482D
331
3482E
331
34836
331
34837
331
3483F
331
34840
331
34848
331
34849
331
34851
331
34852
331
3485A
331
3485B
331
34890
331
34891
331
34E48
331
34E49
331
34E51
331
34E52
331
34E6C
331
34E6D
331
34E75
331
34E76
331
34F1B
331
34F1C
331
3500F
331
35010
331
35018
331
35019
331
35021
331
35022
331
35038
331
35039
331
35041
331
35042
331
3504A
331
3504B
331
35053
331
35054
331
3505C
331
3505D
331
35065
331
35066
331
3506E
331
3506F
331
35079
331
3507A
331
35082
331
35083
102
}
  0
BLOCK_RECORD
  5
249E1
102
{ACAD_XDICTIONARY
360
249E2
102
}
330
1
100
AcDbSymbolTableRecord
100
AcDbBlockTableRecord
  2
A$C0B7D5268
340
0
102
{BLKREFS
331
345F5
102
}
  0
BLOCK_RECORD
  5
31BC5
330
1
100
AcDbSymbolTableRecord
100
AcDbBlockTableRecord
  2
*D3
340
0
  0
BLOCK_RECORD
  5
31BD1
330
1
100
AcDbSymbolTableRecord
100
AcDbBlockTableRecord
  2
*D4
340
0
  0
BLOCK_RECORD
  5
31BDB
330
1
100
AcDbSymbolTableRecord
100
AcDbBlockTableRecord
  2
*D5
340
0
  0
BLOCK_RECORD
  5
31BE5
330
1
100
AcDbSymbolTableRecord
100
AcDbBlockTableRecord
  2
*D6
340
0
  0
BLOCK_RECORD
  5
341D3
330
1
100
AcDbSymbolTableRecord
100
AcDbBlockTableRecord
  2
*D7
340
0
  0
BLOCK_RECORD
  5
341DF
330
1
100
AcDbSymbolTableRecord
100
AcDbBlockTableRecord
  2
*D8
340
0
  0
BLOCK_RECORD
  5
341EB
330
1
100
AcDbSymbolTableRecord
100
AcDbBlockTableRecord
  2
*D9
340
0
  0
BLOCK_RECORD
  5
341F7
330
1
100
AcDbSymbolTableRecord
100
AcDbBlockTableRecord
  2
*D10
340
0
  0
BLOCK_RECORD
  5
34203
330
1
100
AcDbSymbolTableRecord
100
AcDbBlockTableRecord
  2
*D11
340
0
  0
BLOCK_RECORD
  5
3420F
330
1
100
AcDbSymbolTableRecord
100
AcDbBlockTableRecord
  2
*D12
340
0
  0
BLOCK_RECORD
  5
34388
330
1
100
AcDbSymbolTableRecord
100
AcDbBlockTableRecord
  2
*D13
340
0
  0
BLOCK_RECORD
  5
34394
330
1
100
AcDbSymbolTableRecord
100
AcDbBlockTableRecord
  2
*D14
340
0
  0
BLOCK_RECORD
  5
343A0
330
1
100
AcDbSymbolTableRecord
100
AcDbBlockTableRecord
  2
*D15
340
0
  0
BLOCK_RECORD
  5
343AC
330
1
100
AcDbSymbolTableRecord
100
AcDbBlockTableRecord
  2
*D16
340
0
  0
BLOCK_RECORD
  5
343B8
330
1
100
AcDbSymbolTableRecord
100
AcDbBlockTableRecord
  2
*D17
340
0
  0
BLOCK_RECORD
  5
34463
330
1
100
AcDbSymbolTableRecord
100
AcDbBlockTableRecord
  2
*D18
340
0
  0
BLOCK_RECORD
  5
3446F
330
1
100
AcDbSymbolTableRecord
100
AcDbBlockTableRecord
  2
*D19
340
0
  0
BLOCK_RECORD
  5
3447B
330
1
100
AcDbSymbolTableRecord
100
AcDbBlockTableRecord
  2
*D20
340
0
  0
BLOCK_RECORD
  5
34487
330
1
100
AcDbSymbolTableRecord
100
AcDbBlockTableRecord
  2
*D21
340
0
  0
BLOCK_RECORD
  5
34493
330
1
100
AcDbSymbolTableRecord
100
AcDbBlockTableRecord
  2
*D22
340
0
  0
BLOCK_RECORD
  5
34505
330
1
100
AcDbSymbolTableRecord
100
AcDbBlockTableRecord
  2
*D23
340
0
  0
BLOCK_RECORD
  5
34511
330
1
100
AcDbSymbolTableRecord
100
AcDbBlockTableRecord
  2
*D24
340
0
  0
BLOCK_RECORD
  5
3451B
330
1
100
AcDbSymbolTableRecord
100
AcDbBlockTableRecord
  2
*D25
340
0
  0
BLOCK_RECORD
  5
34525
330
1
100
AcDbSymbolTableRecord
100
AcDbBlockTableRecord
  2
*D26
340
0
  0
BLOCK_RECORD
  5
34553
330
1
100
AcDbSymbolTableRecord
100
AcDbBlockTableRecord
  2
*D27
340
0
  0
BLOCK_RECORD
  5
345BE
330
1
100
AcDbSymbolTableRecord
100
AcDbBlockTableRecord
  2
*D28
340
0
  0
BLOCK_RECORD
  5
34AB0
330
1
100
AcDbSymbolTableRecord
100
AcDbBlockTableRecord
  2
*D29
340
0
  0
BLOCK_RECORD
  5
34DB1
330
1
100
AcDbSymbolTableRecord
100
AcDbBlockTableRecord
  2
*D30
340
0
  0
BLOCK_RECORD
  5
34DD0
330
1
100
AcDbSymbolTableRecord
100
AcDbBlockTableRecord
  2
*D31
340
0
  0
ENDTAB
  0
ENDSEC
  0
SECTION
  2
BLOCKS
  0
BLOCK
  5
D
330
A
100
AcDbEntity
  8
0
100
AcDbBlockBegin
  2
*MODEL_SPACE
 70
     0
 10
0.0
 20
0.0
 30
0.0
  3
*MODEL_SPACE
  1

  0
ENDBLK
  5
E
330
A
100
AcDbEntity
  8
0
100
AcDbBlockEnd
  0
BLOCK
  5
F
330
B
100
AcDbEntity
 67
     1
  8
0
100
AcDbBlockBegin
  2
*PAPER_SPACE
 70
     0
 10
0.0
 20
0.0
 30
0.0
  3
*PAPER_SPACE
  1

  0
ENDBLK
  5
10
330
B
100
AcDbEntity
 67
     1
  8
0
100
AcDbBlockEnd
  0
BLOCK
  5
78D
330
78C
100
AcDbEntity
  8
0
100
AcDbBlockBegin
  2
_OPEN30
 70
     0
 10
0.0
 20
0.0
 30
0.0
  3
_OPEN30
  1

  0
LINE
  5
78E
330
78C
100
AcDbEntity
  8
0
  6
ByBlock
 62
     0
370
    -2
100
AcDbLine
 10
-1.0
 20
0.267949
 30
0.0
 11
0.0
 21
0.0
 31
0.0
  0
LINE
  5
78F
330
78C
100
AcDbEntity
  8
0
  6
ByBlock
 62
     0
370
    -2
100
AcDbLine
 10
0.0
 20
0.0
 30
0.0
 11
-1.0
 21
-0.267949
 31
0.0
  0
LINE
  5
790
330
78C
100
AcDbEntity
  8
0
  6
ByBlock
 62
     0
370
    -2
100
AcDbLine
 10
0.0
 20
0.0
 30
0.0
 11
-1.0
 21
0.0
 31
0.0
  0
ENDBLK
  5
791
330
78C
100
AcDbEntity
  8
0
100
AcDbBlockEnd
  0
BLOCK
  5
CFC
330
CFB
100
AcDbEntity
  8
0
100
AcDbBlockBegin
  2
_DotSmall
 70
     0
 10
0.0
 20
0.0
 30
0.0
  3
_DotSmall
  1

  0
LWPOLYLINE
  5
CFD
330
CFB
100
AcDbEntity
  8
0
  6
ByBlock
 62
     0
100
AcDbPolyline
 90
        2
 70
     1
 43
0.5
 10
-0.0625
 20
0.0
 42
1.0
 10
0.0625
 20
0.0
 42
1.0
  0
ENDBLK
  5
CFE
330
CFB
100
AcDbEntity
  8
0
100
AcDbBlockEnd
  0
BLOCK
  5
249E4
330
249E1
100
AcDbEntity
  8
0
100
AcDbBlockBegin
  2
A$C0B7D5268
 70
     2
 10
0.0
 20
0.0
 30
0.0
  3
A$C0B7D5268
  1

  0
LWPOLYLINE
  5
249E5
330
249E1
100
AcDbEntity
  8
D-TTL-LINE　区切り線、罫線
100
AcDbPolyline
 90
        4
 70
     1
 43
0.0
 10
3889.612088690396
 20
389.9999934096122
 10
3999.999967478333
 20
389.9999934096122
 10
3999.999967478448
 20
199.9999934096122
 10
3889.612088690396
 20
199.9999934096122
  0
LWPOLYLINE
  5
249E6
330
249E1
100
AcDbEntity
  8
D-TTL-LINE　区切り線、罫線
100
AcDbPolyline
 90
        4
 70
     1
 43
0.0
 10
3139.612088690046
 20
389.9999934096122
 10
3289.612088690046
 20
389.9999934096122
 10
3289.612088690046
 20
199.9999934096122
 10
3139.612088690046
 20
199.9999934096122
  0
LINE
  5
249E7
330
249E1
100
AcDbEntity
  8
D-TTL-LINE　区切り線、罫線
100
AcDbLine
 10
1369.612088690279
 20
269.9999934099615
 30
0.0
 11
1469.612088690279
 21
269.9999934099615
 31
0.0
  0
LINE
  5
249E8
330
249E1
100
AcDbEntity
  8
D-TTL-LINE　区切り線、罫線
100
AcDbLine
 10
1369.612088690279
 20
329.9999934096122
 30
0.0
 11
1469.612088690279
 21
329.9999934096122
 31
0.0
  0
TEXT
  5
249E9
330
249E1
100
AcDbEntity
  8
D-TTL-TXT　文字列
100
AcDbText
 10
1252.498180030845
 20
215.200241730432
 30
0.0
 40
30.0
  1
.
  7
YOKO_GOTHIC
100
AcDbText
  0
TEXT
  5
249EA
330
249E1
100
AcDbEntity
  8
D-TTL-TXT　文字列
100
AcDbText
 10
1172.498180030845
 20
215.200241730432
 30
0.0
 40
30.0
  1
.
  7
YOKO_GOTHIC
100
AcDbText
  0
TEXT
  5
249EB
330
249E1
100
AcDbEntity
  8
D-TTL-TXT　文字列
100
AcDbText
 10
1252.498180030845
 20
275.2002417300828
 30
0.0
 40
30.0
  1
.
  7
YOKO_GOTHIC
100
AcDbText
  0
TEXT
  5
249EC
330
249E1
100
AcDbEntity
  8
D-TTL-TXT　文字列
100
AcDbText
 10
1172.498180030845
 20
275.2002417300828
 30
0.0
 40
30.0
  1
.
  7
YOKO_GOTHIC
100
AcDbText
  0
TEXT
  5
249ED
330
249E1
100
AcDbEntity
  8
D-TTL-TXT　文字列
100
AcDbText
 10
1252.498180030845
 20
335.2002417298499
 30
0.0
 40
30.0
  1
.
  7
YOKO_GOTHIC
100
AcDbText
  0
LINE
  5
249EE
330
249E1
100
AcDbEntity
  8
D-TTL-LINE　区切り線、罫線
100
AcDbLine
 10
1079.612088690162
 20
269.9999934105435
 30
0.0
 11
229.9999674784485
 21
269.9999934093794
 31
0.0
  0
LINE
  5
249EF
330
249E1
100
AcDbEntity
  8
D-TTL-LINE　区切り線、罫線
100
AcDbLine
 10
1079.612088690162
 20
329.9999934096122
 30
0.0
 11
229.9999674784485
 21
329.9999934096122
 31
0.0
  0
TEXT
  5
249F0
330
249E1
100
AcDbEntity
  8
D-TTL-TXT　文字列
100
AcDbText
 10
1172.498180030845
 20
335.2002417298499
 30
0.0
 40
30.0
  1
.
  7
YOKO_GOTHIC
100
AcDbText
  0
LWPOLYLINE
  5
249F1
330
249E1
100
AcDbEntity
  8
D-TTL-FRAM　タイトル枠、凡例図枠
  6
Continuous
100
AcDbPolyline
 90
        4
 70
     1
 43
0.0
 10
199.9999674784485
 20
199.9999934096122
 10
3999.999967478448
 20
199.9999934096122
 10
3999.999967478448
 20
389.9999934096122
 10
199.9999674784485
 20
389.9999934096122
  0
CIRCLE
  5
249F2
330
249E1
100
AcDbEntity
  8
D-TTL-TXT　文字列
100
AcDbCircle
 10
253.6017100863392
 20
230.0436906303512
 30
0.0
 40
14.80571377091109
  0
TEXT
  5
249F3
330
249E1
100
AcDbEntity
  8
D-TTL-TXT　文字列
100
AcDbText
 10
244.0857497261604
 20
220.5405656221556
 30
0.0
 40
20.0
  1
3
  7
YOKO_GOTHIC
100
AcDbText
  0
CIRCLE
  5
249F4
330
249E1
100
AcDbEntity
  8
D-TTL-TXT　文字列
100
AcDbCircle
 10
253.6017100863392
 20
350.0436906303512
 30
0.0
 40
14.80571377091109
  0
TEXT
  5
249F5
330
249E1
100
AcDbEntity
  8
D-TTL-TXT　文字列
100
AcDbText
 10
244.0857497261604
 20
340.5405656221556
 30
0.0
 40
20.0
  1
1
  7
YOKO_GOTHIC
100
AcDbText
  0
CIRCLE
  5
249F6
330
249E1
100
AcDbEntity
  8
D-TTL-TXT　文字列
100
AcDbCircle
 10
253.6017100863392
 20
290.0436906303512
 30
0.0
 40
14.80571377091109
  0
TEXT
  5
249F7
330
249E1
100
AcDbEntity
  8
D-TTL-TXT　文字列
100
AcDbText
 10
244.0857497261604
 20
280.5405656221556
 30
0.0
 40
20.0
  1
2
  7
YOKO_GOTHIC
100
AcDbText
  0
LINE
  5
249F8
330
249E1
100
AcDbEntity
  8
D-TTL-LINE　区切り線、罫線
100
AcDbLine
 10
1349.612088690279
 20
329.9999934096122
 30
0.0
 11
1099.612088690279
 21
329.9999934096122
 31
0.0
  0
LINE
  5
249F9
330
249E1
100
AcDbEntity
  8
D-TTL-LINE　区切り線、罫線
100
AcDbLine
 10
1349.612088690279
 20
269.9999934099615
 30
0.0
 11
1099.612088690279
 21
269.9999934101943
 31
0.0
  0
LWPOLYLINE
  5
249FA
330
249E1
100
AcDbEntity
  8
D-TTL-LINE　区切り線、罫線
100
AcDbPolyline
 90
        4
 70
     1
 43
0.0
 10
1489.612088690163
 20
389.9999934096122
 10
2289.612088690163
 20
389.9999934096122
 10
2289.612088690163
 20
199.9999934096122
 10
1489.612088690163
 20
199.9999934096122
  0
LINE
  5
249FB
330
249E1
100
AcDbEntity
  8
D-TTL-LINE　区切り線、罫線
  6
DOT
 48
0.1
100
AcDbLine
 10
2489.612088690163
 20
199.9999934096122
 30
0.0
 11
2489.612088690163
 21
389.9999934096122
 31
0.0
  0
TEXT
  5
249FC
330
249E1
100
AcDbEntity
  8
D-TTL-TXT　文字列
100
AcDbText
 10
2300.624580853153
 20
236.4805707250489
 30
0.0
 40
35.0
  1
図面名称
  7
YOKO_GOTHIC
100
AcDbText
  0
TEXT
  5
249FD
330
249E1
100
AcDbEntity
  8
D-TTL-TXT　文字列
100
AcDbText
 10
2300.624580853153
 20
329.0831405118806
 30
0.0
 40
35.0
  1
工事名称
  7
YOKO_GOTHIC
100
AcDbText
  0
LINE
  5
249FE
330
249E1
100
AcDbEntity
  8
D-TTL-LINE　区切り線、罫線
100
AcDbLine
 10
3139.612088690046
 20
299.9999934096122
 30
0.0
 11
2289.612088690163
 21
299.9999934096122
 31
0.0
  0
LWPOLYLINE
  5
249FF
330
249E1
100
AcDbEntity
  8
D-TTL-LINE　区切り線、罫線
100
AcDbPolyline
 90
        4
 70
     1
 43
0.0
 10
2289.612088690163
 20
389.9999934096122
 10
3139.612088690046
 20
389.9999934096122
 10
3139.612088690046
 20
199.9999934096122
 10
2289.612088690163
 20
199.9999934096122
  0
TEXT
  5
24A00
330
249E1
100
AcDbEntity
  8
D-TTL-TXT　文字列
100
AcDbText
 10
3164.566100767581
 20
343.4350704764947
 30
0.0
 40
35.0
  1
縮 尺
  7
YOKO_GOTHIC
100
AcDbText
  0
LINE
  5
24A01
330
249E1
100
AcDbEntity
  8
D-TTL-LINE　区切り線、罫線
100
AcDbLine
 10
3289.612088690046
 20
329.9999934096122
 30
0.0
 11
3139.612088690046
 21
329.9999934096122
 31
0.0
  0
LINE
  5
24A02
330
249E1
100
AcDbEntity
  8
D-TTL-LINE　区切り線、罫線
100
AcDbLine
 10
3889.612088690279
 20
199.9999934096122
 30
0.0
 11
3889.612088690396
 21
389.9999934096122
 31
0.0
  0
LINE
  5
24A03
330
249E1
100
AcDbEntity
  8
D-TTL-LINE　区切り線、罫線
  6
DOT
 48
0.1
100
AcDbLine
 10
3489.612088690163
 20
329.9999934096122
 30
0.0
 11
3489.612088690163
 21
389.9999934096122
 31
0.0
  0
TEXT
  5
24A04
330
249E1
100
AcDbEntity
  8
D-TTL-TXT　文字列
100
AcDbText
 10
3340.308643367607
 20
343.4350704764947
 30
0.0
 40
35.0
  1
日 付
  7
YOKO_GOTHIC
100
AcDbText
  0
LINE
  5
24A05
330
249E1
100
AcDbEntity
  8
D-TTL-LINE　区切り線、罫線
  6
DOT
 48
0.1
100
AcDbLine
 10
3889.612088690396
 20
269.9999934096122
 30
0.0
 11
3289.612088690046
 21
269.9999934096122
 31
0.0
  0
LWPOLYLINE
  5
24A06
330
249E1
100
AcDbEntity
  8
D-TTL-LINE　区切り線、罫線
100
AcDbPolyline
 90
        4
 70
     1
 43
0.0
 10
3289.612088690046
 20
329.9999934096122
 10
3889.612088690396
 20
329.9999934096122
 10
3889.612088690396
 20
389.9999934096122
 10
3289.612088690046
 20
389.9999934096122
  0
LWPOLYLINE
  5
24A07
330
249E1
100
AcDbEntity
  8
D-TTL-LINE　区切り線、罫線
100
AcDbPolyline
 90
        4
 70
     1
 43
0.0
 10
3289.612088690046
 20
329.9999934096122
 10
3489.612088690163
 20
329.9999934096122
 10
3489.612088690047
 20
199.9999934096122
 10
3289.612088690046
 20
199.9999934096122
  0
LWPOLYLINE
  5
24A08
330
249E1
100
AcDbEntity
  8
D-TTL-LINE　区切り線、罫線
100
AcDbPolyline
 90
        4
 70
     1
 43
0.0
 10
3489.612088690163
 20
329.9999934096122
 10
3689.612088690279
 20
329.9999934096122
 10
3689.612088690279
 20
199.9999934096122
 10
3489.612088690163
 20
199.9999934096122
  0
LINE
  5
24A09
330
249E1
100
AcDbEntity
  8
D-TTL-TXT　文字列
100
AcDbLine
 10
1590.195649210363
 20
313.962731042644
 30
0.0
 11
1595.820515281172
 21
319.7959254867165
 31
0.0
  0
LINE
  5
24A0A
330
249E1
100
AcDbEntity
  8
D-TTL-TXT　文字列
100
AcDbLine
 10
1580.612544052652
 20
306.8795663609635
 30
0.0
 11
1603.528665081831
 21
329.5873590171104
 31
0.0
  0
LINE
  5
24A0B
330
249E1
100
AcDbEntity
  8
D-TTL-TXT　文字列
100
AcDbLine
 10
1576.029319847003
 20
304.5879542579641
 30
0.0
 11
1604.57030694664
 21
333.1289413581835
 31
0.0
  0
LINE
  5
24A0C
330
249E1
100
AcDbEntity
  8
D-TTL-TXT　文字列
100
AcDbLine
 10
1572.487737506162
 20
303.337984019774
 30
0.0
 11
1602.278694843757
 21
333.1289413581835
 31
0.0
  0
LINE
  5
24A0D
330
249E1
100
AcDbEntity
  8
D-TTL-TXT　文字列
100
AcDbLine
 10
1569.154483538237
 20
302.2963421549648
 30
0.0
 11
1599.98708274099
 21
333.1289413581835
 31
0.0
  0
LINE
  5
24A0E
330
249E1
100
AcDbEntity
  8
D-TTL-TXT　文字列
100
AcDbLine
 10
1566.237886316143
 20
301.8796854092507
 30
0.0
 11
1597.487142265076
 21
333.1289413581835
 31
0.0
  0
LINE
  5
24A0F
330
249E1
100
AcDbEntity
  8
D-TTL-TXT　文字列
100
AcDbLine
 10
1563.529617467429
 20
301.4630286633037
 30
0.0
 11
1595.195530162076
 21
333.1289413581835
 31
0.0
  0
LINE
  5
24A10
330
249E1
100
AcDbEntity
  8
D-TTL-TXT　文字列
100
AcDbLine
 10
1561.029676991398
 20
301.4630286633037
 30
0.0
 11
1592.903918059077
 21
333.1289413581835
 31
0.0
  0
LINE
  5
24A11
330
249E1
100
AcDbEntity
  8
D-TTL-TXT　文字列
100
AcDbLine
 10
1585.195768258534
 20
327.9207320329733
 30
0.0
 11
1590.403977583279
 21
333.1289413581835
 31
0.0
  0
LINE
  5
24A12
330
249E1
100
AcDbEntity
  8
D-TTL-TXT　文字列
100
AcDbLine
 10
1558.738064888399
 20
301.2547002900392
 30
0.0
 11
1564.779587705387
 21
307.504551480175
 31
0.0
  0
LINE
  5
24A13
330
249E1
100
AcDbEntity
  8
D-TTL-TXT　文字列
100
AcDbLine
 10
1556.446452785749
 20
301.4630286633037
 30
0.0
 11
1559.988035126589
 21
305.0046110039111
 31
0.0
  0
LINE
  5
24A14
330
249E1
100
AcDbEntity
  8
D-TTL-TXT　文字列
100
AcDbLine
 10
1554.154840682866
 20
301.4630286633037
 30
0.0
 11
1556.446452785749
 21
303.7546407660702
 31
0.0
  0
LINE
  5
24A15
330
249E1
100
AcDbEntity
  8
D-TTL-TXT　文字列
100
AcDbLine
 10
1551.863228579867
 20
301.4630286633037
 30
0.0
 11
1552.904870444676
 21
302.7129989011446
 31
0.0
  0
LINE
  5
24A16
330
249E1
100
AcDbEntity
  8
D-TTL-TXT　文字列
100
AcDbLine
 10
1551.654900206951
 20
302.2963421549648
 30
0.0
 11
1552.696542071877
 21
301.4630286633037
 31
0.0
  0
LINE
  5
24A17
330
249E1
100
AcDbEntity
  8
D-TTL-TXT　文字列
100
AcDbLine
 10
1553.529855563771
 20
302.9213272741763
 30
0.0
 11
1555.196482547675
 21
301.2547002900392
 31
0.0
  0
LINE
  5
24A18
330
249E1
100
AcDbEntity
  8
D-TTL-TXT　文字列
100
AcDbLine
 10
1555.40481092059
 20
303.337984019774
 30
0.0
 11
1557.696423023473
 21
301.2547002900392
 31
0.0
  0
LINE
  5
24A19
330
249E1
100
AcDbEntity
  8
D-TTL-TXT　文字列
100
AcDbLine
 10
1557.279766277643
 20
303.9629691389855
 30
0.0
 11
1559.988035126589
 21
301.2547002900392
 31
0.0
  0
LINE
  5
24A1A
330
249E1
100
AcDbEntity
  8
D-TTL-TXT　文字列
100
AcDbLine
 10
1558.946393261547
 20
304.5879542579641
 30
0.0
 11
1562.279647229356
 21
301.2547002900392
 31
0.0
  0
LINE
  5
24A1B
330
249E1
100
AcDbEntity
  8
D-TTL-TXT　文字列
100
AcDbLine
 10
1560.613020245451
 20
305.4212677498581
 30
0.0
 11
1564.362930959323
 21
301.6713570359862
 31
0.0
  0
LINE
  5
24A1C
330
249E1
100
AcDbEntity
  8
D-TTL-TXT　文字列
100
AcDbLine
 10
1562.071318856207
 20
306.2545812419849
 30
0.0
 11
1566.237886316143
 21
301.8796854092507
 31
0.0
  0
LINE
  5
24A1D
330
249E1
100
AcDbEntity
  8
D-TTL-TXT　文字列
100
AcDbLine
 10
1563.737945840345
 20
306.8795663609635
 30
0.0
 11
1568.321170046343
 21
302.2963421549648
 31
0.0
  0
LINE
  5
24A1E
330
249E1
100
AcDbEntity
  8
D-TTL-TXT　文字列
100
AcDbLine
 10
1565.196244451334
 20
307.9212082257727
 30
0.0
 11
1570.196125403047
 21
302.7129989011446
 31
0.0
  0
LINE
  5
24A1F
330
249E1
100
AcDbEntity
  8
D-TTL-TXT　文字列
100
AcDbLine
 10
1566.446214689291
 20
308.7545217180159
 30
0.0
 11
1572.071080759866
 21
303.337984019774
 31
0.0
  0
LINE
  5
24A20
330
249E1
100
AcDbEntity
  8
D-TTL-TXT　文字列
100
AcDbLine
 10
1567.904513300163
 20
309.7961635831743
 30
0.0
 11
1573.946036116918
 21
303.7546407660702
 31
0.0
  0
LINE
  5
24A21
330
249E1
100
AcDbEntity
  8
D-TTL-TXT　文字列
100
AcDbLine
 10
1569.154483538237
 20
310.8378054479836
 30
0.0
 11
1575.612663100823
 21
304.5879542579641
 31
0.0
  0
LINE
  5
24A22
330
249E1
100
AcDbEntity
  8
D-TTL-TXT　文字列
100
AcDbLine
 10
1570.61278214911
 20
311.8794473129092
 30
0.0
 11
1577.279290084727
 21
305.2129393771756
 31
0.0
  0
LINE
  5
24A23
330
249E1
100
AcDbEntity
  8
D-TTL-TXT　文字列
100
AcDbLine
 10
1571.862752387067
 20
312.9210891777184
 30
0.0
 11
1578.7375886956
 21
305.8379244960379
 31
0.0
  0
LINE
  5
24A24
330
249E1
100
AcDbEntity
  8
D-TTL-TXT　文字列
100
AcDbLine
 10
1573.112722625024
 20
313.962731042644
 30
0.0
 11
1580.404215679737
 21
306.671237987699
 31
0.0
  0
LINE
  5
24A25
330
249E1
100
AcDbEntity
  8
D-TTL-TXT　文字列
100
AcDbLine
 10
1574.154364490066
 20
315.2127012807178
 30
0.0
 11
1581.862514290609
 21
307.504551480175
 31
0.0
  0
LINE
  5
24A26
330
249E1
100
AcDbEntity
  8
D-TTL-TXT　文字列
100
AcDbLine
 10
1575.404334727674
 20
316.2543431456434
 30
0.0
 11
1583.320812901598
 21
308.5461933449842
 31
0.0
  0
LINE
  5
24A27
330
249E1
100
AcDbEntity
  8
D-TTL-TXT　文字列
100
AcDbLine
 10
1576.654304965865
 20
317.5043133837171
 30
0.0
 11
1584.570783139439
 21
309.3795068368781
 31
0.0
  0
LINE
  5
24A28
330
249E1
100
AcDbEntity
  8
D-TTL-TXT　文字列
100
AcDbLine
 10
1577.69594683079
 20
318.7542836213252
 30
0.0
 11
1586.029081750545
 21
310.4211487018038
 31
0.0
  0
LINE
  5
24A29
330
249E1
100
AcDbEntity
  8
D-TTL-TXT　文字列
100
AcDbLine
 10
1578.945917068748
 20
320.004253859166
 30
0.0
 11
1587.279051988385
 21
311.6711189396446
 31
0.0
  0
LINE
  5
24A2A
330
249E1
100
AcDbEntity
  8
D-TTL-TXT　文字列
100
AcDbLine
 10
1579.987558933673
 20
321.2542240972398
 30
0.0
 11
1588.529022226343
 21
312.7127608048031
 31
0.0
  0
LINE
  5
24A2B
330
249E1
100
AcDbEntity
  8
D-TTL-TXT　文字列
100
AcDbLine
 10
1581.029200798599
 20
322.5041943354299
 30
0.0
 11
1589.7789924643
 21
313.7544026696123
 31
0.0
  0
LINE
  5
24A2C
330
249E1
100
AcDbEntity
  8
D-TTL-TXT　文字列
100
AcDbLine
 10
1582.070842663525
 20
323.7541645732708
 30
0.0
 11
1591.028962702258
 21
314.7960445347708
 31
0.0
  0
LINE
  5
24A2D
330
249E1
100
AcDbEntity
  8
D-TTL-TXT　文字列
100
AcDbLine
 10
1583.112484528683
 20
325.0041348111117
 30
0.0
 11
1592.278932940215
 21
316.0460147726117
 31
0.0
  0
LINE
  5
24A2E
330
249E1
100
AcDbEntity
  8
D-TTL-TXT　文字列
100
AcDbLine
 10
1584.154126393609
 20
326.46243342245
 30
0.0
 11
1593.528903178172
 21
317.2959850104526
 31
0.0
  0
LINE
  5
24A2F
330
249E1
100
AcDbEntity
  8
D-TTL-TXT　文字列
100
AcDbLine
 10
1585.195768258534
 20
327.712403660058
 30
0.0
 11
1594.570545043097
 21
318.3376268753782
 31
0.0
  0
LINE
  5
24A30
330
249E1
100
AcDbEntity
  8
D-TTL-TXT　文字列
100
AcDbLine
 10
1586.029081750545
 20
329.1707022711634
 30
0.0
 11
1595.612186908023
 21
319.5875971134519
 31
0.0
  0
LINE
  5
24A31
330
249E1
100
AcDbEntity
  8
D-TTL-TXT　文字列
100
AcDbLine
 10
1587.070723615354
 20
330.6290008819197
 30
0.0
 11
1596.862157145981
 21
320.8375673516421
 31
0.0
  0
LINE
  5
24A32
330
249E1
100
AcDbEntity
  8
D-TTL-TXT　文字列
100
AcDbLine
 10
1587.904037107248
 20
332.0872994927922
 30
0.0
 11
1597.903799010906
 21
322.087537589483
 31
0.0
  0
LINE
  5
24A33
330
249E1
100
AcDbEntity
  8
D-TTL-TXT　文字列
100
AcDbLine
 10
1589.154007345438
 20
333.1289413581835
 30
0.0
 11
1598.945440875948
 21
323.3375078269746
 31
0.0
  0
LINE
  5
24A34
330
249E1
100
AcDbEntity
  8
D-TTL-TXT　文字列
100
AcDbLine
 10
1591.445619448321
 20
333.1289413581835
 30
0.0
 11
1599.98708274099
 21
324.7958064384293
 31
0.0
  0
LINE
  5
24A35
330
249E1
100
AcDbEntity
  8
D-TTL-TXT　文字列
100
AcDbLine
 10
1593.945559924119
 20
333.1289413581835
 30
0.0
 11
1601.028724605799
 21
326.0457766762702
 31
0.0
  0
LINE
  5
24A36
330
249E1
100
AcDbEntity
  8
D-TTL-TXT　文字列
100
AcDbLine
 10
1596.237172027002
 20
333.1289413581835
 30
0.0
 11
1602.070366470609
 21
327.5040752873756
 31
0.0
  0
LINE
  5
24A37
330
249E1
100
AcDbEntity
  8
D-TTL-TXT　文字列
100
AcDbLine
 10
1598.528784130001
 20
333.1289413581835
 30
0.0
 11
1602.903679962735
 21
328.7540455252165
 31
0.0
  0
LINE
  5
24A38
330
249E1
100
AcDbEntity
  8
D-TTL-TXT　文字列
100
AcDbLine
 10
1600.820396233
 20
333.1289413581835
 30
0.0
 11
1603.945321827661
 21
330.2123441359727
 31
0.0
  0
LINE
  5
24A39
330
249E1
100
AcDbEntity
  8
D-TTL-TXT　文字列
100
AcDbLine
 10
1603.320336708799
 20
333.1289413581835
 30
0.0
 11
1604.778635319788
 21
331.6706427468453
 31
0.0
  0
LINE
  5
24A3A
330
249E1
100
AcDbEntity
  8
D-TTL-TXT　文字列
100
AcDbLine
 10
1605.611948811682
 20
333.1289413581835
 30
0.0
 11
1605.820277184713
 21
333.1289413581835
 31
0.0
  0
LINE
  5
24A3B
330
249E1
100
AcDbEntity
  8
D-TTL-TXT　文字列
100
AcDbLine
 10
1590.195649210363
 20
352.5034800461726
 30
0.0
 11
1595.820515281172
 21
346.6702856021002
 31
0.0
  0
LINE
  5
24A3C
330
249E1
100
AcDbEntity
  8
D-TTL-TXT　文字列
100
AcDbLine
 10
1580.612544052652
 20
359.5866447278531
 30
0.0
 11
1603.528665081831
 21
336.8788520717062
 31
0.0
  0
LINE
  5
24A3D
330
249E1
100
AcDbEntity
  8
D-TTL-TXT　文字列
100
AcDbLine
 10
1576.029319847003
 20
361.8782568308525
 30
0.0
 11
1604.57030694664
 21
333.3372697306331
 31
0.0
  0
LINE
  5
24A3E
330
249E1
100
AcDbEntity
  8
D-TTL-TXT　文字列
100
AcDbLine
 10
1572.487737506162
 20
363.1282270690426
 30
0.0
 11
1602.278694843757
 21
333.3372697306331
 31
0.0
  0
LINE
  5
24A3F
330
249E1
100
AcDbEntity
  8
D-TTL-TXT　文字列
100
AcDbLine
 10
1569.154483538237
 20
364.1698689338519
 30
0.0
 11
1599.98708274099
 21
333.3372697306331
 31
0.0
  0
LINE
  5
24A40
330
249E1
100
AcDbEntity
  8
D-TTL-TXT　文字列
100
AcDbLine
 10
1566.237886316143
 20
364.5865256795659
 30
0.0
 11
1597.487142265076
 21
333.3372697306331
 31
0.0
  0
LINE
  5
24A41
330
249E1
100
AcDbEntity
  8
D-TTL-TXT　文字列
100
AcDbLine
 10
1563.529617467429
 20
365.0031824255129
 30
0.0
 11
1595.195530162076
 21
333.3372697306331
 31
0.0
  0
LINE
  5
24A42
330
249E1
100
AcDbEntity
  8
D-TTL-TXT　文字列
100
AcDbLine
 10
1561.029676991398
 20
365.0031824255129
 30
0.0
 11
1592.903918059077
 21
333.3372697306331
 31
0.0
  0
LINE
  5
24A43
330
249E1
100
AcDbEntity
  8
D-TTL-TXT　文字列
100
AcDbLine
 10
1585.195768258534
 20
338.5454790558433
 30
0.0
 11
1590.403977583279
 21
333.3372697306331
 31
0.0
  0
LINE
  5
24A44
330
249E1
100
AcDbEntity
  8
D-TTL-TXT　文字列
100
AcDbLine
 10
1558.738064888399
 20
365.2115107987774
 30
0.0
 11
1564.779587705387
 21
358.9616596086417
 31
0.0
  0
LINE
  5
24A45
330
249E1
100
AcDbEntity
  8
D-TTL-TXT　文字列
100
AcDbLine
 10
1556.446452785749
 20
365.0031824255129
 30
0.0
 11
1559.988035126589
 21
361.4616000849055
 31
0.0
  0
LINE
  5
24A46
330
249E1
100
AcDbEntity
  8
D-TTL-TXT　文字列
100
AcDbLine
 10
1554.154840682866
 20
365.0031824255129
 30
0.0
 11
1556.446452785749
 21
362.7115703227464
 31
0.0
  0
LINE
  5
24A47
330
249E1
100
AcDbEntity
  8
D-TTL-TXT　文字列
100
AcDbLine
 10
1551.863228579867
 20
365.0031824255129
 30
0.0
 11
1552.904870444676
 21
363.753212187672
 31
0.0
  0
LINE
  5
24A48
330
249E1
100
AcDbEntity
  8
D-TTL-TXT　文字列
100
AcDbLine
 10
1551.654900206951
 20
364.1698689338519
 30
0.0
 11
1552.696542071877
 21
365.0031824255129
 31
0.0
  0
LINE
  5
24A49
330
249E1
100
AcDbEntity
  8
D-TTL-TXT　文字列
100
AcDbLine
 10
1553.529855563771
 20
363.5448838146404
 30
0.0
 11
1555.196482547675
 21
365.2115107987774
 31
0.0
  0
LINE
  5
24A4A
330
249E1
100
AcDbEntity
  8
D-TTL-TXT　文字列
100
AcDbLine
 10
1555.40481092059
 20
363.1282270690426
 30
0.0
 11
1557.696423023473
 21
365.2115107987774
 31
0.0
  0
LINE
  5
24A4B
330
249E1
100
AcDbEntity
  8
D-TTL-TXT　文字列
100
AcDbLine
 10
1557.279766277643
 20
362.5032419498311
 30
0.0
 11
1559.988035126589
 21
365.2115107987774
 31
0.0
  0
LINE
  5
24A4C
330
249E1
100
AcDbEntity
  8
D-TTL-TXT　文字列
100
AcDbLine
 10
1558.946393261547
 20
361.8782568308525
 30
0.0
 11
1562.279647229356
 21
365.2115107987774
 31
0.0
  0
LINE
  5
24A4D
330
249E1
100
AcDbEntity
  8
D-TTL-TXT　文字列
100
AcDbLine
 10
1560.613020245451
 20
361.0449433387257
 30
0.0
 11
1564.362930959323
 21
364.7948540528305
 31
0.0
  0
LINE
  5
24A4E
330
249E1
100
AcDbEntity
  8
D-TTL-TXT　文字列
100
AcDbLine
 10
1562.071318856207
 20
360.2116298468318
 30
0.0
 11
1566.237886316143
 21
364.5865256795659
 31
0.0
  0
LINE
  5
24A4F
330
249E1
100
AcDbEntity
  8
D-TTL-TXT　文字列
100
AcDbLine
 10
1563.737945840345
 20
359.5866447278531
 30
0.0
 11
1568.321170046343
 21
364.1698689338519
 31
0.0
  0
LINE
  5
24A50
330
249E1
100
AcDbEntity
  8
D-TTL-TXT　文字列
100
AcDbLine
 10
1565.196244451334
 20
358.5450028630439
 30
0.0
 11
1570.196125403047
 21
363.753212187672
 31
0.0
  0
LINE
  5
24A51
330
249E1
100
AcDbEntity
  8
D-TTL-TXT　文字列
100
AcDbLine
 10
1566.446214689291
 20
357.71168937115
 30
0.0
 11
1572.071080759866
 21
363.1282270690426
 31
0.0
  0
LINE
  5
24A52
330
249E1
100
AcDbEntity
  8
D-TTL-TXT　文字列
100
AcDbLine
 10
1567.904513300163
 20
356.6700475056423
 30
0.0
 11
1573.946036116918
 21
362.7115703227464
 31
0.0
  0
LINE
  5
24A53
330
249E1
100
AcDbEntity
  8
D-TTL-TXT　文字列
100
AcDbLine
 10
1569.154483538237
 20
355.6284056408331
 30
0.0
 11
1575.612663100823
 21
361.8782568308525
 31
0.0
  0
LINE
  5
24A54
330
249E1
100
AcDbEntity
  8
D-TTL-TXT　文字列
100
AcDbLine
 10
1570.61278214911
 20
354.5867637759075
 30
0.0
 11
1577.279290084727
 21
361.253271711641
 31
0.0
  0
LINE
  5
24A55
330
249E1
100
AcDbEntity
  8
D-TTL-TXT　文字列
100
AcDbLine
 10
1571.862752387067
 20
353.5451219110982
 30
0.0
 11
1578.7375886956
 21
360.6282865927787
 31
0.0
  0
LINE
  5
24A56
330
249E1
100
AcDbEntity
  8
D-TTL-TXT　文字列
100
AcDbLine
 10
1573.112722625024
 20
352.5034800461726
 30
0.0
 11
1580.404215679737
 21
359.7949731011177
 31
0.0
  0
LINE
  5
24A57
330
249E1
100
AcDbEntity
  8
D-TTL-TXT　文字列
100
AcDbLine
 10
1574.154364490066
 20
351.2535098080989
 30
0.0
 11
1581.862514290609
 21
358.9616596086417
 31
0.0
  0
LINE
  5
24A58
330
249E1
100
AcDbEntity
  8
D-TTL-TXT　文字列
100
AcDbLine
 10
1575.404334727674
 20
350.2118679431733
 30
0.0
 11
1583.320812901598
 21
357.9200177438324
 31
0.0
  0
LINE
  5
24A59
330
249E1
100
AcDbEntity
  8
D-TTL-TXT　文字列
100
AcDbLine
 10
1576.654304965865
 20
348.9618977050995
 30
0.0
 11
1584.570783139439
 21
357.0867042519385
 31
0.0
  0
LINE
  5
24A5A
330
249E1
100
AcDbEntity
  8
D-TTL-TXT　文字列
100
AcDbLine
 10
1577.69594683079
 20
347.7119274672586
 30
0.0
 11
1586.029081750545
 21
356.0450623870129
 31
0.0
  0
LINE
  5
24A5B
330
249E1
100
AcDbEntity
  8
D-TTL-TXT　文字列
100
AcDbLine
 10
1578.945917068748
 20
346.4619572296506
 30
0.0
 11
1587.279051988385
 21
354.795092149172
 31
0.0
  0
LINE
  5
24A5C
330
249E1
100
AcDbEntity
  8
D-TTL-TXT　文字列
100
AcDbLine
 10
1579.987558933673
 20
345.2119869915768
 30
0.0
 11
1588.529022226343
 21
353.7534502840135
 31
0.0
  0
LINE
  5
24A5D
330
249E1
100
AcDbEntity
  8
D-TTL-TXT　文字列
100
AcDbLine
 10
1581.029200798599
 20
343.9620167533867
 30
0.0
 11
1589.7789924643
 21
352.7118084192043
 31
0.0
  0
LINE
  5
24A5E
330
249E1
100
AcDbEntity
  8
D-TTL-TXT　文字列
100
AcDbLine
 10
1582.070842663525
 20
342.7120465155458
 30
0.0
 11
1591.028962702258
 21
351.6701665540459
 31
0.0
  0
LINE
  5
24A5F
330
249E1
100
AcDbEntity
  8
D-TTL-TXT　文字列
100
AcDbLine
 10
1583.112484528683
 20
341.4620762777049
 30
0.0
 11
1592.278932940215
 21
350.420196316205
 31
0.0
  0
LINE
  5
24A60
330
249E1
100
AcDbEntity
  8
D-TTL-TXT　文字列
100
AcDbLine
 10
1584.154126393609
 20
340.0037776663666
 30
0.0
 11
1593.528903178172
 21
349.170226078364
 31
0.0
  0
LINE
  5
24A61
330
249E1
100
AcDbEntity
  8
D-TTL-TXT　文字列
100
AcDbLine
 10
1585.195768258534
 20
338.7538074285258
 30
0.0
 11
1594.570545043097
 21
348.1285842134385
 31
0.0
  0
LINE
  5
24A62
330
249E1
100
AcDbEntity
  8
D-TTL-TXT　文字列
100
AcDbLine
 10
1586.029081750545
 20
337.2955088176532
 30
0.0
 11
1595.612186908023
 21
346.8786139753647
 31
0.0
  0
LINE
  5
24A63
330
249E1
100
AcDbEntity
  8
D-TTL-TXT　文字列
100
AcDbLine
 10
1587.070723615354
 20
335.837210206897
 30
0.0
 11
1596.862157145981
 21
345.6286437371746
 31
0.0
  0
LINE
  5
24A64
330
249E1
100
AcDbEntity
  8
D-TTL-TXT　文字列
100
AcDbLine
 10
1587.904037107248
 20
334.3789115957916
 30
0.0
 11
1597.903799010906
 21
344.3786734996829
 31
0.0
  0
LINE
  5
24A65
330
249E1
100
AcDbEntity
  8
D-TTL-TXT　文字列
100
AcDbLine
 10
1589.154007345438
 20
333.3372697306331
 30
0.0
 11
1598.945440875948
 21
343.128703261842
 31
0.0
  0
LINE
  5
24A66
330
249E1
100
AcDbEntity
  8
D-TTL-TXT　文字列
100
AcDbLine
 10
1591.445619448321
 20
333.3372697306331
 30
0.0
 11
1599.98708274099
 21
341.6704046503874
 31
0.0
  0
LINE
  5
24A67
330
249E1
100
AcDbEntity
  8
D-TTL-TXT　文字列
100
AcDbLine
 10
1593.945559924119
 20
333.3372697306331
 30
0.0
 11
1601.028724605799
 21
340.4204344125465
 31
0.0
  0
LINE
  5
24A68
330
249E1
100
AcDbEntity
  8
D-TTL-TXT　文字列
100
AcDbLine
 10
1596.237172027002
 20
333.3372697306331
 30
0.0
 11
1602.070366470609
 21
338.9621358014411
 31
0.0
  0
LINE
  5
24A69
330
249E1
100
AcDbEntity
  8
D-TTL-TXT　文字列
100
AcDbLine
 10
1598.528784130001
 20
333.3372697306331
 30
0.0
 11
1602.903679962735
 21
337.7121655639494
 31
0.0
  0
LINE
  5
24A6A
330
249E1
100
AcDbEntity
  8
D-TTL-TXT　文字列
100
AcDbLine
 10
1600.820396233
 20
333.3372697306331
 30
0.0
 11
1603.945321827661
 21
336.253866952844
 31
0.0
  0
LINE
  5
24A6B
330
249E1
100
AcDbEntity
  8
D-TTL-TXT　文字列
100
AcDbLine
 10
1603.320336708799
 20
333.3372697306331
 30
0.0
 11
1604.778635319788
 21
334.7955683419714
 31
0.0
  0
LINE
  5
24A6C
330
249E1
100
AcDbEntity
  8
D-TTL-TXT　文字列
100
AcDbLine
 10
1605.611948811682
 20
333.3372697306331
 30
0.0
 11
1605.820277184713
 21
333.3372697306331
 31
0.0
  0
LINE
  5
24A6D
330
249E1
100
AcDbEntity
  8
D-TTL-TXT　文字列
100
AcDbLine
 10
1549.988273222931
 20
302.0880137822824
 30
0.0
 11
1550.196601595962
 21
302.0880137822824
 31
0.0
  0
LINE
  5
24A6E
330
249E1
100
AcDbEntity
  8
D-TTL-TXT　文字列
100
AcDbLine
 10
1547.071676000953
 20
301.4630286633037
 30
0.0
 11
1548.529974611942
 21
302.9213272741763
 31
0.0
  0
LINE
  5
24A6F
330
249E1
100
AcDbEntity
  8
D-TTL-TXT　文字列
100
AcDbLine
 10
1544.571735525038
 20
301.2547002900392
 30
0.0
 11
1547.071676000953
 21
303.7546407660702
 31
0.0
  0
LINE
  5
24A70
330
249E1
100
AcDbEntity
  8
D-TTL-TXT　文字列
100
AcDbLine
 10
1542.071795049123
 20
301.2547002900392
 30
0.0
 11
1545.61337739008
 21
304.7962826312287
 31
0.0
  0
LINE
  5
24A71
330
249E1
100
AcDbEntity
  8
D-TTL-TXT　文字列
100
AcDbLine
 10
1539.780182946357
 20
301.2547002900392
 30
0.0
 11
1544.363407152006
 21
305.8379244960379
 31
0.0
  0
LINE
  5
24A72
330
249E1
100
AcDbEntity
  8
D-TTL-TXT　文字列
100
AcDbLine
 10
1537.488570843474
 20
301.2547002900392
 30
0.0
 11
1543.321765287197
 21
307.2962231069105
 31
0.0
  0
LINE
  5
24A73
330
249E1
100
AcDbEntity
  8
D-TTL-TXT　文字列
100
AcDbLine
 10
1535.405287113273
 20
301.4630286633037
 30
0.0
 11
1542.280123422155
 21
308.5461933449842
 31
0.0
  0
LINE
  5
24A74
330
249E1
100
AcDbEntity
  8
D-TTL-TXT　文字列
100
AcDbLine
 10
1533.53033175657
 20
302.0880137822824
 30
0.0
 11
1541.446809930261
 21
310.0044919555076
 31
0.0
  0
LINE
  5
24A75
330
249E1
100
AcDbEntity
  8
D-TTL-TXT　文字列
100
AcDbLine
 10
1531.863704772666
 20
302.7129989011446
 30
0.0
 11
1540.821824811399
 21
311.6711189396446
 31
0.0
  0
LINE
  5
24A76
330
249E1
100
AcDbEntity
  8
D-TTL-TXT　文字列
100
AcDbLine
 10
1530.405406161677
 20
303.7546407660702
 30
0.0
 11
1540.196839692304
 21
313.546074296697
 31
0.0
  0
LINE
  5
24A77
330
249E1
100
AcDbEntity
  8
D-TTL-TXT　文字列
100
AcDbLine
 10
1528.947107550688
 20
304.5879542579641
 30
0.0
 11
1539.780182946357
 21
315.4210296537494
 31
0.0
  0
LINE
  5
24A78
330
249E1
100
AcDbEntity
  8
D-TTL-TXT　文字列
100
AcDbLine
 10
1527.697137312731
 20
305.6295961227734
 30
0.0
 11
1539.780182946357
 21
317.7126417567488
 31
0.0
  0
LINE
  5
24A79
330
249E1
100
AcDbEntity
  8
D-TTL-TXT　文字列
100
AcDbLine
 10
1526.655495447805
 20
306.8795663609635
 30
0.0
 11
1539.988511319272
 21
320.2125822324306
 31
0.0
  0
LINE
  5
24A7A
330
249E1
100
AcDbEntity
  8
D-TTL-TXT　文字列
100
AcDbLine
 10
1549.779944849899
 20
332.503956238972
 30
0.0
 11
1550.613258341793
 21
333.1289413581835
 31
0.0
  0
LINE
  5
24A7B
330
249E1
100
AcDbEntity
  8
D-TTL-TXT　文字列
100
AcDbLine
 10
1525.405525209731
 20
308.1295365990373
 30
0.0
 11
1541.030153184198
 21
323.5458362002392
 31
0.0
  0
LINE
  5
24A7C
330
249E1
100
AcDbEntity
  8
D-TTL-TXT　文字列
100
AcDbLine
 10
1524.780540090985
 20
309.7961635831743
 30
0.0
 11
1548.113317865994
 21
333.1289413581835
 31
0.0
  0
LINE
  5
24A7D
330
249E1
100
AcDbEntity
  8
D-TTL-TXT　文字列
100
AcDbLine
 10
1523.947226598859
 20
311.2544621936977
 30
0.0
 11
1545.821705763228
 21
333.1289413581835
 31
0.0
  0
LINE
  5
24A7E
330
249E1
100
AcDbEntity
  8
D-TTL-TXT　文字列
100
AcDbLine
 10
1523.322241479996
 20
313.1294175509829
 30
0.0
 11
1543.530093660112
 21
333.1289413581835
 31
0.0
  0
LINE
  5
24A7F
330
249E1
100
AcDbEntity
  8
D-TTL-TXT　文字列
100
AcDbLine
 10
1522.905584733933
 20
315.0043729074532
 30
0.0
 11
1541.238481557229
 21
333.1289413581835
 31
0.0
  0
LINE
  5
24A80
330
249E1
100
AcDbEntity
  8
D-TTL-TXT　文字列
100
AcDbLine
 10
1522.697256361134
 20
317.0876566375373
 30
0.0
 11
1538.738541081198
 21
333.1289413581835
 31
0.0
  0
LINE
  5
24A81
330
249E1
100
AcDbEntity
  8
D-TTL-TXT　文字列
100
AcDbLine
 10
1522.905584733933
 20
319.7959254867165
 30
0.0
 11
1536.446928978432
 21
333.1289413581835
 31
0.0
  0
LINE
  5
24A82
330
249E1
100
AcDbEntity
  8
D-TTL-TXT　文字列
100
AcDbLine
 10
1523.738898225943
 20
322.7125227083452
 30
0.0
 11
1533.53033175657
 21
332.7122846120037
 31
0.0
  0
LINE
  5
24A83
330
249E1
100
AcDbEntity
  8
D-TTL-TXT　文字列
100
AcDbLine
 10
1523.947226598859
 20
311.4627905669622
 30
0.0
 11
1532.905346637475
 21
302.2963421549648
 31
0.0
  0
LINE
  5
24A84
330
249E1
100
AcDbEntity
  8
D-TTL-TXT　文字列
100
AcDbLine
 10
1522.905584733933
 20
314.7960445347708
 30
0.0
 11
1536.2386006054
 21
301.4630286633037
 31
0.0
  0
LINE
  5
24A85
330
249E1
100
AcDbEntity
  8
D-TTL-TXT　文字列
100
AcDbLine
 10
1522.697256361134
 20
317.2959850104526
 30
0.0
 11
1538.738541081198
 21
301.2547002900392
 31
0.0
  0
LINE
  5
24A86
330
249E1
100
AcDbEntity
  8
D-TTL-TXT　文字列
100
AcDbLine
 10
1522.905584733933
 20
319.5875971134519
 30
0.0
 11
1541.238481557229
 21
301.2547002900392
 31
0.0
  0
LINE
  5
24A87
330
249E1
100
AcDbEntity
  8
D-TTL-TXT　文字列
100
AcDbLine
 10
1523.322241479996
 20
321.4625524705043
 30
0.0
 11
1543.530093660112
 21
301.2547002900392
 31
0.0
  0
LINE
  5
24A88
330
249E1
100
AcDbEntity
  8
D-TTL-TXT　文字列
100
AcDbLine
 10
1523.738898225943
 20
323.3375078269746
 30
0.0
 11
1545.61337739008
 21
301.4630286633037
 31
0.0
  0
LINE
  5
24A89
330
249E1
100
AcDbEntity
  8
D-TTL-TXT　文字列
100
AcDbLine
 10
1524.572211717837
 20
324.7958064384293
 30
0.0
 11
1547.904989492846
 21
301.6713570359862
 31
0.0
  0
LINE
  5
24A8A
330
249E1
100
AcDbEntity
  8
D-TTL-TXT　文字列
100
AcDbLine
 10
1549.154959731037
 20
302.7129989011446
 30
0.0
 11
1549.779944849899
 21
301.8796854092507
 31
0.0
  0
LINE
  5
24A8B
330
249E1
100
AcDbEntity
  8
D-TTL-TXT　文字列
100
AcDbLine
 10
1525.405525209731
 20
326.46243342245
 30
0.0
 11
1541.446809930261
 21
310.4211487018038
 31
0.0
  0
LINE
  5
24A8C
330
249E1
100
AcDbEntity
  8
D-TTL-TXT　文字列
100
AcDbLine
 10
1526.44716707489
 20
327.712403660058
 30
0.0
 11
1540.196839692304
 21
313.962731042644
 31
0.0
  0
LINE
  5
24A8D
330
249E1
100
AcDbEntity
  8
D-TTL-TXT　文字列
100
AcDbLine
 10
1527.488808939932
 20
328.9623738978989
 30
0.0
 11
1539.780182946357
 21
316.6709998912411
 31
0.0
  0
LINE
  5
24A8E
330
249E1
100
AcDbEntity
  8
D-TTL-TXT　文字列
100
AcDbLine
 10
1528.738779177656
 20
330.0040157627082
 30
0.0
 11
1539.780182946357
 21
318.9626119942404
 31
0.0
  0
LINE
  5
24A8F
330
249E1
100
AcDbEntity
  8
D-TTL-TXT　文字列
100
AcDbLine
 10
1530.197077788645
 20
331.0456576282159
 30
0.0
 11
1540.405168065335
 21
320.8375673516421
 31
0.0
  0
LINE
  5
24A90
330
249E1
100
AcDbEntity
  8
D-TTL-TXT　文字列
100
AcDbLine
 10
1531.655376399867
 20
331.8789711201098
 30
0.0
 11
1540.821824811399
 21
322.7125227083452
 31
0.0
  0
LINE
  5
24A91
330
249E1
100
AcDbEntity
  8
D-TTL-TXT　文字列
100
AcDbLine
 10
1533.322003383655
 20
332.7122846120037
 30
0.0
 11
1541.446809930261
 21
324.3791496924823
 31
0.0
  0
LINE
  5
24A92
330
249E1
100
AcDbEntity
  8
D-TTL-TXT　文字列
100
AcDbLine
 10
1534.988630367676
 20
333.1289413581835
 30
0.0
 11
1542.280123422155
 21
326.0457766762702
 31
0.0
  0
LINE
  5
24A93
330
249E1
100
AcDbEntity
  8
D-TTL-TXT　文字列
100
AcDbLine
 10
1537.488570843474
 20
333.1289413581835
 30
0.0
 11
1543.321765287197
 21
327.2957469141111
 31
0.0
  0
LINE
  5
24A94
330
249E1
100
AcDbEntity
  8
D-TTL-TXT　文字列
100
AcDbLine
 10
1539.780182946357
 20
333.1289413581835
 30
0.0
 11
1544.363407152006
 21
328.5457171521848
 31
0.0
  0
LINE
  5
24A95
330
249E1
100
AcDbEntity
  8
D-TTL-TXT　文字列
100
AcDbLine
 10
1542.071795049123
 20
333.1289413581835
 30
0.0
 11
1545.405049016932
 21
329.7956873903749
 31
0.0
  0
LINE
  5
24A96
330
249E1
100
AcDbEntity
  8
D-TTL-TXT　文字列
100
AcDbLine
 10
1544.363407152006
 20
333.1289413581835
 30
0.0
 11
1546.863347628037
 21
330.8373292551842
 31
0.0
  0
LINE
  5
24A97
330
249E1
100
AcDbEntity
  8
D-TTL-TXT　文字列
100
AcDbLine
 10
1546.863347628037
 20
333.1289413581835
 30
0.0
 11
1548.321646239143
 21
331.6706427468453
 31
0.0
  0
LINE
  5
24A98
330
249E1
100
AcDbEntity
  8
D-TTL-TXT　文字列
100
AcDbLine
 10
1549.154959731037
 20
333.1289413581835
 30
0.0
 11
1549.988273222931
 21
332.503956238972
 31
0.0
  0
LINE
  5
24A99
330
249E1
100
AcDbEntity
  8
D-TTL-TXT　文字列
100
AcDbLine
 10
1551.44657183392
 20
333.1289413581835
 30
0.0
 11
1551.654900206951
 21
333.1289413581835
 31
0.0
  0
LINE
  5
24A9A
330
249E1
100
AcDbEntity
  8
D-TTL-TXT　文字列
100
AcDbLine
 10
1549.988273222931
 20
364.3781973068835
 30
0.0
 11
1550.196601595962
 21
364.3781973068835
 31
0.0
  0
LINE
  5
24A9B
330
249E1
100
AcDbEntity
  8
D-TTL-TXT　文字列
100
AcDbLine
 10
1547.071676000953
 20
365.0031824255129
 30
0.0
 11
1548.529974611942
 21
363.5448838146404
 31
0.0
  0
LINE
  5
24A9C
330
249E1
100
AcDbEntity
  8
D-TTL-TXT　文字列
100
AcDbLine
 10
1544.571735525038
 20
365.2115107987774
 30
0.0
 11
1547.071676000953
 21
362.7115703227464
 31
0.0
  0
LINE
  5
24A9D
330
249E1
100
AcDbEntity
  8
D-TTL-TXT　文字列
100
AcDbLine
 10
1542.071795049123
 20
365.2115107987774
 30
0.0
 11
1545.61337739008
 21
361.669928457588
 31
0.0
  0
LINE
  5
24A9E
330
249E1
100
AcDbEntity
  8
D-TTL-TXT　文字列
100
AcDbLine
 10
1539.780182946357
 20
365.2115107987774
 30
0.0
 11
1544.363407152006
 21
360.6282865927787
 31
0.0
  0
LINE
  5
24A9F
330
249E1
100
AcDbEntity
  8
D-TTL-TXT　文字列
100
AcDbLine
 10
1537.488570843474
 20
365.2115107987774
 30
0.0
 11
1543.321765287197
 21
359.1699879819062
 31
0.0
  0
LINE
  5
24AA0
330
249E1
100
AcDbEntity
  8
D-TTL-TXT　文字列
100
AcDbLine
 10
1535.405287113273
 20
365.0031824255129
 30
0.0
 11
1542.280123422155
 21
357.9200177438324
 31
0.0
  0
LINE
  5
24AA1
330
249E1
100
AcDbEntity
  8
D-TTL-TXT　文字列
100
AcDbLine
 10
1533.53033175657
 20
364.3781973068835
 30
0.0
 11
1541.446809930261
 21
356.4617191333091
 31
0.0
  0
LINE
  5
24AA2
330
249E1
100
AcDbEntity
  8
D-TTL-TXT　文字列
100
AcDbLine
 10
1531.863704772666
 20
363.753212187672
 30
0.0
 11
1540.821824811399
 21
354.795092149172
 31
0.0
  0
LINE
  5
24AA3
330
249E1
100
AcDbEntity
  8
D-TTL-TXT　文字列
100
AcDbLine
 10
1530.405406161677
 20
362.7115703227464
 30
0.0
 11
1540.196839692304
 21
352.9201367921196
 31
0.0
  0
LINE
  5
24AA4
330
249E1
100
AcDbEntity
  8
D-TTL-TXT　文字列
100
AcDbLine
 10
1528.947107550688
 20
361.8782568308525
 30
0.0
 11
1539.780182946357
 21
351.0451814354165
 31
0.0
  0
LINE
  5
24AA5
330
249E1
100
AcDbEntity
  8
D-TTL-TXT　文字列
100
AcDbLine
 10
1527.697137312731
 20
360.8366149660433
 30
0.0
 11
1539.780182946357
 21
348.7535693324171
 31
0.0
  0
LINE
  5
24AA6
330
249E1
100
AcDbEntity
  8
D-TTL-TXT　文字列
100
AcDbLine
 10
1526.655495447805
 20
359.5866447278531
 30
0.0
 11
1539.988511319272
 21
346.2536288563861
 31
0.0
  0
LINE
  5
24AA7
330
249E1
100
AcDbEntity
  8
D-TTL-TXT　文字列
100
AcDbLine
 10
1549.779944849899
 20
333.9622548498446
 30
0.0
 11
1550.613258341793
 21
333.3372697306331
 31
0.0
  0
LINE
  5
24AA8
330
249E1
100
AcDbEntity
  8
D-TTL-TXT　文字列
100
AcDbLine
 10
1525.405525209731
 20
358.3366744897794
 30
0.0
 11
1541.030153184198
 21
342.9203748885775
 31
0.0
  0
LINE
  5
24AA9
330
249E1
100
AcDbEntity
  8
D-TTL-TXT　文字列
100
AcDbLine
 10
1524.780540090985
 20
356.6700475056423
 30
0.0
 11
1548.113317865994
 21
333.3372697306331
 31
0.0
  0
LINE
  5
24AAA
330
249E1
100
AcDbEntity
  8
D-TTL-TXT　文字列
100
AcDbLine
 10
1523.947226598859
 20
355.211748895119
 30
0.0
 11
1545.821705763228
 21
333.3372697306331
 31
0.0
  0
LINE
  5
24AAB
330
249E1
100
AcDbEntity
  8
D-TTL-TXT　文字列
100
AcDbLine
 10
1523.322241479996
 20
353.3367935378337
 30
0.0
 11
1543.530093660112
 21
333.3372697306331
 31
0.0
  0
LINE
  5
24AAC
330
249E1
100
AcDbEntity
  8
D-TTL-TXT　文字列
100
AcDbLine
 10
1522.905584733933
 20
351.4618381813634
 30
0.0
 11
1541.238481557229
 21
333.3372697306331
 31
0.0
  0
LINE
  5
24AAD
330
249E1
100
AcDbEntity
  8
D-TTL-TXT　文字列
100
AcDbLine
 10
1522.697256361134
 20
349.3785544512793
 30
0.0
 11
1538.738541081198
 21
333.3372697306331
 31
0.0
  0
LINE
  5
24AAE
330
249E1
100
AcDbEntity
  8
D-TTL-TXT　文字列
100
AcDbLine
 10
1522.905584733933
 20
346.6702856021002
 30
0.0
 11
1536.446928978432
 21
333.3372697306331
 31
0.0
  0
LINE
  5
24AAF
330
249E1
100
AcDbEntity
  8
D-TTL-TXT　文字列
100
AcDbLine
 10
1523.738898225943
 20
343.7536883804714
 30
0.0
 11
1533.53033175657
 21
333.7539264768129
 31
0.0
  0
LINE
  5
24AB0
330
249E1
100
AcDbEntity
  8
D-TTL-TXT　文字列
100
AcDbLine
 10
1523.947226598859
 20
355.0034205218544
 30
0.0
 11
1532.905346637475
 21
364.1698689338519
 31
0.0
  0
LINE
  5
24AB1
330
249E1
100
AcDbEntity
  8
D-TTL-TXT　文字列
100
AcDbLine
 10
1522.905584733933
 20
351.6701665540459
 30
0.0
 11
1536.2386006054
 21
365.0031824255129
 31
0.0
  0
LINE
  5
24AB2
330
249E1
100
AcDbEntity
  8
D-TTL-TXT　文字列
100
AcDbLine
 10
1522.697256361134
 20
349.170226078364
 30
0.0
 11
1538.738541081198
 21
365.2115107987774
 31
0.0
  0
LINE
  5
24AB3
330
249E1
100
AcDbEntity
  8
D-TTL-TXT　文字列
100
AcDbLine
 10
1522.905584733933
 20
346.8786139753647
 30
0.0
 11
1541.238481557229
 21
365.2115107987774
 31
0.0
  0
LINE
  5
24AB4
330
249E1
100
AcDbEntity
  8
D-TTL-TXT　文字列
100
AcDbLine
 10
1523.322241479996
 20
345.0036586183123
 30
0.0
 11
1543.530093660112
 21
365.2115107987774
 31
0.0
  0
LINE
  5
24AB5
330
249E1
100
AcDbEntity
  8
D-TTL-TXT　文字列
100
AcDbLine
 10
1523.738898225943
 20
343.128703261842
 30
0.0
 11
1545.61337739008
 21
365.0031824255129
 31
0.0
  0
LINE
  5
24AB6
330
249E1
100
AcDbEntity
  8
D-TTL-TXT　文字列
100
AcDbLine
 10
1524.572211717837
 20
341.6704046503874
 30
0.0
 11
1547.904989492846
 21
364.7948540528305
 31
0.0
  0
LINE
  5
24AB7
330
249E1
100
AcDbEntity
  8
D-TTL-TXT　文字列
100
AcDbLine
 10
1549.154959731037
 20
363.753212187672
 30
0.0
 11
1549.779944849899
 21
364.5865256795659
 31
0.0
  0
LINE
  5
24AB8
330
249E1
100
AcDbEntity
  8
D-TTL-TXT　文字列
100
AcDbLine
 10
1525.405525209731
 20
340.0037776663666
 30
0.0
 11
1541.446809930261
 21
356.0450623870129
 31
0.0
  0
LINE
  5
24AB9
330
249E1
100
AcDbEntity
  8
D-TTL-TXT　文字列
100
AcDbLine
 10
1526.44716707489
 20
338.7538074285258
 30
0.0
 11
1540.196839692304
 21
352.5034800461726
 31
0.0
  0
LINE
  5
24ABA
330
249E1
100
AcDbEntity
  8
D-TTL-TXT　文字列
100
AcDbLine
 10
1527.488808939932
 20
337.5038371909177
 30
0.0
 11
1539.780182946357
 21
349.7952111975755
 31
0.0
  0
LINE
  5
24ABB
330
249E1
100
AcDbEntity
  8
D-TTL-TXT　文字列
100
AcDbLine
 10
1528.738779177656
 20
336.4621953261085
 30
0.0
 11
1539.780182946357
 21
347.5035990945762
 31
0.0
  0
LINE
  5
24ABC
330
249E1
100
AcDbEntity
  8
D-TTL-TXT　文字列
100
AcDbLine
 10
1530.197077788645
 20
335.42055346095
 30
0.0
 11
1540.405168065335
 21
345.6286437371746
 31
0.0
  0
LINE
  5
24ABD
330
249E1
100
AcDbEntity
  8
D-TTL-TXT　文字列
100
AcDbLine
 10
1531.655376399867
 20
334.5872399687069
 30
0.0
 11
1540.821824811399
 21
343.7536883804714
 31
0.0
  0
LINE
  5
24ABE
330
249E1
100
AcDbEntity
  8
D-TTL-TXT　文字列
100
AcDbLine
 10
1533.322003383655
 20
333.7539264768129
 30
0.0
 11
1541.446809930261
 21
342.0870613966836
 31
0.0
  0
LINE
  5
24ABF
330
249E1
100
AcDbEntity
  8
D-TTL-TXT　文字列
100
AcDbLine
 10
1534.988630367676
 20
333.3372697306331
 30
0.0
 11
1542.280123422155
 21
340.4204344125465
 31
0.0
  0
LINE
  5
24AC0
330
249E1
100
AcDbEntity
  8
D-TTL-TXT　文字列
100
AcDbLine
 10
1537.488570843474
 20
333.3372697306331
 30
0.0
 11
1543.321765287197
 21
339.1704641747056
 31
0.0
  0
LINE
  5
24AC1
330
249E1
100
AcDbEntity
  8
D-TTL-TXT　文字列
100
AcDbLine
 10
1539.780182946357
 20
333.3372697306331
 30
0.0
 11
1544.363407152006
 21
337.9204939366318
 31
0.0
  0
LINE
  5
24AC2
330
249E1
100
AcDbEntity
  8
D-TTL-TXT　文字列
100
AcDbLine
 10
1542.071795049123
 20
333.3372697306331
 30
0.0
 11
1545.405049016932
 21
336.6705236984417
 31
0.0
  0
LINE
  5
24AC3
330
249E1
100
AcDbEntity
  8
D-TTL-TXT　文字列
100
AcDbLine
 10
1544.363407152006
 20
333.3372697306331
 30
0.0
 11
1546.863347628037
 21
335.6288818336325
 31
0.0
  0
LINE
  5
24AC4
330
249E1
100
AcDbEntity
  8
D-TTL-TXT　文字列
100
AcDbLine
 10
1546.863347628037
 20
333.3372697306331
 30
0.0
 11
1548.321646239143
 21
334.7955683419714
 31
0.0
  0
LINE
  5
24AC5
330
249E1
100
AcDbEntity
  8
D-TTL-TXT　文字列
100
AcDbLine
 10
1549.154959731037
 20
333.3372697306331
 30
0.0
 11
1549.988273222931
 21
333.9622548498446
 31
0.0
  0
LINE
  5
24AC6
330
249E1
100
AcDbEntity
  8
D-TTL-TXT　文字列
100
AcDbLine
 10
1551.44657183392
 20
333.3372697306331
 30
0.0
 11
1551.654900206951
 21
333.3372697306331
 31
0.0
  0
ELLIPSE
  5
24AC7
330
249E1
100
AcDbEntity
  8
D-TTL-TXT　文字列
100
AcDbEllipse
 10
1539.109705243725
 20
317.486048485036
 30
0.0
 11
-11.59204140070329
 21
11.59204140070329
 31
0.0
210
0.0
220
0.0
230
0.9999999999999998
 40
0.9999999999999724
 41
-0.520066264098869
 42
2.090862590893738
  0
ELLIPSE
  5
24AC8
330
249E1
100
AcDbEntity
  8
D-TTL-TXT　文字列
100
AcDbEllipse
 10
1516.997689402313
 20
375.9114366981667
 30
0.0
 11
-59.00941204809056
 21
59.00941204809056
 31
0.0
210
0.0
220
0.0
230
1.0
 40
0.9999999999999877
 41
2.977667909397149
 42
3.391179326840918
  0
ELLIPSE
  5
24AC9
330
249E1
100
AcDbEntity
  8
D-TTL-TXT　文字列
100
AcDbEllipse
 10
1541.186083304929
 20
348.2217784944223
 30
0.0
 11
33.22705288064931
 21
33.22705288064927
 31
0.0
210
0.0
220
0.0
230
1.0
 40
0.9999999999999925
 41
3.790898628936649
 42
4.472976128049419
  0
ELLIPSE
  5
24ACA
330
249E1
100
AcDbEntity
  8
D-TTL-TXT　文字列
100
AcDbEllipse
 10
1516.997689402313
 20
290.7005320872413
 30
0.0
 11
59.00941204809056
 21
59.00941204809056
 31
0.0
210
0.0
220
0.0
230
1.0
 40
0.9999999999999884
 41
6.033598633928461
 42
6.447110051372229
  0
ELLIPSE
  5
24ACB
330
249E1
100
AcDbEntity
  8
D-TTL-TXT　文字列
100
AcDbEllipse
 10
1541.186083304929
 20
318.3901902901707
 30
0.0
 11
-33.22705288064927
 21
33.22705288064931
 31
0.0
210
0.0
220
0.0
230
1.0
 40
0.9999999999999925
 41
-1.331383474459625
 42
-0.6493059753468562
  0
ELLIPSE
  5
24ACC
330
249E1
100
AcDbEntity
  8
D-TTL-TXT　文字列
100
AcDbEllipse
 10
1539.109705243725
 20
349.1259201329667
 30
0.0
 11
-11.59204140070329
 21
11.59204140070329
 31
0.0
210
0.0
220
0.0
230
0.9999999999999998
 40
0.9999999999999724
 41
-0.520066264098869
 42
2.090862590893738
  0
ELLIPSE
  5
24ACD
330
249E1
100
AcDbEntity
  8
D-TTL-TXT　文字列
100
AcDbEllipse
 10
1556.226360192755
 20
317.486048485036
 30
0.0
 11
-11.59204140070329
 21
11.59204140070329
 31
0.0
210
0.0
220
0.0
230
0.9999999999999998
 40
0.9999999999999724
 41
-0.520066264098869
 42
2.090862590893738
  0
ELLIPSE
  5
24ACE
330
249E1
100
AcDbEntity
  8
D-TTL-TXT　文字列
100
AcDbEllipse
 10
1534.114344350993
 20
375.9114366981667
 30
0.0
 11
59.0094120480915
 21
59.0094120480915
 31
0.0
210
0.0
220
0.0
230
0.9999999999999998
 40
0.9999999999999827
 41
4.548464236192048
 42
4.961975653635807
  0
ELLIPSE
  5
24ACF
330
249E1
100
AcDbEntity
  8
D-TTL-TXT　文字列
100
AcDbEllipse
 10
1558.302738253726
 20
348.2217784944223
 30
0.0
 11
33.22705288064907
 21
33.22705288064907
 31
0.0
210
0.0
220
0.0
230
1.0
 40
0.9999999999999934
 41
3.790898628936649
 42
4.472976128049413
  0
ELLIPSE
  5
24AD0
330
249E1
100
AcDbEntity
  8
D-TTL-TXT　文字列
100
AcDbEllipse
 10
1534.114344350993
 20
290.7005320872413
 30
0.0
 11
-59.0094120480915
 21
59.0094120480915
 31
0.0
210
0.0
220
0.0
230
0.9999999999999998
 40
0.9999999999999824
 41
4.462802307133571
 42
4.876313724577331
  0
ELLIPSE
  5
24AD1
330
249E1
100
AcDbEntity
  8
D-TTL-TXT　文字列
100
AcDbEllipse
 10
1558.302738253726
 20
318.3901902901707
 30
0.0
 11
-33.22705288064911
 21
33.22705288064911
 31
0.0
210
0.0
220
0.0
230
0.9999999999999998
 40
0.9999999999999928
 41
-1.331383474459621
 42
-0.649305975346856
  0
ELLIPSE
  5
24AD2
330
249E1
100
AcDbEntity
  8
D-TTL-TXT　文字列
100
AcDbEllipse
 10
1556.226360192755
 20
349.1259201329667
 30
0.0
 11
-11.59204140070329
 21
11.59204140070329
 31
0.0
210
0.0
220
0.0
230
0.9999999999999998
 40
0.9999999999999724
 41
-0.520066264098869
 42
2.090862590893738
  0
LWPOLYLINE
  5
24AD3
330
249E1
100
AcDbEntity
  8
D-TTL-LINE　区切り線、罫線
100
AcDbPolyline
 90
        4
 70
     1
 43
0.0
 10
3689.612088690279
 20
329.9999934096122
 10
3889.612088690396
 20
329.9999934096122
 10
3889.612088690279
 20
199.9999934096122
 10
3689.612088690279
 20
199.9999934096122
  0
TEXT
  5
24AD4
330
249E1
100
AcDbEntity
  8
D-TTL-TXT　文字列
100
AcDbText
 10
1948.798774947645
 20
226.1863540627528
 30
0.0
 40
18.0
  1
FAX （0776） 56-0917
  7
YOKO_GOTHIC
100
AcDbText
  0
TEXT
  5
24AD5
330
249E1
100
AcDbEntity
  8
D-TTL-TXT　文字列
100
AcDbText
 10
1948.798774947645
 20
259.7684724899009
 30
0.0
 40
18.0
  1
TEL （0776） 56-2310 （代）
  7
YOKO_GOTHIC
100
AcDbText
  0
TEXT
  5
24AD6
330
249E1
100
AcDbEntity
  8
D-TTL-TXT　文字列
100
AcDbText
 10
1508.511774038546
 20
226.1863372611115
 30
0.0
 40
18.0
  1
福井市石盛町 20-408
  7
YOKO_GOTHIC
100
AcDbText
  0
TEXT
  5
24AD7
330
249E1
100
AcDbEntity
  8
D-TTL-TXT　文字列
100
AcDbText
 10
1508.146751012187
 20
259.7688372615958
 30
0.0
 40
18.0
  1
福井県知事許可 （特） 第 3522号
  7
YOKO_GOTHIC
100
AcDbText
  0
TEXT
  5
24AD8
330
249E1
100
AcDbEntity
  8
D-TTL-TXT　文字列
100
AcDbText
 10
1611.132283715997
 20
313.1896628773538
 30
0.0
 40
50.0
  1
上屋敷工業株式会社
  7
YOKO_GOTHIC
100
AcDbText
  0
TEXT
  5
24AD9
330
249E1
100
AcDbEntity
  8
D-TTL-TXT　文字列
100
AcDbText
 10
3903.817498851568
 20
343.4350704764947
 30
0.0
 40
35.0
  1
No.
  7
YOKO_GOTHIC
100
AcDbText
  0
LWPOLYLINE
  5
24ADA
330
249E1
100
AcDbEntity
  8
D-TTL　外枠
100
AcDbPolyline
 90
        4
 70
     1
 43
0.0
 10
-0.0000325215514749
 20
-0.0000065903877839
 10
4199.999967478448
 20
-0.0000065903877839
 10
4199.999967478448
 20
2969.999993409612
 10
-0.0000325215514749
 20
2969.999993409612
  0
LWPOLYLINE
  5
24ADB
330
249E1
100
AcDbEntity
  8
D-TTL　外枠
100
AcDbPolyline
 90
        4
 70
     1
 43
0.0
 10
199.9999674784485
 20
199.9999934096122
 10
3999.999967478448
 20
199.9999934096122
 10
3999.999967478448
 20
2769.999993409613
 10
199.9999674784485
 20
2769.999993409613
  0
ATTDEF
  5
24ADC
330
249E1
100
AcDbEntity
  8
D-TTL-TXT　文字列
 48
0.5
100
AcDbText
 10
2801.941157776051
 20
324.2764234799758
 30
0.0
 40
35.0
  1
-
 41
0.8
  7
YOKO_GOTHIC
 72
     1
 11
2811.037604476558
 21
317.8804843936814
 31
0.0
100
AcDbAttributeDefinition
  3
表題 １
  2
PROJECT1
 70
     0
 74
     1
  0
ATTDEF
  5
24ADD
330
249E1
100
AcDbEntity
  8
D-TTL-TXT　文字列
 48
0.5
100
AcDbText
 10
2801.941157776051
 20
229.5167438914866
 30
0.0
 40
35.0
  1
-
 41
0.8
  7
YOKO_GOTHIC
 72
     1
 11
2811.037604476558
 21
223.1208048051922
 31
0.0
100
AcDbAttributeDefinition
  3
表題 ２
  2
PROJECT2
 70
     0
 74
     1
  0
ATTDEF
  5
24ADE
330
249E1
100
AcDbEntity
  8
D-TTL-TXT　文字列
 48
0.5
100
AcDbText
 10
3577.957123345964
 20
344.5921891440737
 30
0.0
 40
35.0
  1
2011／05／01
 41
0.8
  7
YOKO_GOTHIC
 72
     1
 11
3687.114483752055
 21
338.1962500577793
 31
0.0
100
AcDbAttributeDefinition
  3
日付
  2
DATE
 70
     0
 74
     1
  0
ATTDEF
  5
24ADF
330
249E1
100
AcDbEntity
  8
D-TTL-TXT　文字列
 48
0.5
100
AcDbText
 10
3204.015372773053
 20
251.5736562506861
 30
0.0
 40
35.0
  1
-
 41
0.8
  7
YOKO_GOTHIC
 72
     1
 11
3213.111819473561
 21
245.1777171643917
 31
0.0
100
AcDbAttributeDefinition
  3
縮尺
  2
SCALE
 70
     0
 74
     1
  0
ATTDEF
  5
24AE0
330
249E1
100
AcDbEntity
  8
D-TTL-TXT　文字列
 48
0.5
100
AcDbText
 10
3936.186799671155
 20
263.0771701313421
 30
0.0
 40
35.0
  1
.
 41
0.8
  7
YOKO_GOTHIC
 72
     1
 11
3945.283246371662
 21
256.6812310450477
 31
0.0
100
AcDbAttributeDefinition
  3
図番
  2
DWGNO
 70
     0
 74
     1
  0
ATTDEF
  5
24AE1
330
249E1
100
AcDbEntity
  8
D-TTL-TXT　文字列
 48
0.5
100
AcDbText
 10
3381.52271494584
 20
220.4464765787923
 30
0.0
 40
35.0
  1
.
 41
0.8
  7
YOKO_GOTHIC
 72
     1
 11
3390.619161646347
 21
214.0505374924978
 31
0.0
100
AcDbAttributeDefinition
  3
作成者
  2
DRAWN
 70
     0
 74
     1
  0
ATTDEF
  5
24AE2
330
249E1
100
AcDbEntity
  8
D-TTL-TXT　文字列
 48
0.5
100
AcDbText
 10
3579.655508141036
 20
220.4464765787923
 30
0.0
 40
35.0
  1
.
 41
0.8
  7
YOKO_GOTHIC
 72
     1
 11
3588.751954841544
 21
214.0505374924978
 31
0.0
100
AcDbAttributeDefinition
  3
検図者
  2
CHECKED
 70
     8
 74
     1
  0
ATTDEF
  5
24AE3
330
249E1
100
AcDbEntity
  8
D-TTL-TXT　文字列
 48
0.5
100
AcDbText
 10
3781.668762849647
 20
220.4464765787923
 30
0.0
 40
35.0
  1
.
 41
0.8
  7
YOKO_GOTHIC
 72
     1
 11
3790.765209550155
 21
214.0505374924978
 31
0.0
100
AcDbAttributeDefinition
  3
承認
  2
APPROVED
 70
     8
 74
     1
  0
TEXT
  5
24AE4
330
249E1
100
AcDbEntity
  8
D-TTL-TXT　文字列
100
AcDbText
 10
3330.732016192866
 20
283.6102128210478
 30
0.0
 40
35.0
  1
作 図
  7
YOKO_GOTHIC
100
AcDbText
  0
TEXT
  5
24AE5
330
249E1
100
AcDbEntity
  8
D-TTL-TXT　文字列
100
AcDbText
 10
3531.271542972536
 20
283.6102128210478
 30
0.0
 40
35.0
  1
検 図
  7
YOKO_GOTHIC
100
AcDbText
  0
TEXT
  5
24AE6
330
249E1
100
AcDbEntity
  8
D-TTL-TXT　文字列
100
AcDbText
 10
3726.764597849804
 20
283.6102128210478
 30
0.0
 40
35.0
  1
承 認
  7
YOKO_GOTHIC
100
AcDbText
  0
ENDBLK
  5
24AE7
330
249E1
100
AcDbEntity
  8
0
100
AcDbBlockEnd
  0
BLOCK
  5
31BCF
330
31BC5
100
AcDbEntity
  8
0
100
AcDbBlockBegin
  2
*D3
 70
     1
 10
0.0
 20
0.0
 30
0.0
  3
*D3
  1

  0
LINE
  5
34813
330
31BC5
100
AcDbEntity
  8
D-STR-DIM　寸法線、寸法値
 62
     0
370
    -2
100
AcDbLine
 10
205034.1644509499
 20
14398.14322376341
 30
0.0
 11
205034.1644509499
 21
14290.71398837387
 31
0.0
  0
LINE
  5
34814
330
31BC5
100
AcDbEntity
  8
D-STR-DIM　寸法線、寸法値
 62
     0
370
    -2
100
AcDbLine
 10
205334.1644509499
 20
14398.14322376341
 30
0.0
 11
205334.1644509499
 21
14290.71398837387
 31
0.0
  0
LINE
  5
34815
330
31BC5
100
AcDbEntity
  8
D-STR-DIM　寸法線、寸法値
 62
     0
370
    -2
100
AcDbLine
 10
205034.1644509499
 20
14308.71398837387
 30
0.0
 11
205334.1644509499
 21
14308.71398837387
 31
0.0
  0
INSERT
  5
34816
330
31BC5
100
AcDbEntity
  8
D-STR-DIM　寸法線、寸法値
 62
     0
370
    -2
100
AcDbBlockReference
  2
_DotSmall
 10
205034.1644509499
 20
14308.71398837387
 30
0.0
 41
45.0
 42
45.0
 43
45.0
 50
180.0
  0
INSERT
  5
34817
330
31BC5
100
AcDbEntity
  8
D-STR-DIM　寸法線、寸法値
 62
     0
370
    -2
100
AcDbBlockReference
  2
_DotSmall
 10
205334.1644509499
 20
14308.71398837387
 30
0.0
 41
45.0
 42
45.0
 43
45.0
  0
MTEXT
  5
34818
330
31BC5
100
AcDbEntity
  8
D-STR-DIM　寸法線、寸法値
 62
     0
100
AcDbMText
 10
205184.1644509499
 20
14340.78038837387
 30
0.0
 40
37.5
 41
0.0
 71
     5
 72
     1
  1
\A1;300x300
  7
YOKO_GOTHIC
 73
     1
 44
1.0
1001
ACAD
1000
MTEXTBEGIN
1070
    73
1070
     1
1070
    44
1040
1.0
1070
    74
1070
     0
1000
MTEXTEND
  0
POINT
  5
34819
330
31BC5
100
AcDbEntity
  8
Defpoints
 62
     0
100
AcDbPoint
 10
205034.1644509499
 20
14422.14322376342
 30
0.0
  0
POINT
  5
3481A
330
31BC5
100
AcDbEntity
  8
Defpoints
 62
     0
100
AcDbPoint
 10
205334.1644509499
 20
14422.14322376342
 30
0.0
  0
POINT
  5
3481B
330
31BC5
100
AcDbEntity
  8
Defpoints
 62
     0
100
AcDbPoint
 10
205334.1644509499
 20
14308.71398837387
 30
0.0
  0
ENDBLK
  5
31BD0
330
31BC5
100
AcDbEntity
  8
0
100
AcDbBlockEnd
  0
BLOCK
  5
31BD9
330
31BD1
100
AcDbEntity
  8
0
100
AcDbBlockBegin
  2
*D4
 70
     1
 10
0.0
 20
0.0
 30
0.0
  3
*D4
  1

  0
LINE
  5
3481C
330
31BD1
100
AcDbEntity
  8
D-STR-DIM　寸法線、寸法値
 62
     0
370
    -2
100
AcDbLine
 10
204984.1644509498
 20
14398.14322376341
 30
0.0
 11
204984.1644509498
 21
14290.71398837387
 31
0.0
  0
LINE
  5
3481D
330
31BD1
100
AcDbEntity
  8
D-STR-DIM　寸法線、寸法値
 62
     0
370
    -2
100
AcDbLine
 10
205034.1644509499
 20
14398.14322376341
 30
0.0
 11
205034.1644509499
 21
14290.71398837387
 31
0.0
  0
LINE
  5
3481E
330
31BD1
100
AcDbEntity
  8
D-STR-DIM　寸法線、寸法値
 62
     0
370
    -2
100
AcDbLine
 10
204984.1644509498
 20
14308.71398837387
 30
0.0
 11
205034.1644509499
 21
14308.71398837387
 31
0.0
  0
MTEXT
  5
3481F
330
31BD1
100
AcDbEntity
  8
D-STR-DIM　寸法線、寸法値
 62
     0
100
AcDbMText
 10
205009.1644509499
 20
14340.78038837387
 30
0.0
 40
37.5
 41
0.0
 71
     5
 72
     1
  1
\A1;50
  7
YOKO_GOTHIC
 73
     1
 44
1.0
1001
ACAD
1000
MTEXTBEGIN
1070
    73
1070
     1
1070
    44
1040
1.0
1070
    74
1070
     0
1000
MTEXTEND
  0
POINT
  5
34820
330
31BD1
100
AcDbEntity
  8
Defpoints
 62
     0
100
AcDbPoint
 10
204984.1644509498
 20
14422.14322376342
 30
0.0
  0
POINT
  5
34821
330
31BD1
100
AcDbEntity
  8
Defpoints
 62
     0
100
AcDbPoint
 10
205034.1644509499
 20
14422.14322376342
 30
0.0
  0
POINT
  5
34822
330
31BD1
100
AcDbEntity
  8
Defpoints
 62
     0
100
AcDbPoint
 10
205034.1644509499
 20
14308.71398837387
 30
0.0
  0
ENDBLK
  5
31BDA
330
31BD1
100
AcDbEntity
  8
0
100
AcDbBlockEnd
  0
BLOCK
  5
31BE3
330
31BDB
100
AcDbEntity
  8
0
100
AcDbBlockBegin
  2
*D5
 70
     1
 10
0.0
 20
0.0
 30
0.0
  3
*D5
  1

  0
LINE
  5
34823
330
31BDB
100
AcDbEntity
  8
D-STR-DIM　寸法線、寸法値
 62
     0
370
    -2
100
AcDbLine
 10
205334.1644509499
 20
14398.14322376341
 30
0.0
 11
205334.1644509499
 21
14290.71398837387
 31
0.0
  0
LINE
  5
34824
330
31BDB
100
AcDbEntity
  8
D-STR-DIM　寸法線、寸法値
 62
     0
370
    -2
100
AcDbLine
 10
205384.1644509498
 20
14398.14322376341
 30
0.0
 11
205384.1644509498
 21
14290.71398837387
 31
0.0
  0
LINE
  5
34825
330
31BDB
100
AcDbEntity
  8
D-STR-DIM　寸法線、寸法値
 62
     0
370
    -2
100
AcDbLine
 10
205334.1644509499
 20
14308.71398837387
 30
0.0
 11
205384.1644509498
 21
14308.71398837387
 31
0.0
  0
MTEXT
  5
34826
330
31BDB
100
AcDbEntity
  8
D-STR-DIM　寸法線、寸法値
 62
     0
100
AcDbMText
 10
205359.1644509499
 20
14340.78038837387
 30
0.0
 40
37.5
 41
0.0
 71
     5
 72
     1
  1
\A1;50
  7
YOKO_GOTHIC
 73
     1
 44
1.0
1001
ACAD
1000
MTEXTBEGIN
1070
    73
1070
     1
1070
    44
1040
1.0
1070
    74
1070
     0
1000
MTEXTEND
  0
POINT
  5
34827
330
31BDB
100
AcDbEntity
  8
Defpoints
 62
     0
100
AcDbPoint
 10
205334.1644509499
 20
14422.14322376342
 30
0.0
  0
POINT
  5
34828
330
31BDB
100
AcDbEntity
  8
Defpoints
 62
     0
100
AcDbPoint
 10
205384.1644509498
 20
14422.14322376342
 30
0.0
  0
POINT
  5
34829
330
31BDB
100
AcDbEntity
  8
Defpoints
 62
     0
100
AcDbPoint
 10
205384.1644509498
 20
14308.71398837387
 30
0.0
  0
ENDBLK
  5
31BE4
330
31BDB
100
AcDbEntity
  8
0
100
AcDbBlockEnd
  0
BLOCK
  5
31BEF
330
31BE5
100
AcDbEntity
  8
0
100
AcDbBlockBegin
  2
*D6
 70
     1
 10
0.0
 20
0.0
 30
0.0
  3
*D6
  1

  0
LINE
  5
3482A
330
31BE5
100
AcDbEntity
  8
D-STR-DIM　寸法線、寸法値
 62
     0
370
    -2
100
AcDbLine
 10
204984.1644509498
 20
14398.14322376341
 30
0.0
 11
204984.1644509498
 21
14215.03607059287
 31
0.0
  0
LINE
  5
3482B
330
31BE5
100
AcDbEntity
  8
D-STR-DIM　寸法線、寸法値
 62
     0
370
    -2
100
AcDbLine
 10
205384.1644509498
 20
14398.14322376341
 30
0.0
 11
205384.1644509498
 21
14215.03607059287
 31
0.0
  0
LINE
  5
3482C
330
31BE5
100
AcDbEntity
  8
D-STR-DIM　寸法線、寸法値
 62
     0
370
    -2
100
AcDbLine
 10
204984.1644509498
 20
14233.03607059287
 30
0.0
 11
205384.1644509498
 21
14233.03607059287
 31
0.0
  0
INSERT
  5
3482D
330
31BE5
100
AcDbEntity
  8
D-STR-DIM　寸法線、寸法値
 62
     0
370
    -2
100
AcDbBlockReference
  2
_DotSmall
 10
204984.1644509498
 20
14233.03607059287
 30
0.0
 41
45.0
 42
45.0
 43
45.0
 50
180.0
  0
INSERT
  5
3482E
330
31BE5
100
AcDbEntity
  8
D-STR-DIM　寸法線、寸法値
 62
     0
370
    -2
100
AcDbBlockReference
  2
_DotSmall
 10
205384.1644509498
 20
14233.03607059287
 30
0.0
 41
45.0
 42
45.0
 43
45.0
  0
MTEXT
  5
3482F
330
31BE5
100
AcDbEntity
  8
D-STR-DIM　寸法線、寸法値
 62
     0
100
AcDbMText
 10
205184.1644509499
 20
14265.10247059287
 30
0.0
 40
37.5
 41
0.0
 71
     5
 72
     1
  1
\A1;400x400
  7
YOKO_GOTHIC
 73
     1
 44
1.0
1001
ACAD
1000
MTEXTBEGIN
1070
    73
1070
     1
1070
    44
1040
1.0
1070
    74
1070
     0
1000
MTEXTEND
  0
POINT
  5
34830
330
31BE5
100
AcDbEntity
  8
Defpoints
 62
     0
100
AcDbPoint
 10
204984.1644509498
 20
14422.14322376342
 30
0.0
  0
POINT
  5
34831
330
31BE5
100
AcDbEntity
  8
Defpoints
 62
     0
100
AcDbPoint
 10
205384.1644509498
 20
14422.14322376342
 30
0.0
  0
POINT
  5
34832
330
31BE5
100
AcDbEntity
  8
Defpoints
 62
     0
100
AcDbPoint
 10
205384.1644509498
 20
14233.03607059287
 30
0.0
  0
ENDBLK
  5
31BF0
330
31BE5
100
AcDbEntity
  8
0
100
AcDbBlockEnd
  0
BLOCK
  5
341DD
330
341D3
100
AcDbEntity
  8
0
100
AcDbBlockBegin
  2
*D7
 70
     1
 10
0.0
 20
0.0
 30
0.0
  3
*D7
  1

  0
LINE
  5
34833
330
341D3
100
AcDbEntity
  8
D-STR-DIM　寸法線、寸法値
 62
     0
370
    -2
100
AcDbLine
 10
205060.1644509498
 20
15321.99701736249
 30
0.0
 11
204815.0624715776
 21
15321.99701736249
 31
0.0
  0
LINE
  5
34834
330
341D3
100
AcDbEntity
  8
D-STR-DIM　寸法線、寸法値
 62
     0
370
    -2
100
AcDbLine
 10
205135.1644509499
 20
14922.14322376342
 30
0.0
 11
204815.0624715776
 21
14922.14322376342
 31
0.0
  0
LINE
  5
34835
330
341D3
100
AcDbEntity
  8
D-STR-DIM　寸法線、寸法値
 62
     0
370
    -2
100
AcDbLine
 10
204833.0624715776
 20
15321.99701736249
 30
0.0
 11
204833.0624715776
 21
14922.14322376342
 31
0.0
  0
INSERT
  5
34836
330
341D3
100
AcDbEntity
  8
D-STR-DIM　寸法線、寸法値
 62
     0
370
    -2
100
AcDbBlockReference
  2
_DotSmall
 10
204833.0624715776
 20
15321.99701736249
 30
0.0
 41
45.0
 42
45.0
 43
45.0
 50
90.0
  0
INSERT
  5
34837
330
341D3
100
AcDbEntity
  8
D-STR-DIM　寸法線、寸法値
 62
     0
370
    -2
100
AcDbBlockReference
  2
_DotSmall
 10
204833.0624715776
 20
14922.14322376342
 30
0.0
 41
45.0
 42
45.0
 43
45.0
 50
270.0
  0
MTEXT
  5
34838
330
341D3
100
AcDbEntity
  8
D-STR-DIM　寸法線、寸法値
 62
     0
100
AcDbMText
 10
204797.8552086334
 20
15122.07012056299
 30
0.0
 40
37.5
 41
0.0
 71
     5
 72
     1
  1
\A1;(400)
  7
YOKO_GOTHIC
 11
0.0000000000000001
 21
1.0
 31
0.0
 73
     1
 44
1.0
1001
ACAD
1000
MTEXTBEGIN
1070
    73
1070
     1
1070
    44
1040
1.0
1070
    74
1070
     0
1000
MTEXTEND
  0
POINT
  5
34839
330
341D3
100
AcDbEntity
  8
Defpoints
 62
     0
100
AcDbPoint
 10
205084.1644509499
 20
15321.99701736249
 30
0.0
  0
POINT
  5
3483A
330
341D3
100
AcDbEntity
  8
Defpoints
 62
     0
100
AcDbPoint
 10
205159.1644509498
 20
14922.14322376342
 30
0.0
  0
POINT
  5
3483B
330
341D3
100
AcDbEntity
  8
Defpoints
 62
     0
100
AcDbPoint
 10
204833.0624715776
 20
14922.14322376342
 30
0.0
  0
ENDBLK
  5
341DE
330
341D3
100
AcDbEntity
  8
0
100
AcDbBlockEnd
  0
BLOCK
  5
341E9
330
341DF
100
AcDbEntity
  8
0
100
AcDbBlockBegin
  2
*D8
 70
     1
 10
0.0
 20
0.0
 30
0.0
  3
*D8
  1

  0
LINE
  5
3483C
330
341DF
100
AcDbEntity
  8
D-STR-DIM　寸法線、寸法値
 62
     0
370
    -2
100
AcDbLine
 10
205135.1644509499
 20
14922.14322376342
 30
0.0
 11
204815.0624715776
 21
14922.14322376342
 31
0.0
  0
LINE
  5
3483D
330
341DF
100
AcDbEntity
  8
D-STR-DIM　寸法線、寸法値
 62
     0
370
    -2
100
AcDbLine
 10
205010.1644509499
 20
14822.14322376342
 30
0.0
 11
204815.0624715776
 21
14822.14322376342
 31
0.0
  0
LINE
  5
3483E
330
341DF
100
AcDbEntity
  8
D-STR-DIM　寸法線、寸法値
 62
     0
370
    -2
100
AcDbLine
 10
204833.0624715776
 20
14922.14322376342
 30
0.0
 11
204833.0624715776
 21
14822.14322376342
 31
0.0
  0
INSERT
  5
3483F
330
341DF
100
AcDbEntity
  8
D-STR-DIM　寸法線、寸法値
 62
     0
370
    -2
100
AcDbBlockReference
  2
_DotSmall
 10
204833.0624715776
 20
14922.14322376342
 30
0.0
 41
45.0
 42
45.0
 43
45.0
 50
90.0
  0
INSERT
  5
34840
330
341DF
100
AcDbEntity
  8
D-STR-DIM　寸法線、寸法値
 62
     0
370
    -2
100
AcDbBlockReference
  2
_DotSmall
 10
204833.0624715776
 20
14822.14322376342
 30
0.0
 41
45.0
 42
45.0
 43
45.0
 50
270.0
  0
MTEXT
  5
34841
330
341DF
100
AcDbEntity
  8
D-STR-DIM　寸法線、寸法値
 62
     0
100
AcDbMText
 10
204800.9960715776
 20
14872.14322376345
 30
0.0
 40
37.5
 41
0.0
 71
     5
 72
     1
  1
\A1;100
  7
YOKO_GOTHIC
 11
0.0000000000000001
 21
1.0
 31
0.0
 73
     1
 44
1.0
1001
ACAD
1000
MTEXTBEGIN
1070
    73
1070
     1
1070
    44
1040
1.0
1070
    74
1070
     0
1000
MTEXTEND
  0
POINT
  5
34842
330
341DF
100
AcDbEntity
  8
Defpoints
 62
     0
100
AcDbPoint
 10
205159.1644509498
 20
14922.14322376342
 30
0.0
  0
POINT
  5
34843
330
341DF
100
AcDbEntity
  8
Defpoints
 62
     0
100
AcDbPoint
 10
205034.1644509499
 20
14822.14322376342
 30
0.0
  0
POINT
  5
34844
330
341DF
100
AcDbEntity
  8
Defpoints
 62
     0
100
AcDbPoint
 10
204833.0624715776
 20
14822.14322376342
 30
0.0
  0
ENDBLK
  5
341EA
330
341DF
100
AcDbEntity
  8
0
100
AcDbBlockEnd
  0
BLOCK
  5
341F5
330
341EB
100
AcDbEntity
  8
0
100
AcDbBlockBegin
  2
*D9
 70
     1
 10
0.0
 20
0.0
 30
0.0
  3
*D9
  1

  0
LINE
  5
34845
330
341EB
100
AcDbEntity
  8
D-STR-DIM　寸法線、寸法値
 62
     0
370
    -2
100
AcDbLine
 10
205010.1644509499
 20
14822.14322376342
 30
0.0
 11
204815.0624715776
 21
14822.14322376342
 31
0.0
  0
LINE
  5
34846
330
341EB
100
AcDbEntity
  8
D-STR-DIM　寸法線、寸法値
 62
     0
370
    -2
100
AcDbLine
 10
204960.1644509499
 20
14522.14322376342
 30
0.0
 11
204815.0624715776
 21
14522.14322376342
 31
0.0
  0
LINE
  5
34847
330
341EB
100
AcDbEntity
  8
D-STR-DIM　寸法線、寸法値
 62
     0
370
    -2
100
AcDbLine
 10
204833.0624715776
 20
14822.14322376342
 30
0.0
 11
204833.0624715776
 21
14522.14322376342
 31
0.0
  0
INSERT
  5
34848
330
341EB
100
AcDbEntity
  8
D-STR-DIM　寸法線、寸法値
 62
     0
370
    -2
100
AcDbBlockReference
  2
_DotSmall
 10
204833.0624715776
 20
14822.14322376342
 30
0.0
 41
45.0
 42
45.0
 43
45.0
 50
90.0
  0
INSERT
  5
34849
330
341EB
100
AcDbEntity
  8
D-STR-DIM　寸法線、寸法値
 62
     0
370
    -2
100
AcDbBlockReference
  2
_DotSmall
 10
204833.0624715776
 20
14522.14322376342
 30
0.0
 41
45.0
 42
45.0
 43
45.0
 50
270.0
  0
MTEXT
  5
3484A
330
341EB
100
AcDbEntity
  8
D-STR-DIM　寸法線、寸法値
 62
     0
100
AcDbMText
 10
204800.9960715776
 20
14672.14322376345
 30
0.0
 40
37.5
 41
0.0
 71
     5
 72
     1
  1
\A1;300
  7
YOKO_GOTHIC
 11
0.0000000000000001
 21
1.0
 31
0.0
 73
     1
 44
1.0
1001
ACAD
1000
MTEXTBEGIN
1070
    73
1070
     1
1070
    44
1040
1.0
1070
    74
1070
     0
1000
MTEXTEND
  0
POINT
  5
3484B
330
341EB
100
AcDbEntity
  8
Defpoints
 62
     0
100
AcDbPoint
 10
205034.1644509499
 20
14822.14322376342
 30
0.0
  0
POINT
  5
3484C
330
341EB
100
AcDbEntity
  8
Defpoints
 62
     0
100
AcDbPoint
 10
204984.1644509498
 20
14522.14322376342
 30
0.0
  0
POINT
  5
3484D
330
341EB
100
AcDbEntity
  8
Defpoints
 62
     0
100
AcDbPoint
 10
204833.0624715776
 20
14522.14322376342
 30
0.0
  0
ENDBLK
  5
341F6
330
341EB
100
AcDbEntity
  8
0
100
AcDbBlockEnd
  0
BLOCK
  5
34201
330
341F7
100
AcDbEntity
  8
0
100
AcDbBlockBegin
  2
*D10
 70
     1
 10
0.0
 20
0.0
 30
0.0
  3
*D10
  1

  0
LINE
  5
3484E
330
341F7
100
AcDbEntity
  8
D-STR-DIM　寸法線、寸法値
 62
     0
370
    -2
100
AcDbLine
 10
204960.1644509499
 20
14522.14322376342
 30
0.0
 11
204815.0624715776
 21
14522.14322376342
 31
0.0
  0
LINE
  5
3484F
330
341F7
100
AcDbEntity
  8
D-STR-DIM　寸法線、寸法値
 62
     0
370
    -2
100
AcDbLine
 10
204960.1644509499
 20
14422.14322376342
 30
0.0
 11
204815.0624715776
 21
14422.14322376342
 31
0.0
  0
LINE
  5
34850
330
341F7
100
AcDbEntity
  8
D-STR-DIM　寸法線、寸法値
 62
     0
370
    -2
100
AcDbLine
 10
204833.0624715776
 20
14522.14322376342
 30
0.0
 11
204833.0624715776
 21
14422.14322376342
 31
0.0
  0
INSERT
  5
34851
330
341F7
100
AcDbEntity
  8
D-STR-DIM　寸法線、寸法値
 62
     0
370
    -2
100
AcDbBlockReference
  2
_DotSmall
 10
204833.0624715776
 20
14522.14322376342
 30
0.0
 41
45.0
 42
45.0
 43
45.0
 50
90.0
  0
INSERT
  5
34852
330
341F7
100
AcDbEntity
  8
D-STR-DIM　寸法線、寸法値
 62
     0
370
    -2
100
AcDbBlockReference
  2
_DotSmall
 10
204833.0624715776
 20
14422.14322376342
 30
0.0
 41
45.0
 42
45.0
 43
45.0
 50
270.0
  0
MTEXT
  5
34853
330
341F7
100
AcDbEntity
  8
D-STR-DIM　寸法線、寸法値
 62
     0
100
AcDbMText
 10
204800.9960715776
 20
14472.14322376345
 30
0.0
 40
37.5
 41
0.0
 71
     5
 72
     1
  1
\A1;100
  7
YOKO_GOTHIC
 11
0.0000000000000001
 21
1.0
 31
0.0
 73
     1
 44
1.0
1001
ACAD
1000
MTEXTBEGIN
1070
    73
1070
     1
1070
    44
1040
1.0
1070
    74
1070
     0
1000
MTEXTEND
  0
POINT
  5
34854
330
341F7
100
AcDbEntity
  8
Defpoints
 62
     0
100
AcDbPoint
 10
204984.1644509498
 20
14522.14322376342
 30
0.0
  0
POINT
  5
34855
330
341F7
100
AcDbEntity
  8
Defpoints
 62
     0
100
AcDbPoint
 10
204984.1644509498
 20
14422.14322376342
 30
0.0
  0
POINT
  5
34856
330
341F7
100
AcDbEntity
  8
Defpoints
 62
     0
100
AcDbPoint
 10
204833.0624715776
 20
14422.14322376342
 30
0.0
  0
ENDBLK
  5
34202
330
341F7
100
AcDbEntity
  8
0
100
AcDbBlockEnd
  0
BLOCK
  5
3420D
330
34203
100
AcDbEntity
  8
0
100
AcDbBlockBegin
  2
*D11
 70
     1
 10
0.0
 20
0.0
 30
0.0
  3
*D11
  1

  0
LINE
  5
34857
330
34203
100
AcDbEntity
  8
D-STR-DIM　寸法線、寸法値
 62
     0
370
    -2
100
AcDbLine
 10
205135.1644509499
 20
14922.14322376342
 30
0.0
 11
204675.6394999016
 21
14922.14322376342
 31
0.0
  0
LINE
  5
34858
330
34203
100
AcDbEntity
  8
D-STR-DIM　寸法線、寸法値
 62
     0
370
    -2
100
AcDbLine
 10
204960.1644509499
 20
14422.14322376342
 30
0.0
 11
204675.6394999016
 21
14422.14322376342
 31
0.0
  0
LINE
  5
34859
330
34203
100
AcDbEntity
  8
D-STR-DIM　寸法線、寸法値
 62
     0
370
    -2
100
AcDbLine
 10
204693.6394999016
 20
14922.14322376342
 30
0.0
 11
204693.6394999016
 21
14422.14322376342
 31
0.0
  0
INSERT
  5
3485A
330
34203
100
AcDbEntity
  8
D-STR-DIM　寸法線、寸法値
 62
     0
370
    -2
100
AcDbBlockReference
  2
_DotSmall
 10
204693.6394999016
 20
14922.14322376342
 30
0.0
 41
45.0
 42
45.0
 43
45.0
 50
90.0
  0
INSERT
  5
3485B
330
34203
100
AcDbEntity
  8
D-STR-DIM　寸法線、寸法値
 62
     0
370
    -2
100
AcDbBlockReference
  2
_DotSmall
 10
204693.6394999016
 20
14422.14322376342
 30
0.0
 41
45.0
 42
45.0
 43
45.0
 50
270.0
  0
MTEXT
  5
3485C
330
34203
100
AcDbEntity
  8
D-STR-DIM　寸法線、寸法値
 62
     0
100
AcDbMText
 10
204661.5730999016
 20
14672.14322376345
 30
0.0
 40
37.5
 41
0.0
 71
     5
 72
     1
  1
\A1;500
  7
YOKO_GOTHIC
 11
0.0000000000000001
 21
1.0
 31
0.0
 73
     1
 44
1.0
1001
ACAD
1000
MTEXTBEGIN
1070
    73
1070
     1
1070
    44
1040
1.0
1070
    74
1070
     0
1000
MTEXTEND
  0
POINT
  5
3485D
330
34203
100
AcDbEntity
  8
Defpoints
 62
     0
100
AcDbPoint
 10
205159.1644509498
 20
14922.14322376342
 30
0.0
  0
POINT
  5
3485E
330
34203
100
AcDbEntity
  8
Defpoints
 62
     0
100
AcDbPoint
 10
204984.1644509498
 20
14422.14322376342
 30
0.0
  0
POINT
  5
3485F
330
34203
100
AcDbEntity
  8
Defpoints
 62
     0
100
AcDbPoint
 10
204693.6394999016
 20
14422.14322376342
 30
0.0
  0
ENDBLK
  5
3420E
330
34203
100
AcDbEntity
  8
0
100
AcDbBlockEnd
  0
BLOCK
  5
34219
330
3420F
100
AcDbEntity
  8
0
100
AcDbBlockBegin
  2
*D12
 70
     1
 10
0.0
 20
0.0
 30
0.0
  3
*D12
  1

  0
LINE
  5
34F18
330
3420F
100
AcDbEntity
  8
D-STR-DIM　寸法線、寸法値
 62
     0
370
    -2
100
AcDbLine
 10
205135.1644509499
 20
14922.14322376342
 30
0.0
 11
204675.6394999016
 21
14922.14322376342
 31
0.0
  0
LINE
  5
34F19
330
3420F
100
AcDbEntity
  8
D-STR-DIM　寸法線、寸法値
 62
     0
370
    -2
100
AcDbLine
 10
204960.1644509499
 20
15763.28594899469
 30
0.0
 11
204675.6394999016
 21
15763.28594899469
 31
0.0
  0
LINE
  5
34F1A
330
3420F
100
AcDbEntity
  8
D-STR-DIM　寸法線、寸法値
 62
     0
370
    -2
100
AcDbLine
 10
204693.6394999016
 20
14922.14322376342
 30
0.0
 11
204693.6394999016
 21
15763.28594899469
 31
0.0
  0
INSERT
  5
34F1B
330
3420F
100
AcDbEntity
  8
D-STR-DIM　寸法線、寸法値
 62
     0
370
    -2
100
AcDbBlockReference
  2
_DotSmall
 10
204693.6394999016
 20
14922.14322376342
 30
0.0
 41
45.0
 42
45.0
 43
45.0
 50
270.0
  0
INSERT
  5
34F1C
330
3420F
100
AcDbEntity
  8
D-STR-DIM　寸法線、寸法値
 62
     0
370
    -2
100
AcDbBlockReference
  2
_DotSmall
 10
204693.6394999016
 20
15763.28594899469
 30
0.0
 41
45.0
 42
45.0
 43
45.0
 50
90.0
  0
MTEXT
  5
34F1D
330
3420F
100
AcDbEntity
  8
D-STR-DIM　寸法線、寸法値
 62
     0
100
AcDbMText
 10
204658.4322369574
 20
15342.71458637908
 30
0.0
 40
37.5
 41
0.0
 71
     5
 72
     1
  1
\A1;(840)
  7
YOKO_GOTHIC
 11
0.0000000000000001
 21
1.0
 31
0.0
 73
     1
 44
1.0
1001
ACAD
1000
MTEXTBEGIN
1070
    73
1070
     1
1070
    44
1040
1.0
1070
    74
1070
     0
1000
MTEXTEND
  0
POINT
  5
34F1E
330
3420F
100
AcDbEntity
  8
Defpoints
 62
     0
100
AcDbPoint
 10
205159.1644509498
 20
14922.14322376342
 30
0.0
  0
POINT
  5
34F1F
330
3420F
100
AcDbEntity
  8
Defpoints
 62
     0
100
AcDbPoint
 10
204984.1644509498
 20
15763.28594899469
 30
0.0
  0
POINT
  5
34F20
330
3420F
100
AcDbEntity
  8
Defpoints
 62
     0
100
AcDbPoint
 10
204693.6394999016
 20
15763.28594899469
 30
0.0
  0
ENDBLK
  5
3421A
330
3420F
100
AcDbEntity
  8
0
100
AcDbBlockEnd
  0
BLOCK
  5
34392
330
34388
100
AcDbEntity
  8
0
100
AcDbBlockBegin
  2
*D13
 70
     1
 10
0.0
 20
0.0
 30
0.0
  3
*D13
  1

  0
LINE
  5
34E69
330
34388
100
AcDbEntity
  8
D-STR-DIM　寸法線、寸法値
 62
     0
370
    -2
100
AcDbLine
 10
205084.1644509499
 20
15789.35593114361
 30
0.0
 11
205084.1644509499
 21
15989.75158667055
 31
0.0
  0
LINE
  5
34E6A
330
34388
100
AcDbEntity
  8
D-STR-DIM　寸法線、寸法値
 62
     0
370
    -2
100
AcDbLine
 10
205184.1645509499
 20
15789.35593114358
 30
0.0
 11
205184.1645509499
 21
15989.75158667055
 31
0.0
  0
LINE
  5
34E6B
330
34388
100
AcDbEntity
  8
D-STR-DIM　寸法線、寸法値
 62
     0
370
    -2
100
AcDbLine
 10
205084.1644509499
 20
15971.75158667055
 30
0.0
 11
205184.1645509499
 21
15971.75158667055
 31
0.0
  0
INSERT
  5
34E6C
330
34388
100
AcDbEntity
  8
D-STR-DIM　寸法線、寸法値
 62
     0
370
    -2
100
AcDbBlockReference
  2
_DotSmall
 10
205084.1644509499
 20
15971.75158667055
 30
0.0
 41
45.0
 42
45.0
 43
45.0
 50
180.0
  0
INSERT
  5
34E6D
330
34388
100
AcDbEntity
  8
D-STR-DIM　寸法線、寸法値
 62
     0
370
    -2
100
AcDbBlockReference
  2
_DotSmall
 10
205184.1645509499
 20
15971.75158667055
 30
0.0
 41
45.0
 42
45.0
 43
45.0
  0
MTEXT
  5
34E6E
330
34388
100
AcDbEntity
  8
D-STR-DIM　寸法線、寸法値
 62
     0
100
AcDbMText
 10
205134.1645009499
 20
16003.81798667055
 30
0.0
 40
37.5
 41
0.0
 71
     5
 72
     1
  1
\A1;100
  7
YOKO_GOTHIC
 73
     1
 44
1.0
1001
ACAD
1000
MTEXTBEGIN
1070
    73
1070
     1
1070
    44
1040
1.0
1070
    74
1070
     0
1000
MTEXTEND
  0
POINT
  5
34E6F
330
34388
100
AcDbEntity
  8
Defpoints
 62
     0
100
AcDbPoint
 10
205084.1644509499
 20
15765.35593114361
 30
0.0
  0
POINT
  5
34E70
330
34388
100
AcDbEntity
  8
Defpoints
 62
     0
100
AcDbPoint
 10
205184.1645509499
 20
15765.35593114358
 30
0.0
  0
POINT
  5
34E71
330
34388
100
AcDbEntity
  8
Defpoints
 62
     0
100
AcDbPoint
 10
205184.1645509499
 20
15971.75158667055
 30
0.0
  0
ENDBLK
  5
34393
330
34388
100
AcDbEntity
  8
0
100
AcDbBlockEnd
  0
BLOCK
  5
3439E
330
34394
100
AcDbEntity
  8
0
100
AcDbBlockBegin
  2
*D14
 70
     1
 10
0.0
 20
0.0
 30
0.0
  3
*D14
  1

  0
LINE
  5
34E72
330
34394
100
AcDbEntity
  8
D-STR-DIM　寸法線、寸法値
 62
     0
370
    -2
100
AcDbLine
 10
205184.1645509499
 20
15789.35593114358
 30
0.0
 11
205184.1645509499
 21
15989.75158667055
 31
0.0
  0
LINE
  5
34E73
330
34394
100
AcDbEntity
  8
D-STR-DIM　寸法線、寸法値
 62
     0
370
    -2
100
AcDbLine
 10
205984.1644509499
 20
15789.35593114358
 30
0.0
 11
205984.1644509499
 21
15989.75158667055
 31
0.0
  0
LINE
  5
34E74
330
34394
100
AcDbEntity
  8
D-STR-DIM　寸法線、寸法値
 62
     0
370
    -2
100
AcDbLine
 10
205184.1645509499
 20
15971.75158667055
 30
0.0
 11
205984.1644509499
 21
15971.75158667055
 31
0.0
  0
INSERT
  5
34E75
330
34394
100
AcDbEntity
  8
D-STR-DIM　寸法線、寸法値
 62
     0
370
    -2
100
AcDbBlockReference
  2
_DotSmall
 10
205184.1645509499
 20
15971.75158667055
 30
0.0
 41
45.0
 42
45.0
 43
45.0
 50
180.0
  0
INSERT
  5
34E76
330
34394
100
AcDbEntity
  8
D-STR-DIM　寸法線、寸法値
 62
     0
370
    -2
100
AcDbBlockReference
  2
_DotSmall
 10
205984.1644509499
 20
15971.75158667055
 30
0.0
 41
45.0
 42
45.0
 43
45.0
  0
MTEXT
  5
34E77
330
34394
100
AcDbEntity
  8
D-STR-DIM　寸法線、寸法値
 62
     0
100
AcDbMText
 10
205584.1645009499
 20
16003.81798667055
 30
0.0
 40
37.5
 41
0.0
 71
     5
 72
     1
  1
\A1;800
  7
YOKO_GOTHIC
 73
     1
 44
1.0
1001
ACAD
1000
MTEXTBEGIN
1070
    73
1070
     1
1070
    44
1040
1.0
1070
    74
1070
     0
1000
MTEXTEND
  0
POINT
  5
34E78
330
34394
100
AcDbEntity
  8
Defpoints
 62
     0
100
AcDbPoint
 10
205184.1645509499
 20
15765.35593114358
 30
0.0
  0
POINT
  5
34E79
330
34394
100
AcDbEntity
  8
Defpoints
 62
     0
100
AcDbPoint
 10
205984.1644509499
 20
15765.35593114358
 30
0.0
  0
POINT
  5
34E7A
330
34394
100
AcDbEntity
  8
Defpoints
 62
     0
100
AcDbPoint
 10
205984.1644509499
 20
15971.75158667055
 30
0.0
  0
ENDBLK
  5
3439F
330
34394
100
AcDbEntity
  8
0
100
AcDbBlockEnd
  0
BLOCK
  5
343AA
330
343A0
100
AcDbEntity
  8
0
100
AcDbBlockBegin
  2
*D15
 70
     1
 10
0.0
 20
0.0
 30
0.0
  3
*D15
  1

  0
LINE
  5
34E45
330
343A0
100
AcDbEntity
  8
D-STR-DIM　寸法線、寸法値
 62
     0
370
    -2
100
AcDbLine
 10
205984.1644509499
 20
15789.35593114358
 30
0.0
 11
205984.1644509499
 21
15989.75158667055
 31
0.0
  0
LINE
  5
34E46
330
343A0
100
AcDbEntity
  8
D-STR-DIM　寸法線、寸法値
 62
     0
370
    -2
100
AcDbLine
 10
206784.1643509499
 20
15789.35593114358
 30
0.0
 11
206784.1643509499
 21
15989.75158667055
 31
0.0
  0
LINE
  5
34E47
330
343A0
100
AcDbEntity
  8
D-STR-DIM　寸法線、寸法値
 62
     0
370
    -2
100
AcDbLine
 10
205984.1644509499
 20
15971.75158667055
 30
0.0
 11
206784.1643509499
 21
15971.75158667055
 31
0.0
  0
INSERT
  5
34E48
330
343A0
100
AcDbEntity
  8
D-STR-DIM　寸法線、寸法値
 62
     0
370
    -2
100
AcDbBlockReference
  2
_DotSmall
 10
205984.1644509499
 20
15971.75158667055
 30
0.0
 41
45.0
 42
45.0
 43
45.0
 50
180.0
  0
INSERT
  5
34E49
330
343A0
100
AcDbEntity
  8
D-STR-DIM　寸法線、寸法値
 62
     0
370
    -2
100
AcDbBlockReference
  2
_DotSmall
 10
206784.1643509499
 20
15971.75158667055
 30
0.0
 41
45.0
 42
45.0
 43
45.0
  0
MTEXT
  5
34E4A
330
343A0
100
AcDbEntity
  8
D-STR-DIM　寸法線、寸法値
 62
     0
100
AcDbMText
 10
206384.1644009499
 20
16003.81798667055
 30
0.0
 40
37.5
 41
0.0
 71
     5
 72
     1
  1
\A1;800
  7
YOKO_GOTHIC
 73
     1
 44
1.0
1001
ACAD
1000
MTEXTBEGIN
1070
    73
1070
     1
1070
    44
1040
1.0
1070
    74
1070
     0
1000
MTEXTEND
  0
POINT
  5
34E4B
330
343A0
100
AcDbEntity
  8
Defpoints
 62
     0
100
AcDbPoint
 10
205984.1644509499
 20
15765.35593114358
 30
0.0
  0
POINT
  5
34E4C
330
343A0
100
AcDbEntity
  8
Defpoints
 62
     0
100
AcDbPoint
 10
206784.1643509499
 20
15765.35593114358
 30
0.0
  0
POINT
  5
34E4D
330
343A0
100
AcDbEntity
  8
Defpoints
 62
     0
100
AcDbPoint
 10
206784.1643509499
 20
15971.75158667055
 30
0.0
  0
ENDBLK
  5
343AB
330
343A0
100
AcDbEntity
  8
0
100
AcDbBlockEnd
  0
BLOCK
  5
343B6
330
343AC
100
AcDbEntity
  8
0
100
AcDbBlockBegin
  2
*D16
 70
     1
 10
0.0
 20
0.0
 30
0.0
  3
*D16
  1

  0
LINE
  5
34E4E
330
343AC
100
AcDbEntity
  8
D-STR-DIM　寸法線、寸法値
 62
     0
370
    -2
100
AcDbLine
 10
206784.1643509499
 20
15789.35593114358
 30
0.0
 11
206784.1643509499
 21
15989.75158667055
 31
0.0
  0
LINE
  5
34E4F
330
343AC
100
AcDbEntity
  8
D-STR-DIM　寸法線、寸法値
 62
     0
370
    -2
100
AcDbLine
 10
206884.1644509499
 20
15789.35593114358
 30
0.0
 11
206884.1644509499
 21
15989.75158667055
 31
0.0
  0
LINE
  5
34E50
330
343AC
100
AcDbEntity
  8
D-STR-DIM　寸法線、寸法値
 62
     0
370
    -2
100
AcDbLine
 10
206784.1643509499
 20
15971.75158667055
 30
0.0
 11
206884.1644509499
 21
15971.75158667055
 31
0.0
  0
INSERT
  5
34E51
330
343AC
100
AcDbEntity
  8
D-STR-DIM　寸法線、寸法値
 62
     0
370
    -2
100
AcDbBlockReference
  2
_DotSmall
 10
206784.1643509499
 20
15971.75158667055
 30
0.0
 41
45.0
 42
45.0
 43
45.0
 50
180.0
  0
INSERT
  5
34E52
330
343AC
100
AcDbEntity
  8
D-STR-DIM　寸法線、寸法値
 62
     0
370
    -2
100
AcDbBlockReference
  2
_DotSmall
 10
206884.1644509499
 20
15971.75158667055
 30
0.0
 41
45.0
 42
45.0
 43
45.0
  0
MTEXT
  5
34E53
330
343AC
100
AcDbEntity
  8
D-STR-DIM　寸法線、寸法値
 62
     0
100
AcDbMText
 10
206834.1644009498
 20
16003.81798667055
 30
0.0
 40
37.5
 41
0.0
 71
     5
 72
     1
  1
\A1;100
  7
YOKO_GOTHIC
 73
     1
 44
1.0
1001
ACAD
1000
MTEXTBEGIN
1070
    73
1070
     1
1070
    44
1040
1.0
1070
    74
1070
     0
1000
MTEXTEND
  0
POINT
  5
34E54
330
343AC
100
AcDbEntity
  8
Defpoints
 62
     0
100
AcDbPoint
 10
206784.1643509499
 20
15765.35593114358
 30
0.0
  0
POINT
  5
34E55
330
343AC
100
AcDbEntity
  8
Defpoints
 62
     0
100
AcDbPoint
 10
206884.1644509499
 20
15765.35593114358
 30
0.0
  0
POINT
  5
34E56
330
343AC
100
AcDbEntity
  8
Defpoints
 62
     0
100
AcDbPoint
 10
206884.1644509499
 20
15971.75158667055
 30
0.0
  0
ENDBLK
  5
343B7
330
343AC
100
AcDbEntity
  8
0
100
AcDbBlockEnd
  0
BLOCK
  5
343C2
330
343B8
100
AcDbEntity
  8
0
100
AcDbBlockBegin
  2
*D17
 70
     1
 10
0.0
 20
0.0
 30
0.0
  3
*D17
  1

  0
LINE
  5
3488D
330
343B8
100
AcDbEntity
  8
D-STR-DIM　寸法線、寸法値
 62
     0
370
    -2
100
AcDbLine
 10
205084.1644509499
 20
15789.35593114361
 30
0.0
 11
205084.1644509499
 21
16082.99900192488
 31
0.0
  0
LINE
  5
3488E
330
343B8
100
AcDbEntity
  8
D-STR-DIM　寸法線、寸法値
 62
     0
370
    -2
100
AcDbLine
 10
206884.1644509499
 20
15789.35593114358
 30
0.0
 11
206884.1644509499
 21
16082.99900192488
 31
0.0
  0
LINE
  5
3488F
330
343B8
100
AcDbEntity
  8
D-STR-DIM　寸法線、寸法値
 62
     0
370
    -2
100
AcDbLine
 10
205084.1644509499
 20
16064.99900192488
 30
0.0
 11
206884.1644509499
 21
16064.99900192488
 31
0.0
  0
INSERT
  5
34890
330
343B8
100
AcDbEntity
  8
D-STR-DIM　寸法線、寸法値
 62
     0
370
    -2
100
AcDbBlockReference
  2
_DotSmall
 10
205084.1644509499
 20
16064.99900192488
 30
0.0
 41
45.0
 42
45.0
 43
45.0
 50
180.0
  0
INSERT
  5
34891
330
343B8
100
AcDbEntity
  8
D-STR-DIM　寸法線、寸法値
 62
     0
370
    -2
100
AcDbBlockReference
  2
_DotSmall
 10
206884.1644509499
 20
16064.99900192488
 30
0.0
 41
45.0
 42
45.0
 43
45.0
  0
MTEXT
  5
34892
330
343B8
100
AcDbEntity
  8
D-STR-DIM　寸法線、寸法値
 62
     0
100
AcDbMText
 10
205984.1644509499
 20
16097.06540192488
 30
0.0
 40
37.5
 41
0.0
 71
     5
 72
     1
  1
\A1;1800
  7
YOKO_GOTHIC
 73
     1
 44
1.0
1001
ACAD
1000
MTEXTBEGIN
1070
    73
1070
     1
1070
    44
1040
1.0
1070
    74
1070
     0
1000
MTEXTEND
  0
POINT
  5
34893
330
343B8
100
AcDbEntity
  8
Defpoints
 62
     0
100
AcDbPoint
 10
205084.1644509499
 20
15765.35593114361
 30
0.0
  0
POINT
  5
34894
330
343B8
100
AcDbEntity
  8
Defpoints
 62
     0
100
AcDbPoint
 10
206884.1644509499
 20
15765.35593114358
 30
0.0
  0
POINT
  5
34895
330
343B8
100
AcDbEntity
  8
Defpoints
 62
     0
100
AcDbPoint
 10
206884.1644509499
 20
16064.99900192488
 30
0.0
  0
ENDBLK
  5
343C3
330
343B8
100
AcDbEntity
  8
0
100
AcDbBlockEnd
  0
BLOCK
  5
3446D
330
34463
100
AcDbEntity
  8
0
100
AcDbBlockBegin
  2
*D18
 70
     1
 10
0.0
 20
0.0
 30
0.0
  3
*D18
  1

  0
LINE
  5
35050
330
34463
100
AcDbEntity
  8
D-STR-DIM　寸法線、寸法値
 62
     0
370
    -2
100
AcDbLine
 10
208212.6563295128
 20
15321.69122441652
 30
0.0
 11
207977.6596796877
 21
15321.69122441652
 31
0.0
  0
LINE
  5
35051
330
34463
100
AcDbEntity
  8
D-STR-DIM　寸法線、寸法値
 62
     0
370
    -2
100
AcDbLine
 10
208437.1846307361
 20
14921.99701736249
 30
0.0
 11
207977.6596796877
 21
14921.99701736249
 31
0.0
  0
LINE
  5
35052
330
34463
100
AcDbEntity
  8
D-STR-DIM　寸法線、寸法値
 62
     0
370
    -2
100
AcDbLine
 10
207995.6596796877
 20
15321.69122441652
 30
0.0
 11
207995.6596796877
 21
14921.99701736249
 31
0.0
  0
INSERT
  5
35053
330
34463
100
AcDbEntity
  8
D-STR-DIM　寸法線、寸法値
 62
     0
370
    -2
100
AcDbBlockReference
  2
_DotSmall
 10
207995.6596796877
 20
15321.69122441652
 30
0.0
 41
45.0
 42
45.0
 43
45.0
 50
90.0
  0
INSERT
  5
35054
330
34463
100
AcDbEntity
  8
D-STR-DIM　寸法線、寸法値
 62
     0
370
    -2
100
AcDbBlockReference
  2
_DotSmall
 10
207995.6596796877
 20
14921.99701736249
 30
0.0
 41
45.0
 42
45.0
 43
45.0
 50
270.0
  0
MTEXT
  5
35055
330
34463
100
AcDbEntity
  8
D-STR-DIM　寸法線、寸法値
 62
     0
100
AcDbMText
 10
207960.4524167436
 20
15121.84412088954
 30
0.0
 40
37.5
 41
0.0
 71
     5
 72
     1
  1
\A1;(400)
  7
YOKO_GOTHIC
 11
0.0000000000000001
 21
1.0
 31
0.0
 73
     1
 44
1.0
1001
ACAD
1000
MTEXTBEGIN
1070
    73
1070
     1
1070
    44
1040
1.0
1070
    74
1070
     0
1000
MTEXTEND
  0
POINT
  5
35056
330
34463
100
AcDbEntity
  8
Defpoints
 62
     0
100
AcDbPoint
 10
208236.6563295127
 20
15321.69122441652
 30
0.0
  0
POINT
  5
35057
330
34463
100
AcDbEntity
  8
Defpoints
 62
     0
100
AcDbPoint
 10
208461.184630736
 20
14921.99701736249
 30
0.0
  0
POINT
  5
35058
330
34463
100
AcDbEntity
  8
Defpoints
 62
     0
100
AcDbPoint
 10
207995.6596796877
 20
14921.99701736249
 30
0.0
  0
ENDBLK
  5
3446E
330
34463
100
AcDbEntity
  8
0
100
AcDbBlockEnd
  0
BLOCK
  5
34479
330
3446F
100
AcDbEntity
  8
0
100
AcDbBlockBegin
  2
*D19
 70
     1
 10
0.0
 20
0.0
 30
0.0
  3
*D19
  1

  0
LINE
  5
35062
330
3446F
100
AcDbEntity
  8
D-STR-DIM　寸法線、寸法値
 62
     0
370
    -2
100
AcDbLine
 10
208437.1846307361
 20
14921.99701736249
 30
0.0
 11
208117.0826513638
 21
14921.99701736249
 31
0.0
  0
LINE
  5
35063
330
3446F
100
AcDbEntity
  8
D-STR-DIM　寸法線、寸法値
 62
     0
370
    -2
100
AcDbLine
 10
208312.184630736
 20
14821.99701736249
 30
0.0
 11
208117.0826513638
 21
14821.99701736249
 31
0.0
  0
LINE
  5
35064
330
3446F
100
AcDbEntity
  8
D-STR-DIM　寸法線、寸法値
 62
     0
370
    -2
100
AcDbLine
 10
208135.0826513638
 20
14921.99701736249
 30
0.0
 11
208135.0826513638
 21
14821.99701736249
 31
0.0
  0
INSERT
  5
35065
330
3446F
100
AcDbEntity
  8
D-STR-DIM　寸法線、寸法値
 62
     0
370
    -2
100
AcDbBlockReference
  2
_DotSmall
 10
208135.0826513638
 20
14921.99701736249
 30
0.0
 41
45.0
 42
45.0
 43
45.0
 50
90.0
  0
INSERT
  5
35066
330
3446F
100
AcDbEntity
  8
D-STR-DIM　寸法線、寸法値
 62
     0
370
    -2
100
AcDbBlockReference
  2
_DotSmall
 10
208135.0826513638
 20
14821.99701736249
 30
0.0
 41
45.0
 42
45.0
 43
45.0
 50
270.0
  0
MTEXT
  5
35067
330
3446F
100
AcDbEntity
  8
D-STR-DIM　寸法線、寸法値
 62
     0
100
AcDbMText
 10
208103.0162513638
 20
14871.99701736252
 30
0.0
 40
37.5
 41
0.0
 71
     5
 72
     1
  1
\A1;100
  7
YOKO_GOTHIC
 11
0.0000000000000001
 21
1.0
 31
0.0
 73
     1
 44
1.0
1001
ACAD
1000
MTEXTBEGIN
1070
    73
1070
     1
1070
    44
1040
1.0
1070
    74
1070
     0
1000
MTEXTEND
  0
POINT
  5
35068
330
3446F
100
AcDbEntity
  8
Defpoints
 62
     0
100
AcDbPoint
 10
208461.184630736
 20
14921.99701736249
 30
0.0
  0
POINT
  5
35069
330
3446F
100
AcDbEntity
  8
Defpoints
 62
     0
100
AcDbPoint
 10
208336.184630736
 20
14821.99701736249
 30
0.0
  0
POINT
  5
3506A
330
3446F
100
AcDbEntity
  8
Defpoints
 62
     0
100
AcDbPoint
 10
208135.0826513638
 20
14821.99701736249
 30
0.0
  0
ENDBLK
  5
3447A
330
3446F
100
AcDbEntity
  8
0
100
AcDbBlockEnd
  0
BLOCK
  5
34485
330
3447B
100
AcDbEntity
  8
0
100
AcDbBlockBegin
  2
*D20
 70
     1
 10
0.0
 20
0.0
 30
0.0
  3
*D20
  1

  0
LINE
  5
35059
330
3447B
100
AcDbEntity
  8
D-STR-DIM　寸法線、寸法値
 62
     0
370
    -2
100
AcDbLine
 10
208312.184630736
 20
14821.99701736249
 30
0.0
 11
208117.0826513638
 21
14821.99701736249
 31
0.0
  0
LINE
  5
3505A
330
3447B
100
AcDbEntity
  8
D-STR-DIM　寸法線、寸法値
 62
     0
370
    -2
100
AcDbLine
 10
208262.184630736
 20
14521.99701736249
 30
0.0
 11
208117.0826513638
 21
14521.99701736249
 31
0.0
  0
LINE
  5
3505B
330
3447B
100
AcDbEntity
  8
D-STR-DIM　寸法線、寸法値
 62
     0
370
    -2
100
AcDbLine
 10
208135.0826513638
 20
14821.99701736249
 30
0.0
 11
208135.0826513638
 21
14521.99701736249
 31
0.0
  0
INSERT
  5
3505C
330
3447B
100
AcDbEntity
  8
D-STR-DIM　寸法線、寸法値
 62
     0
370
    -2
100
AcDbBlockReference
  2
_DotSmall
 10
208135.0826513638
 20
14821.99701736249
 30
0.0
 41
45.0
 42
45.0
 43
45.0
 50
90.0
  0
INSERT
  5
3505D
330
3447B
100
AcDbEntity
  8
D-STR-DIM　寸法線、寸法値
 62
     0
370
    -2
100
AcDbBlockReference
  2
_DotSmall
 10
208135.0826513638
 20
14521.99701736249
 30
0.0
 41
45.0
 42
45.0
 43
45.0
 50
270.0
  0
MTEXT
  5
3505E
330
3447B
100
AcDbEntity
  8
D-STR-DIM　寸法線、寸法値
 62
     0
100
AcDbMText
 10
208103.0162513638
 20
14671.99701736252
 30
0.0
 40
37.5
 41
0.0
 71
     5
 72
     1
  1
\A1;300
  7
YOKO_GOTHIC
 11
0.0000000000000001
 21
1.0
 31
0.0
 73
     1
 44
1.0
1001
ACAD
1000
MTEXTBEGIN
1070
    73
1070
     1
1070
    44
1040
1.0
1070
    74
1070
     0
1000
MTEXTEND
  0
POINT
  5
3505F
330
3447B
100
AcDbEntity
  8
Defpoints
 62
     0
100
AcDbPoint
 10
208336.184630736
 20
14821.99701736249
 30
0.0
  0
POINT
  5
35060
330
3447B
100
AcDbEntity
  8
Defpoints
 62
     0
100
AcDbPoint
 10
208286.184630736
 20
14521.99701736249
 30
0.0
  0
POINT
  5
35061
330
3447B
100
AcDbEntity
  8
Defpoints
 62
     0
100
AcDbPoint
 10
208135.0826513638
 20
14521.99701736249
 30
0.0
  0
ENDBLK
  5
34486
330
3447B
100
AcDbEntity
  8
0
100
AcDbBlockEnd
  0
BLOCK
  5
34491
330
34487
100
AcDbEntity
  8
0
100
AcDbBlockBegin
  2
*D21
 70
     1
 10
0.0
 20
0.0
 30
0.0
  3
*D21
  1

  0
LINE
  5
35015
330
34487
100
AcDbEntity
  8
D-STR-DIM　寸法線、寸法値
 62
     0
370
    -2
100
AcDbLine
 10
208262.184630736
 20
14521.99701736249
 30
0.0
 11
208117.0826513638
 21
14521.99701736249
 31
0.0
  0
LINE
  5
35016
330
34487
100
AcDbEntity
  8
D-STR-DIM　寸法線、寸法値
 62
     0
370
    -2
100
AcDbLine
 10
208262.184630736
 20
14421.99701736249
 30
0.0
 11
208117.0826513638
 21
14421.99701736249
 31
0.0
  0
LINE
  5
35017
330
34487
100
AcDbEntity
  8
D-STR-DIM　寸法線、寸法値
 62
     0
370
    -2
100
AcDbLine
 10
208135.0826513638
 20
14521.99701736249
 30
0.0
 11
208135.0826513638
 21
14421.99701736249
 31
0.0
  0
INSERT
  5
35018
330
34487
100
AcDbEntity
  8
D-STR-DIM　寸法線、寸法値
 62
     0
370
    -2
100
AcDbBlockReference
  2
_DotSmall
 10
208135.0826513638
 20
14521.99701736249
 30
0.0
 41
45.0
 42
45.0
 43
45.0
 50
90.0
  0
INSERT
  5
35019
330
34487
100
AcDbEntity
  8
D-STR-DIM　寸法線、寸法値
 62
     0
370
    -2
100
AcDbBlockReference
  2
_DotSmall
 10
208135.0826513638
 20
14421.99701736249
 30
0.0
 41
45.0
 42
45.0
 43
45.0
 50
270.0
  0
MTEXT
  5
3501A
330
34487
100
AcDbEntity
  8
D-STR-DIM　寸法線、寸法値
 62
     0
100
AcDbMText
 10
208103.0162513638
 20
14471.99701736253
 30
0.0
 40
37.5
 41
0.0
 71
     5
 72
     1
  1
\A1;100
  7
YOKO_GOTHIC
 11
0.0000000000000001
 21
1.0
 31
0.0
 73
     1
 44
1.0
1001
ACAD
1000
MTEXTBEGIN
1070
    73
1070
     1
1070
    44
1040
1.0
1070
    74
1070
     0
1000
MTEXTEND
  0
POINT
  5
3501B
330
34487
100
AcDbEntity
  8
Defpoints
 62
     0
100
AcDbPoint
 10
208286.184630736
 20
14521.99701736249
 30
0.0
  0
POINT
  5
3501C
330
34487
100
AcDbEntity
  8
Defpoints
 62
     0
100
AcDbPoint
 10
208286.184630736
 20
14421.99701736249
 30
0.0
  0
POINT
  5
3501D
330
34487
100
AcDbEntity
  8
Defpoints
 62
     0
100
AcDbPoint
 10
208135.0826513638
 20
14421.99701736249
 30
0.0
  0
ENDBLK
  5
34492
330
34487
100
AcDbEntity
  8
0
100
AcDbBlockEnd
  0
BLOCK
  5
3449D
330
34493
100
AcDbEntity
  8
0
100
AcDbBlockBegin
  2
*D22
 70
     1
 10
0.0
 20
0.0
 30
0.0
  3
*D22
  1

  0
LINE
  5
3500C
330
34493
100
AcDbEntity
  8
D-STR-DIM　寸法線、寸法値
 62
     0
370
    -2
100
AcDbLine
 10
208437.1846307361
 20
14921.99701736249
 30
0.0
 11
207977.6596796877
 21
14921.99701736249
 31
0.0
  0
LINE
  5
3500D
330
34493
100
AcDbEntity
  8
D-STR-DIM　寸法線、寸法値
 62
     0
370
    -2
100
AcDbLine
 10
208262.184630736
 20
14421.99701736249
 30
0.0
 11
207977.6596796877
 21
14421.99701736249
 31
0.0
  0
LINE
  5
3500E
330
34493
100
AcDbEntity
  8
D-STR-DIM　寸法線、寸法値
 62
     0
370
    -2
100
AcDbLine
 10
207995.6596796877
 20
14921.99701736249
 30
0.0
 11
207995.6596796877
 21
14421.99701736249
 31
0.0
  0
INSERT
  5
3500F
330
34493
100
AcDbEntity
  8
D-STR-DIM　寸法線、寸法値
 62
     0
370
    -2
100
AcDbBlockReference
  2
_DotSmall
 10
207995.6596796877
 20
14921.99701736249
 30
0.0
 41
45.0
 42
45.0
 43
45.0
 50
90.0
  0
INSERT
  5
35010
330
34493
100
AcDbEntity
  8
D-STR-DIM　寸法線、寸法値
 62
     0
370
    -2
100
AcDbBlockReference
  2
_DotSmall
 10
207995.6596796877
 20
14421.99701736249
 30
0.0
 41
45.0
 42
45.0
 43
45.0
 50
270.0
  0
MTEXT
  5
35011
330
34493
100
AcDbEntity
  8
D-STR-DIM　寸法線、寸法値
 62
     0
100
AcDbMText
 10
207963.5932796877
 20
14671.99701736252
 30
0.0
 40
37.5
 41
0.0
 71
     5
 72
     1
  1
\A1;500
  7
YOKO_GOTHIC
 11
0.0000000000000001
 21
1.0
 31
0.0
 73
     1
 44
1.0
1001
ACAD
1000
MTEXTBEGIN
1070
    73
1070
     1
1070
    44
1040
1.0
1070
    74
1070
     0
1000
MTEXTEND
  0
POINT
  5
35012
330
34493
100
AcDbEntity
  8
Defpoints
 62
     0
100
AcDbPoint
 10
208461.184630736
 20
14921.99701736249
 30
0.0
  0
POINT
  5
35013
330
34493
100
AcDbEntity
  8
Defpoints
 62
     0
100
AcDbPoint
 10
208286.184630736
 20
14421.99701736249
 30
0.0
  0
POINT
  5
35014
330
34493
100
AcDbEntity
  8
Defpoints
 62
     0
100
AcDbPoint
 10
207995.6596796877
 20
14421.99701736249
 30
0.0
  0
ENDBLK
  5
3449E
330
34493
100
AcDbEntity
  8
0
100
AcDbBlockEnd
  0
BLOCK
  5
3450F
330
34505
100
AcDbEntity
  8
0
100
AcDbBlockBegin
  2
*D23
 70
     1
 10
0.0
 20
0.0
 30
0.0
  3
*D23
  1

  0
LINE
  5
35035
330
34505
100
AcDbEntity
  8
D-STR-DIM　寸法線、寸法値
 62
     0
370
    -2
100
AcDbLine
 10
208336.184630736
 20
14398.14322376341
 30
0.0
 11
208336.184630736
 21
14290.71398837387
 31
0.0
  0
LINE
  5
35036
330
34505
100
AcDbEntity
  8
D-STR-DIM　寸法線、寸法値
 62
     0
370
    -2
100
AcDbLine
 10
208636.184630736
 20
14398.14322376341
 30
0.0
 11
208636.184630736
 21
14290.71398837387
 31
0.0
  0
LINE
  5
35037
330
34505
100
AcDbEntity
  8
D-STR-DIM　寸法線、寸法値
 62
     0
370
    -2
100
AcDbLine
 10
208336.184630736
 20
14308.71398837387
 30
0.0
 11
208636.184630736
 21
14308.71398837387
 31
0.0
  0
INSERT
  5
35038
330
34505
100
AcDbEntity
  8
D-STR-DIM　寸法線、寸法値
 62
     0
370
    -2
100
AcDbBlockReference
  2
_DotSmall
 10
208336.184630736
 20
14308.71398837387
 30
0.0
 41
45.0
 42
45.0
 43
45.0
 50
180.0
  0
INSERT
  5
35039
330
34505
100
AcDbEntity
  8
D-STR-DIM　寸法線、寸法値
 62
     0
370
    -2
100
AcDbBlockReference
  2
_DotSmall
 10
208636.184630736
 20
14308.71398837387
 30
0.0
 41
45.0
 42
45.0
 43
45.0
  0
MTEXT
  5
3503A
330
34505
100
AcDbEntity
  8
D-STR-DIM　寸法線、寸法値
 62
     0
100
AcDbMText
 10
208486.184630736
 20
14340.78038837387
 30
0.0
 40
37.5
 41
0.0
 71
     5
 72
     1
  1
\A1;300x300
  7
YOKO_GOTHIC
 73
     1
 44
1.0
1001
ACAD
1000
MTEXTBEGIN
1070
    73
1070
     1
1070
    44
1040
1.0
1070
    74
1070
     0
1000
MTEXTEND
  0
POINT
  5
3503B
330
34505
100
AcDbEntity
  8
Defpoints
 62
     0
100
AcDbPoint
 10
208336.184630736
 20
14422.14322376342
 30
0.0
  0
POINT
  5
3503C
330
34505
100
AcDbEntity
  8
Defpoints
 62
     0
100
AcDbPoint
 10
208636.184630736
 20
14422.14322376342
 30
0.0
  0
POINT
  5
3503D
330
34505
100
AcDbEntity
  8
Defpoints
 62
     0
100
AcDbPoint
 10
208636.184630736
 20
14308.71398837387
 30
0.0
  0
ENDBLK
  5
34510
330
34505
100
AcDbEntity
  8
0
100
AcDbBlockEnd
  0
BLOCK
  5
34519
330
34511
100
AcDbEntity
  8
0
100
AcDbBlockBegin
  2
*D24
 70
     1
 10
0.0
 20
0.0
 30
0.0
  3
*D24
  1

  0
LINE
  5
3502E
330
34511
100
AcDbEntity
  8
D-STR-DIM　寸法線、寸法値
 62
     0
370
    -2
100
AcDbLine
 10
208286.184630736
 20
14398.14322376341
 30
0.0
 11
208286.184630736
 21
14290.71398837387
 31
0.0
  0
LINE
  5
3502F
330
34511
100
AcDbEntity
  8
D-STR-DIM　寸法線、寸法値
 62
     0
370
    -2
100
AcDbLine
 10
208336.184630736
 20
14398.14322376341
 30
0.0
 11
208336.184630736
 21
14290.71398837387
 31
0.0
  0
LINE
  5
35030
330
34511
100
AcDbEntity
  8
D-STR-DIM　寸法線、寸法値
 62
     0
370
    -2
100
AcDbLine
 10
208286.184630736
 20
14308.71398837387
 30
0.0
 11
208336.184630736
 21
14308.71398837387
 31
0.0
  0
MTEXT
  5
35031
330
34511
100
AcDbEntity
  8
D-STR-DIM　寸法線、寸法値
 62
     0
100
AcDbMText
 10
208311.184630736
 20
14340.78038837387
 30
0.0
 40
37.5
 41
0.0
 71
     5
 72
     1
  1
\A1;50
  7
YOKO_GOTHIC
 73
     1
 44
1.0
1001
ACAD
1000
MTEXTBEGIN
1070
    73
1070
     1
1070
    44
1040
1.0
1070
    74
1070
     0
1000
MTEXTEND
  0
POINT
  5
35032
330
34511
100
AcDbEntity
  8
Defpoints
 62
     0
100
AcDbPoint
 10
208286.184630736
 20
14422.14322376342
 30
0.0
  0
POINT
  5
35033
330
34511
100
AcDbEntity
  8
Defpoints
 62
     0
100
AcDbPoint
 10
208336.184630736
 20
14422.14322376342
 30
0.0
  0
POINT
  5
35034
330
34511
100
AcDbEntity
  8
Defpoints
 62
     0
100
AcDbPoint
 10
208336.184630736
 20
14308.71398837387
 30
0.0
  0
ENDBLK
  5
3451A
330
34511
100
AcDbEntity
  8
0
100
AcDbBlockEnd
  0
BLOCK
  5
34523
330
3451B
100
AcDbEntity
  8
0
100
AcDbBlockBegin
  2
*D25
 70
     1
 10
0.0
 20
0.0
 30
0.0
  3
*D25
  1

  0
LINE
  5
35027
330
3451B
100
AcDbEntity
  8
D-STR-DIM　寸法線、寸法値
 62
     0
370
    -2
100
AcDbLine
 10
208636.184630736
 20
14398.14322376341
 30
0.0
 11
208636.184630736
 21
14290.71398837387
 31
0.0
  0
LINE
  5
35028
330
3451B
100
AcDbEntity
  8
D-STR-DIM　寸法線、寸法値
 62
     0
370
    -2
100
AcDbLine
 10
208686.184630736
 20
14398.14322376341
 30
0.0
 11
208686.184630736
 21
14290.71398837387
 31
0.0
  0
LINE
  5
35029
330
3451B
100
AcDbEntity
  8
D-STR-DIM　寸法線、寸法値
 62
     0
370
    -2
100
AcDbLine
 10
208636.184630736
 20
14308.71398837387
 30
0.0
 11
208686.184630736
 21
14308.71398837387
 31
0.0
  0
MTEXT
  5
3502A
330
3451B
100
AcDbEntity
  8
D-STR-DIM　寸法線、寸法値
 62
     0
100
AcDbMText
 10
208661.184630736
 20
14340.78038837387
 30
0.0
 40
37.5
 41
0.0
 71
     5
 72
     1
  1
\A1;50
  7
YOKO_GOTHIC
 73
     1
 44
1.0
1001
ACAD
1000
MTEXTBEGIN
1070
    73
1070
     1
1070
    44
1040
1.0
1070
    74
1070
     0
1000
MTEXTEND
  0
POINT
  5
3502B
330
3451B
100
AcDbEntity
  8
Defpoints
 62
     0
100
AcDbPoint
 10
208636.184630736
 20
14422.14322376342
 30
0.0
  0
POINT
  5
3502C
330
3451B
100
AcDbEntity
  8
Defpoints
 62
     0
100
AcDbPoint
 10
208686.184630736
 20
14422.14322376342
 30
0.0
  0
POINT
  5
3502D
330
3451B
100
AcDbEntity
  8
Defpoints
 62
     0
100
AcDbPoint
 10
208686.184630736
 20
14308.71398837387
 30
0.0
  0
ENDBLK
  5
34524
330
3451B
100
AcDbEntity
  8
0
100
AcDbBlockEnd
  0
BLOCK
  5
3452F
330
34525
100
AcDbEntity
  8
0
100
AcDbBlockBegin
  2
*D26
 70
     1
 10
0.0
 20
0.0
 30
0.0
  3
*D26
  1

  0
LINE
  5
3501E
330
34525
100
AcDbEntity
  8
D-STR-DIM　寸法線、寸法値
 62
     0
370
    -2
100
AcDbLine
 10
208286.184630736
 20
14398.14322376341
 30
0.0
 11
208286.184630736
 21
14215.03607059287
 31
0.0
  0
LINE
  5
3501F
330
34525
100
AcDbEntity
  8
D-STR-DIM　寸法線、寸法値
 62
     0
370
    -2
100
AcDbLine
 10
208686.184630736
 20
14398.14322376341
 30
0.0
 11
208686.184630736
 21
14215.03607059287
 31
0.0
  0
LINE
  5
35020
330
34525
100
AcDbEntity
  8
D-STR-DIM　寸法線、寸法値
 62
     0
370
    -2
100
AcDbLine
 10
208286.184630736
 20
14233.03607059287
 30
0.0
 11
208686.184630736
 21
14233.03607059287
 31
0.0
  0
INSERT
  5
35021
330
34525
100
AcDbEntity
  8
D-STR-DIM　寸法線、寸法値
 62
     0
370
    -2
100
AcDbBlockReference
  2
_DotSmall
 10
208286.184630736
 20
14233.03607059287
 30
0.0
 41
45.0
 42
45.0
 43
45.0
 50
180.0
  0
INSERT
  5
35022
330
34525
100
AcDbEntity
  8
D-STR-DIM　寸法線、寸法値
 62
     0
370
    -2
100
AcDbBlockReference
  2
_DotSmall
 10
208686.184630736
 20
14233.03607059287
 30
0.0
 41
45.0
 42
45.0
 43
45.0
  0
MTEXT
  5
35023
330
34525
100
AcDbEntity
  8
D-STR-DIM　寸法線、寸法値
 62
     0
100
AcDbMText
 10
208486.184630736
 20
14265.10247059287
 30
0.0
 40
37.5
 41
0.0
 71
     5
 72
     1
  1
\A1;400x400
  7
YOKO_GOTHIC
 73
     1
 44
1.0
1001
ACAD
1000
MTEXTBEGIN
1070
    73
1070
     1
1070
    44
1040
1.0
1070
    74
1070
     0
1000
MTEXTEND
  0
POINT
  5
35024
330
34525
100
AcDbEntity
  8
Defpoints
 62
     0
100
AcDbPoint
 10
208286.184630736
 20
14422.14322376342
 30
0.0
  0
POINT
  5
35025
330
34525
100
AcDbEntity
  8
Defpoints
 62
     0
100
AcDbPoint
 10
208686.184630736
 20
14422.14322376342
 30
0.0
  0
POINT
  5
35026
330
34525
100
AcDbEntity
  8
Defpoints
 62
     0
100
AcDbPoint
 10
208686.184630736
 20
14233.03607059287
 30
0.0
  0
ENDBLK
  5
34530
330
34525
100
AcDbEntity
  8
0
100
AcDbBlockEnd
  0
BLOCK
  5
3455D
330
34553
100
AcDbEntity
  8
0
100
AcDbBlockBegin
  2
*D27
 70
     1
 10
0.0
 20
0.0
 30
0.0
  3
*D27
  1

  0
LINE
  5
35047
330
34553
100
AcDbEntity
  8
D-STR-DIM　寸法線、寸法値
 62
     0
370
    -2
100
AcDbLine
 10
208820.4234818402
 20
15763.28594899469
 30
0.0
 11
209107.4765432344
 21
15763.28594899468
 31
0.0
  0
LINE
  5
35048
330
34553
100
AcDbEntity
  8
D-STR-DIM　寸法線、寸法値
 62
     0
370
    -2
100
AcDbLine
 10
208820.4234818402
 20
14921.99701736249
 30
0.0
 11
209107.4765432344
 21
14921.99701736249
 31
0.0
  0
LINE
  5
35049
330
34553
100
AcDbEntity
  8
D-STR-DIM　寸法線、寸法値
 62
     0
370
    -2
100
AcDbLine
 10
209089.4765432345
 20
15763.28594899468
 30
0.0
 11
209089.4765432345
 21
14921.99701736249
 31
0.0
  0
INSERT
  5
3504A
330
34553
100
AcDbEntity
  8
D-STR-DIM　寸法線、寸法値
 62
     0
370
    -2
100
AcDbBlockReference
  2
_DotSmall
 10
209089.4765432345
 20
15763.28594899468
 30
0.0
 41
45.0
 42
45.0
 43
45.0
 50
90.0
  0
INSERT
  5
3504B
330
34553
100
AcDbEntity
  8
D-STR-DIM　寸法線、寸法値
 62
     0
370
    -2
100
AcDbBlockReference
  2
_DotSmall
 10
209089.4765432345
 20
14921.99701736249
 30
0.0
 41
45.0
 42
45.0
 43
45.0
 50
270.0
  0
MTEXT
  5
3504C
330
34553
100
AcDbEntity
  8
D-STR-DIM　寸法線、寸法値
 62
     0
100
AcDbMText
 10
209054.2692802903
 20
15342.64148317862
 30
0.0
 40
37.5
 41
0.0
 71
     5
 72
     1
  1
\A1;(840)
  7
YOKO_GOTHIC
 11
0.0000000000000001
 21
1.0
 31
0.0
 73
     1
 44
1.0
1001
ACAD
1000
MTEXTBEGIN
1070
    73
1070
     1
1070
    44
1040
1.0
1070
    74
1070
     0
1000
MTEXTEND
  0
POINT
  5
3504D
330
34553
100
AcDbEntity
  8
Defpoints
 62
     0
100
AcDbPoint
 10
208796.4234818402
 20
15763.28594899469
 30
0.0
  0
POINT
  5
3504E
330
34553
100
AcDbEntity
  8
Defpoints
 62
     0
100
AcDbPoint
 10
208796.4234818402
 20
14921.99701736249
 30
0.0
  0
POINT
  5
3504F
330
34553
100
AcDbEntity
  8
Defpoints
 62
     0
100
AcDbPoint
 10
209089.4765432345
 20
14921.99701736249
 30
0.0
  0
ENDBLK
  5
3455E
330
34553
100
AcDbEntity
  8
0
100
AcDbBlockEnd
  0
BLOCK
  5
345C8
330
345BE
100
AcDbEntity
  8
0
100
AcDbBlockBegin
  2
*D28
 70
     1
 10
0.0
 20
0.0
 30
0.0
  3
*D28
  1

  0
LINE
  5
3503E
330
345BE
100
AcDbEntity
  8
D-STR-DIM　寸法線、寸法値
 62
     0
370
    -2
100
AcDbLine
 10
208147.4642851821
 20
15805.25593114358
 30
0.0
 11
208147.4642851821
 21
15935.92935095191
 31
0.0
  0
LINE
  5
3503F
330
345BE
100
AcDbEntity
  8
D-STR-DIM　寸法線、寸法値
 62
     0
370
    -2
100
AcDbLine
 10
208841.8308706044
 20
15805.25593114358
 30
0.0
 11
208841.8308706044
 21
15935.92935095191
 31
0.0
  0
LINE
  5
35040
330
345BE
100
AcDbEntity
  8
D-STR-DIM　寸法線、寸法値
 62
     0
370
    -2
100
AcDbLine
 10
208147.4642851821
 20
15917.92935095191
 30
0.0
 11
208841.8308706044
 21
15917.92935095191
 31
0.0
  0
INSERT
  5
35041
330
345BE
100
AcDbEntity
  8
D-STR-DIM　寸法線、寸法値
 62
     0
370
    -2
100
AcDbBlockReference
  2
_DotSmall
 10
208147.4642851821
 20
15917.92935095191
 30
0.0
 41
45.0
 42
45.0
 43
45.0
 50
180.0
  0
INSERT
  5
35042
330
345BE
100
AcDbEntity
  8
D-STR-DIM　寸法線、寸法値
 62
     0
370
    -2
100
AcDbBlockReference
  2
_DotSmall
 10
208841.8308706044
 20
15917.92935095191
 30
0.0
 41
45.0
 42
45.0
 43
45.0
  0
MTEXT
  5
35043
330
345BE
100
AcDbEntity
  8
D-STR-DIM　寸法線、寸法値
 62
     0
100
AcDbMText
 10
208494.6475778933
 20
15953.13661389608
 30
0.0
 40
37.5
 41
0.0
 71
     5
 72
     1
  1
\A1;(695)
  7
YOKO_GOTHIC
 73
     1
 44
1.0
1001
ACAD
1000
MTEXTBEGIN
1070
    73
1070
     1
1070
    44
1040
1.0
1070
    74
1070
     0
1000
MTEXTEND
  0
POINT
  5
35044
330
345BE
100
AcDbEntity
  8
Defpoints
 62
     0
100
AcDbPoint
 10
208147.4642851821
 20
15781.25593114358
 30
0.0
  0
POINT
  5
35045
330
345BE
100
AcDbEntity
  8
Defpoints
 62
     0
100
AcDbPoint
 10
208841.8308706044
 20
15781.25593114358
 30
0.0
  0
POINT
  5
35046
330
345BE
100
AcDbEntity
  8
Defpoints
 62
     0
100
AcDbPoint
 10
208841.8308706044
 20
15917.92935095191
 30
0.0
  0
ENDBLK
  5
345C9
330
345BE
100
AcDbEntity
  8
0
100
AcDbBlockEnd
  0
BLOCK
  5
34ABA
330
34AB0
100
AcDbEntity
  8
0
100
AcDbBlockBegin
  2
*D29
 70
     1
 10
0.0
 20
0.0
 30
0.0
  3
*D29
  1

  0
LINE
  5
3506B
330
34AB0
100
AcDbEntity
  8
D-STR-DIM　寸法線、寸法値
 62
     0
370
    -2
100
AcDbLine
 10
208196.0758402349
 20
15511.92721982529
 30
0.0
 11
208196.0758402349
 21
15595.24608610895
 31
0.0
  0
LINE
  5
3506C
330
34AB0
100
AcDbEntity
  8
D-STR-DIM　寸法線、寸法値
 62
     0
370
    -2
100
AcDbLine
 10
208546.075840235
 20
15511.92721982529
 30
0.0
 11
208546.075840235
 21
15595.24608610895
 31
0.0
  0
LINE
  5
3506D
330
34AB0
100
AcDbEntity
  8
D-STR-DIM　寸法線、寸法値
 62
     0
370
    -2
100
AcDbLine
 10
208196.0758402349
 20
15577.24608610895
 30
0.0
 11
208546.075840235
 21
15577.24608610895
 31
0.0
  0
INSERT
  5
3506E
330
34AB0
100
AcDbEntity
  8
D-STR-DIM　寸法線、寸法値
 62
     0
370
    -2
100
AcDbBlockReference
  2
_DotSmall
 10
208196.0758402349
 20
15577.24608610895
 30
0.0
 41
45.0
 42
45.0
 43
45.0
 50
180.0
  0
INSERT
  5
3506F
330
34AB0
100
AcDbEntity
  8
D-STR-DIM　寸法線、寸法値
 62
     0
370
    -2
100
AcDbBlockReference
  2
_DotSmall
 10
208546.075840235
 20
15577.24608610895
 30
0.0
 41
45.0
 42
45.0
 43
45.0
  0
MTEXT
  5
35070
330
34AB0
100
AcDbEntity
  8
D-STR-DIM　寸法線、寸法値
 62
     0
100
AcDbMText
 10
208371.075840235
 20
15609.31248610895
 30
0.0
 40
37.5
 41
0.0
 71
     5
 72
     1
  1
\A1;350
  7
YOKO_GOTHIC
 73
     1
 44
1.0
1001
ACAD
1000
MTEXTBEGIN
1070
    73
1070
     1
1070
    44
1040
1.0
1070
    74
1070
     0
1000
MTEXTEND
  0
POINT
  5
35071
330
34AB0
100
AcDbEntity
  8
Defpoints
 62
     0
100
AcDbPoint
 10
208196.0758402349
 20
15487.92721982529
 30
0.0
  0
POINT
  5
35072
330
34AB0
100
AcDbEntity
  8
Defpoints
 62
     0
100
AcDbPoint
 10
208546.075840235
 20
15487.92721982529
 30
0.0
  0
POINT
  5
35073
330
34AB0
100
AcDbEntity
  8
Defpoints
 62
     0
100
AcDbPoint
 10
208546.075840235
 20
15577.24608610895
 30
0.0
  0
ENDBLK
  5
34ABB
330
34AB0
100
AcDbEntity
  8
0
100
AcDbBlockEnd
  0
BLOCK
  5
34DBB
330
34DB1
100
AcDbEntity
  8
0
100
AcDbBlockBegin
  2
*D30
 70
     1
 10
0.0
 20
0.0
 30
0.0
  3
*D30
  1

  0
LINE
  5
3507F
330
34DB1
100
AcDbEntity
  8
D-STR-DIM　寸法線、寸法値
 62
     0
370
    -2
100
AcDbLine
 10
205084.1644509499
 20
17220.18009220814
 30
0.0
 11
205084.1644509499
 21
17338.5816927205
 31
0.0
  0
LINE
  5
35080
330
34DB1
100
AcDbEntity
  8
D-STR-DIM　寸法線、寸法値
 62
     0
370
    -2
100
AcDbLine
 10
206884.1644509499
 20
17220.18009220811
 30
0.0
 11
206884.1644509499
 21
17338.5816927205
 31
0.0
  0
LINE
  5
35081
330
34DB1
100
AcDbEntity
  8
D-STR-DIM　寸法線、寸法値
 62
     0
370
    -2
100
AcDbLine
 10
205084.1644509499
 20
17320.5816927205
 30
0.0
 11
206884.1644509499
 21
17320.5816927205
 31
0.0
  0
INSERT
  5
35082
330
34DB1
100
AcDbEntity
  8
D-STR-DIM　寸法線、寸法値
 62
     0
370
    -2
100
AcDbBlockReference
  2
_DotSmall
 10
205084.1644509499
 20
17320.5816927205
 30
0.0
 41
45.0
 42
45.0
 43
45.0
 50
180.0
  0
INSERT
  5
35083
330
34DB1
100
AcDbEntity
  8
D-STR-DIM　寸法線、寸法値
 62
     0
370
    -2
100
AcDbBlockReference
  2
_DotSmall
 10
206884.1644509499
 20
17320.5816927205
 30
0.0
 41
45.0
 42
45.0
 43
45.0
  0
MTEXT
  5
35084
330
34DB1
100
AcDbEntity
  8
D-STR-DIM　寸法線、寸法値
 62
     0
100
AcDbMText
 10
205984.1644509499
 20
17352.6480927205
 30
0.0
 40
37.5
 41
0.0
 71
     5
 72
     1
  1
\A1;1800
  7
YOKO_GOTHIC
 73
     1
 44
1.0
1001
ACAD
1000
MTEXTBEGIN
1070
    73
1070
     1
1070
    44
1040
1.0
1070
    74
1070
     0
1000
MTEXTEND
  0
POINT
  5
35085
330
34DB1
100
AcDbEntity
  8
Defpoints
 62
     0
100
AcDbPoint
 10
205084.1644509499
 20
17196.18009220814
 30
0.0
  0
POINT
  5
35086
330
34DB1
100
AcDbEntity
  8
Defpoints
 62
     0
100
AcDbPoint
 10
206884.1644509499
 20
17196.18009220812
 30
0.0
  0
POINT
  5
35087
330
34DB1
100
AcDbEntity
  8
Defpoints
 62
     0
100
AcDbPoint
 10
206884.1644509499
 20
17320.5816927205
 30
0.0
  0
ENDBLK
  5
34DBC
330
34DB1
100
AcDbEntity
  8
0
100
AcDbBlockEnd
  0
BLOCK
  5
34DDA
330
34DD0
100
AcDbEntity
  8
0
100
AcDbBlockBegin
  2
*D31
 70
     1
 10
0.0
 20
0.0
 30
0.0
  3
*D31
  1

  0
LINE
  5
35076
330
34DD0
100
AcDbEntity
  8
D-STR-DIM　寸法線、寸法値
 62
     0
370
    -2
100
AcDbLine
 10
206926.3139719589
 20
17152.24040384274
 30
0.0
 11
207056.9873917672
 21
17152.24040384274
 31
0.0
  0
LINE
  5
35077
330
34DD0
100
AcDbEntity
  8
D-STR-DIM　寸法線、寸法値
 62
     0
370
    -2
100
AcDbLine
 10
206926.3139719589
 20
16457.87381842049
 30
0.0
 11
207056.9873917672
 21
16457.87381842049
 31
0.0
  0
LINE
  5
35078
330
34DD0
100
AcDbEntity
  8
D-STR-DIM　寸法線、寸法値
 62
     0
370
    -2
100
AcDbLine
 10
207038.9873917672
 20
17152.24040384274
 30
0.0
 11
207038.9873917672
 21
16457.87381842049
 31
0.0
  0
INSERT
  5
35079
330
34DD0
100
AcDbEntity
  8
D-STR-DIM　寸法線、寸法値
 62
     0
370
    -2
100
AcDbBlockReference
  2
_DotSmall
 10
207038.9873917672
 20
17152.24040384274
 30
0.0
 41
45.0
 42
45.0
 43
45.0
 50
90.0
  0
INSERT
  5
3507A
330
34DD0
100
AcDbEntity
  8
D-STR-DIM　寸法線、寸法値
 62
     0
370
    -2
100
AcDbBlockReference
  2
_DotSmall
 10
207038.9873917672
 20
16457.87381842049
 30
0.0
 41
45.0
 42
45.0
 43
45.0
 50
270.0
  0
MTEXT
  5
3507B
330
34DD0
100
AcDbEntity
  8
D-STR-DIM　寸法線、寸法値
 62
     0
100
AcDbMText
 10
207003.7801288231
 20
16805.05711113165
 30
0.0
 40
37.5
 41
0.0
 71
     5
 72
     1
  1
\A1;(695)
  7
YOKO_GOTHIC
 11
0.0000000000000001
 21
1.0
 31
0.0
 73
     1
 44
1.0
1001
ACAD
1000
MTEXTBEGIN
1070
    73
1070
     1
1070
    44
1040
1.0
1070
    74
1070
     0
1000
MTEXTEND
  0
POINT
  5
3507C
330
34DD0
100
AcDbEntity
  8
Defpoints
 62
     0
100
AcDbPoint
 10
206902.3139719589
 20
17152.24040384274
 30
0.0
  0
POINT
  5
3507D
330
34DD0
100
AcDbEntity
  8
Defpoints
 62
     0
100
AcDbPoint
 10
206902.3139719589
 20
16457.87381842049
 30
0.0
  0
POINT
  5
3507E
330
34DD0
100
AcDbEntity
  8
Defpoints
 62
     0
100
AcDbPoint
 10
207038.9873917672
 20
16457.87381842049
 30
0.0
  0
ENDBLK
  5
34DDB
330
34DD0
100
AcDbEntity
  8
0
100
AcDbBlockEnd
  0
ENDSEC
  0
SECTION
  2
ENTITIES
  0
DIMENSION
  5
31A44
330
A
100
AcDbEntity
  8
D-STR-DIM　寸法線、寸法値
100
AcDbDimension
  2
*D3
 10
205334.1644509499
 20
14308.71398837387
 30
0.0
 11
205184.1644509499
 21
14340.78038837387
 31
0.0
 70
    32
 71
     5
 42
300.0
  3
1-15
100
AcDbAlignedDimension
 13
205034.1644509499
 23
14422.14322376342
 33
0.0
 14
205334.1644509499
 24
14422.14322376342
 34
0.0
100
AcDbRotatedDimension
1001
ACAD
1000
DSTYLE
1002
{
1070
     3
1000
300x<>
1070
   340
1005
764
1002
}
  0
DIMENSION
  5
31A45
330
A
100
AcDbEntity
  8
D-STR-DIM　寸法線、寸法値
100
AcDbDimension
  2
*D4
 10
205034.1644509499
 20
14308.71398837387
 30
0.0
 11
205009.1644509499
 21
14340.78038837387
 31
0.0
 70
    32
 71
     5
 42
50.0
  3
1-15
100
AcDbAlignedDimension
 13
204984.1644509498
 23
14422.14322376342
 33
0.0
 14
205034.1644509499
 24
14422.14322376342
 34
0.0
100
AcDbRotatedDimension
1001
ACAD
1000
DSTYLE
1002
{
1070
   340
1005
764
1002
}
  0
DIMENSION
  5
31A46
330
A
100
AcDbEntity
  8
D-STR-DIM　寸法線、寸法値
100
AcDbDimension
  2
*D5
 10
205384.1644509498
 20
14308.71398837387
 30
0.0
 11
205359.1644509499
 21
14340.78038837387
 31
0.0
 70
    32
 71
     5
 42
50.0
  3
1-15
100
AcDbAlignedDimension
 13
205334.1644509499
 23
14422.14322376342
 33
0.0
 14
205384.1644509498
 24
14422.14322376342
 34
0.0
100
AcDbRotatedDimension
1001
ACAD
1000
DSTYLE
1002
{
1070
   340
1005
764
1002
}
  0
DIMENSION
  5
31A47
330
A
100
AcDbEntity
  8
D-STR-DIM　寸法線、寸法値
100
AcDbDimension
  2
*D6
 10
205384.1644509498
 20
14233.03607059287
 30
0.0
 11
205184.1644509499
 21
14265.10247059287
 31
0.0
 70
    32
 71
     5
 42
400.0
  3
1-15
100
AcDbAlignedDimension
 13
204984.1644509498
 23
14422.14322376342
 33
0.0
 14
205384.1644509498
 24
14422.14322376342
 34
0.0
100
AcDbRotatedDimension
1001
ACAD
1000
DSTYLE
1002
{
1070
     3
1000
400x<>
1070
   340
1005
764
1002
}
  0
LINE
  5
32C15
330
A
100
AcDbEntity
  8
D-STR　構造物外形線
100
AcDbLine
 10
206753.9143509498
 20
14922.14322376342
 30
0.0
 11
206753.9143509498
 21
15258.09362478168
 31
0.0
  0
LINE
  5
32C16
330
A
100
AcDbEntity
  8
D-STR　構造物外形線
100
AcDbLine
 10
206814.4143509499
 20
15258.09362478168
 30
0.0
 11
206814.4143509499
 21
14922.14322376342
 31
0.0
  0
LINE
  5
32C17
330
A
100
AcDbEntity
  8
D-STR　構造物外形線
100
AcDbLine
 10
205953.9143509498
 20
14922.14322376342
 30
0.0
 11
205953.9143509498
 21
15258.09362478168
 31
0.0
  0
LINE
  5
32C18
330
A
100
AcDbEntity
  8
D-STR　構造物外形線
100
AcDbLine
 10
206014.4143509498
 20
15258.09362478168
 30
0.0
 11
206014.4143509498
 21
14922.14322376342
 31
0.0
  0
LINE
  5
32C19
330
A
100
AcDbEntity
  8
D-STR　構造物外形線
100
AcDbLine
 10
205153.9143509498
 20
14522.14322376342
 30
0.0
 11
205153.9143509498
 21
15258.09362478168
 31
0.0
  0
LINE
  5
32C1A
330
A
100
AcDbEntity
  8
D-STR　構造物外形線
100
AcDbLine
 10
205214.4143509499
 20
15258.09362478168
 30
0.0
 11
205214.4143509499
 21
14522.14322376342
 31
0.0
  0
LINE
  5
32C1F
330
A
100
AcDbEntity
  8
D-STR-DIM　寸法線、寸法値
100
AcDbLine
 10
205018.2644509499
 20
14922.14322376342
 30
0.0
 11
204896.0792509499
 21
14922.14322376342
 31
0.0
  0
TEXT
  5
32C26
330
A
100
AcDbEntity
  8
D-TTL-TXT　文字列
  6
Continuous
370
     0
100
AcDbText
 10
204430.4559026122
 20
14928.7024538398
 30
0.0
 40
37.5
  1
▽G.L.
  7
ＭＳ ゴシック
100
AcDbText
  0
LINE
  5
32C31
330
A
100
AcDbEntity
  8
D-STR　構造物外形線
100
AcDbLine
 10
207053.0920337014
 20
14922.14322376342
 30
0.0
 11
205214.4144509499
 21
14922.14322376342
 31
0.0
  0
LINE
  5
32D5D
330
A
100
AcDbEntity
  8
D-STR　構造物外形線
100
AcDbLine
 10
205384.1644509498
 20
14522.14322376342
 30
0.0
 11
205384.1644509498
 21
14422.14322376342
 31
0.0
  0
LINE
  5
32D66
330
A
100
AcDbEntity
  8
D-STR　構造物外形線
100
AcDbLine
 10
205384.1644509498
 20
14422.14322376342
 30
0.0
 11
204984.1644509498
 21
14422.14322376342
 31
0.0
  0
LINE
  5
32DAE
330
A
100
AcDbEntity
  8
D-STR　構造物外形線
100
AcDbLine
 10
205153.9144509499
 20
14772.14322376342
 30
0.0
 11
205153.9144509499
 21
14972.14322376341
 31
0.0
  0
LINE
  5
32DAF
330
A
100
AcDbEntity
  8
D-STR　構造物外形線
100
AcDbLine
 10
205214.4144509499
 20
14972.14322376341
 30
0.0
 11
205214.4144509499
 21
14772.14322376342
 31
0.0
  0
LINE
  5
32DBC
330
A
100
AcDbEntity
  8
D-STR　構造物外形線
100
AcDbLine
 10
204984.1644509498
 20
14522.14322376342
 30
0.0
 11
205384.1644509498
 21
14522.14322376342
 31
0.0
  0
LINE
  5
32DC4
330
A
100
AcDbEntity
  8
D-STR　構造物外形線
370
     0
100
AcDbLine
 10
205034.1644509499
 20
14521.99701736249
 30
0.0
 11
205034.1644509499
 21
14822.14322376342
 31
0.0
  0
LINE
  5
32DC5
330
A
100
AcDbEntity
  8
D-STR　構造物外形線
370
     0
100
AcDbLine
 10
205153.9146509499
 20
14822.14322376342
 30
0.0
 11
205153.9146509499
 21
14521.99701736249
 31
0.0
  0
LINE
  5
32DD0
330
A
100
AcDbEntity
  8
D-STR　構造物外形線
370
     0
100
AcDbLine
 10
205034.1644509499
 20
14822.14322376342
 30
0.0
 11
205109.1644509499
 21
14822.14322376342
 31
0.0
  0
LINE
  5
32DD3
330
A
100
AcDbEntity
  8
D-STR　構造物外形線
370
     0
100
AcDbLine
 10
205109.1646509499
 20
14822.14322376342
 30
0.0
 11
205153.9146509499
 21
14822.14322376342
 31
0.0
  0
LINE
  5
32F1D
330
A
100
AcDbEntity
  8
D-STR　構造物外形線
100
AcDbLine
 10
206746.6645509499
 20
15321.68300162504
 30
0.0
 11
206746.6645509499
 21
15459.33292376341
 31
0.0
  0
LINE
  5
32F1E
330
A
100
AcDbEntity
  8
D-STR　構造物外形線
100
AcDbLine
 10
206821.6643509499
 20
15459.33292376341
 30
0.0
 11
206821.6643509499
 21
15321.68300162504
 31
0.0
  0
LINE
  5
32FA3
330
A
100
AcDbEntity
  8
D-STR　構造物外形線
100
AcDbLine
 10
208455.934630736
 20
14522.14322376342
 30
0.0
 11
208455.934630736
 21
15237.9671649416
 31
0.0
  0
LINE
  5
32FA4
330
A
100
AcDbEntity
  8
D-STR　構造物外形線
100
AcDbLine
 10
208602.5033507846
 20
15219.97078870615
 30
0.0
 11
208698.9477506536
 21
15315.29680506503
 31
0.0
  0
LINE
  5
32FA5
330
A
100
AcDbEntity
  8
D-STR　構造物外形線
100
AcDbLine
 10
208249.6287301163
 20
15263.29834478623
 30
0.0
 11
208602.5033507846
 21
15219.97078870615
 31
0.0
  0
LINE
  5
32FA6
330
A
100
AcDbEntity
  8
D-STR　構造物外形線
100
AcDbLine
 10
208599.2754991117
 20
15229.43470749447
 30
0.0
 11
208691.005231623
 21
15320.10072847491
 31
0.0
  0
ARC
  5
32FA7
330
A
100
AcDbEntity
  8
D-STR　構造物外形線
100
AcDbCircle
 10
208557.3720022427
 20
15240.62486899848
 30
0.0
 40
5.999999999999339
100
AcDbArc
 50
262.9999998832119
 51
352.999999883613
  0
LINE
  5
32FA8
330
A
100
AcDbEntity
  8
D-STR　構造物外形線
100
AcDbLine
 10
208474.2594556045
 20
15244.78474776008
 30
0.0
 11
208556.6407861701
 21
15234.66959209012
 31
0.0
  0
LINE
  5
32FA9
330
A
100
AcDbEntity
  8
D-STR　構造物外形線
100
AcDbLine
 10
208249.9440253895
 20
15272.32721982529
 30
0.0
 11
208599.2754991117
 21
15229.43470749451
 31
0.0
  0
LINE
  5
32FD5
330
A
100
AcDbEntity
  8
D-STR　構造物外形線
100
AcDbLine
 10
209128.7615043914
 20
14921.99701736249
 30
0.0
 11
208516.434630736
 21
14921.99701736249
 31
0.0
  0
LINE
  5
32FD6
330
A
100
AcDbEntity
  8
D-STR　構造物外形線
100
AcDbLine
 10
208286.184630736
 20
14421.99701736249
 30
0.0
 11
208286.184630736
 21
14521.99701736249
 31
0.0
  0
LINE
  5
32FD7
330
A
100
AcDbEntity
  8
D-STR　構造物外形線
100
AcDbLine
 10
208686.184630736
 20
14521.99701736249
 30
0.0
 11
208686.184630736
 21
14421.99701736249
 31
0.0
  0
LINE
  5
32FEF
330
A
100
AcDbEntity
  8
D-STR　構造物外形線
100
AcDbLine
 10
208686.184630736
 20
14421.99701736249
 30
0.0
 11
208286.184630736
 21
14421.99701736249
 31
0.0
  0
LINE
  5
3302D
330
A
100
AcDbEntity
  8
D-STR　構造物外形線
100
AcDbLine
 10
208455.934630736
 20
14921.99701736249
 30
0.0
 11
207720.2623136088
 21
14921.99701736249
 31
0.0
  0
TEXT
  5
33044
330
A
100
AcDbEntity
  8
D-TTL-TXT　文字列
  6
Continuous
370
     0
100
AcDbText
 10
207732.0215100947
 20
14928.7024538398
 30
0.0
 40
37.5
  1
▽G.L.
  7
ＭＳ ゴシック
100
AcDbText
  0
LINE
  5
33051
102
{ACAD_REACTORS
330
34FFE
102
}
330
A
100
AcDbEntity
  8
D-STR　構造物外形線
100
AcDbLine
 10
208455.934630736
 20
14771.99701736249
 30
0.0
 11
208455.934630736
 21
14971.99701736249
 31
0.0
  0
LINE
  5
33052
330
A
100
AcDbEntity
  8
D-STR　構造物外形線
100
AcDbLine
 10
208516.434630736
 20
14971.99701736249
 30
0.0
 11
208516.434630736
 21
14771.99701736249
 31
0.0
  0
LINE
  5
33054
102
{ACAD_REACTORS
330
34FFE
102
}
330
A
100
AcDbEntity
  8
D-STR　構造物外形線
100
AcDbLine
 10
208516.434630736
 20
14522.14322376342
 30
0.0
 11
208516.434630736
 21
15230.53869888225
 31
0.0
  0
LINE
  5
33055
330
A
100
AcDbEntity
  8
D-STR　構造物外形線
100
AcDbLine
 10
208516.434630736
 20
14821.99701736249
 30
0.0
 11
208636.184630736
 21
14821.99701736249
 31
0.0
  0
LINE
  5
33058
330
A
100
AcDbEntity
  8
D-STR　構造物外形線
100
AcDbLine
 10
208636.184630736
 20
14521.99701736249
 30
0.0
 11
208336.184630736
 21
14521.99701736249
 31
0.0
  0
LINE
  5
33059
330
A
100
AcDbEntity
  8
D-STR　構造物外形線
100
AcDbLine
 10
208286.184630736
 20
14521.99701736249
 30
0.0
 11
208686.184630736
 21
14521.99701736249
 31
0.0
  0
LINE
  5
3305F
102
{ACAD_REACTORS
330
34FFE
102
}
330
A
100
AcDbEntity
  8
D-STR　構造物外形線
100
AcDbLine
 10
208516.434630736
 20
14522.14322376342
 30
0.0
 11
208516.434630736
 21
14821.99701736249
 31
0.0
  0
LINE
  5
33060
330
A
100
AcDbEntity
  8
D-STR　構造物外形線
100
AcDbLine
 10
208455.934630736
 20
14821.99701736249
 30
0.0
 11
208455.934630736
 21
14522.14322376342
 31
0.0
  0
LINE
  5
33061
330
A
100
AcDbEntity
  8
D-STR　構造物外形線
100
AcDbLine
 10
208336.184630736
 20
14521.99701736249
 30
0.0
 11
208336.184630736
 21
14821.99701736249
 31
0.0
  0
LINE
  5
33070
330
A
100
AcDbEntity
  8
D-STR　構造物外形線
100
AcDbLine
 10
208336.184630736
 20
14821.99701736249
 30
0.0
 11
208455.934630736
 21
14821.99701736249
 31
0.0
  0
LINE
  5
33074
102
{ACAD_REACTORS
330
34FFE
102
}
330
A
100
AcDbEntity
  8
D-STR　構造物外形線
100
AcDbLine
 10
208516.434630736
 20
14771.99701736249
 30
0.0
 11
208455.934630736
 21
14771.99701736249
 31
0.0
  0
LINE
  5
33079
330
A
100
AcDbEntity
  8
D-STR　構造物外形線
100
AcDbLine
 10
208455.934630736
 20
14678.4970173625
 30
0.0
 11
208455.934630736
 21
14665.4970173625
 31
0.0
  0
LINE
  5
3307B
330
A
100
AcDbEntity
  8
D-STR　構造物外形線
100
AcDbLine
 10
208516.434630736
 20
14665.4970173625
 30
0.0
 11
208516.434630736
 21
14678.4970173625
 31
0.0
  0
LINE
  5
3307C
330
A
100
AcDbEntity
  8
D-STR　構造物外形線
100
AcDbLine
 10
208636.184630736
 20
14821.99701736249
 30
0.0
 11
208636.184630736
 21
14521.99701736249
 31
0.0
  0
LINE
  5
33088
102
{ACAD_REACTORS
330
34FFE
102
}
330
A
100
AcDbEntity
  8
D-STR　構造物外形線
100
AcDbLine
 10
208455.934630736
 20
14971.99701736249
 30
0.0
 11
208516.434630736
 21
14971.99701736249
 31
0.0
  0
LINE
  5
3308B
330
A
100
AcDbEntity
  8
D-STR-DIM　寸法線、寸法値
100
AcDbLine
 10
208825.6013857098
 20
14921.99701736249
 30
0.0
 11
209026.9565652487
 21
14921.99701736249
 31
0.0
  0
LINE
  5
332E5
330
A
100
AcDbEntity
  8
D-STR　構造物外形線
100
AcDbLine
 10
208835.6277688639
 20
15737.31036692653
 30
0.0
 11
208797.9465572353
 21
15663.35682549542
 31
0.0
  0
LINE
  5
332E6
330
A
100
AcDbEntity
  8
D-STR　構造物外形線
100
AcDbLine
 10
208799.1474248495
 20
15762.63198813429
 30
0.0
 11
208833.0056727336
 21
15745.38034907542
 31
0.0
  0
LINE
  5
332E7
330
A
100
AcDbEntity
  8
D-STR　構造物外形線
100
AcDbLine
 10
208833.8118118949
 20
15733.7463507196
 30
0.0
 11
208792.9526667555
 21
15653.5557636256
 31
0.0
  0
LINE
  5
332E8
330
A
100
AcDbEntity
  8
D-STR　構造物外形線
100
AcDbLine
 10
208698.9477506536
 20
15315.29680506503
 30
0.0
 11
208801.3291966688
 21
15650.1714258483
 31
0.0
  0
LINE
  5
332EC
330
A
100
AcDbEntity
  8
D-STR　構造物外形線
100
AcDbLine
 10
208233.0758402349
 20
15402.20074363046
 30
0.0
 11
208358.1974878862
 21
15337.53276883927
 31
0.0
  0
LINE
  5
332ED
330
A
100
AcDbEntity
  8
D-STR　構造物外形線
100
AcDbLine
 10
208239.0758402349
 20
15405.85369602013
 30
0.0
 11
208364.6616191959
 21
15340.94583922293
 31
0.0
  0
LINE
  5
332EE
330
A
100
AcDbEntity
  8
D-STR　構造物外形線
100
AcDbLine
 10
208239.0758402349
 20
15441.02721982529
 30
0.0
 11
208503.0758402349
 21
15441.02721982529
 31
0.0
  0
LINE
  5
332EF
330
A
100
AcDbEntity
  8
D-STR　構造物外形線
100
AcDbLine
 10
208233.0758402349
 20
15447.02721982529
 30
0.0
 11
208509.0758402349
 21
15447.02721982529
 31
0.0
  0
ARC
  5
332F0
330
A
100
AcDbEntity
  8
D-STR　構造物外形線
100
AcDbCircle
 10
208256.6305183704
 20
15277.55128066113
 30
0.0
 40
5.999999999999339
100
AcDbArc
 50
172.999999883613
 51
262.9999998832119
  0
LINE
  5
332F1
330
A
100
AcDbEntity
  8
D-STR　構造物外形線
100
AcDbLine
 10
208160.0673672616
 20
15267.61698376342
 30
0.0
 11
208249.9440253895
 21
15272.32721982529
 31
0.0
  0
LINE
  5
332F8
330
A
100
AcDbEntity
  8
D-STR　構造物外形線
100
AcDbLine
 10
208233.0758402349
 20
15447.02721982529
 30
0.0
 11
208233.0758402349
 21
15402.20074363046
 31
0.0
  0
LINE
  5
332F9
330
A
100
AcDbEntity
  8
D-STR　構造物外形線
100
AcDbLine
 10
208239.0758402349
 20
15441.02721982529
 30
0.0
 11
208239.0758402349
 21
15405.85369602013
 31
0.0
  0
LINE
  5
332FF
330
A
100
AcDbEntity
  8
D-STR　構造物外形線
100
AcDbLine
 10
208160.0673672616
 20
15267.61698376342
 30
0.0
 11
208160.5383908677
 21
15258.62931795063
 31
0.0
  0
LINE
  5
33300
330
A
100
AcDbEntity
  8
D-STR　構造物外形線
100
AcDbLine
 10
208160.5383908677
 20
15258.62931795063
 30
0.0
 11
208249.6287301163
 21
15263.29834478623
 31
0.0
  0
ARC
  5
33301
330
A
100
AcDbEntity
  8
D-STR　構造物外形線
100
AcDbCircle
 10
208238.6450958499
 20
15277.74330209583
 30
0.0
 40
5.999999999999086
100
AcDbArc
 50
273.0000000004197
 51
2.999999999981561
  0
ARC
  5
33302
330
A
100
AcDbEntity
  8
D-STR　構造物外形線
100
AcDbCircle
 10
208155.7588444653
 20
15273.39941772766
 30
0.0
 40
5.999999999998991
100
AcDbArc
 50
182.9999999999816
 51
273.0000000004197
  0
ARC
  5
33303
330
A
100
AcDbEntity
  8
D-STR　構造物外形線
100
AcDbCircle
 10
208153.7700781281
 20
15311.34734004833
 30
0.0
 40
6.000000000000807
100
AcDbArc
 50
93.0000000004197
 51
182.9999999999816
  0
ARC
  5
33304
330
A
100
AcDbEntity
  8
D-STR　構造物外形線
100
AcDbCircle
 10
208236.6563295127
 20
15315.69122441652
 30
0.0
 40
6.000000000000807
100
AcDbArc
 50
2.999999999981561
 51
93.0000000004197
  0
LINE
  5
33305
330
A
100
AcDbEntity
  8
D-STR　構造物外形線
100
AcDbLine
 10
208156.0728602028
 20
15267.40764051913
 30
0.0
 11
208238.9591115874
 21
15271.75152488731
 31
0.0
  0
LINE
  5
33306
330
A
100
AcDbEntity
  8
D-STR　構造物外形線
100
AcDbLine
 10
208147.7783009196
 20
15311.03332431088
 30
0.0
 11
208149.7670672568
 21
15273.0854019902
 31
0.0
  0
LINE
  5
33307
330
A
100
AcDbEntity
  8
D-STR　構造物外形線
100
AcDbLine
 10
208236.3423137753
 20
15321.68300162503
 30
0.0
 11
208153.4560623906
 21
15317.33911725686
 31
0.0
  0
LINE
  5
33308
330
A
100
AcDbEntity
  8
D-STR　構造物外形線
100
AcDbLine
 10
208244.6368730585
 20
15278.05731783329
 30
0.0
 11
208242.6481067212
 21
15316.00524015398
 31
0.0
  0
LINE
  5
33311
330
A
100
AcDbEntity
  8
D-STR　構造物外形線
100
AcDbLine
 10
208691.005231623
 20
15320.10072847491
 30
0.0
 11
208792.9526667543
 21
15653.55576362326
 31
0.0
  0
LINE
  5
33312
330
A
100
AcDbEntity
  8
D-STR　構造物外形線
100
AcDbLine
 10
208766.9315850352
 20
15568.44464034488
 30
0.0
 11
208791.1984365272
 21
15647.81793508982
 31
0.0
  0
LINE
  5
33313
330
A
100
AcDbEntity
  8
D-STR　構造物外形線
100
AcDbLine
 10
208743.383198729
 20
15662.43652032595
 30
0.0
 11
208719.116347237
 21
15583.06322558102
 31
0.0
  0
LINE
  5
33314
330
A
100
AcDbEntity
  8
D-STR　構造物外形線
100
AcDbLine
 10
208503.0758402349
 20
15401.80733660019
 30
0.0
 11
208697.7856768682
 21
15342.27856555962
 31
0.0
  0
LINE
  5
33315
330
A
100
AcDbEntity
  8
D-STR　構造物外形線
100
AcDbLine
 10
208509.0758402349
 20
15406.24710305037
 30
0.0
 11
208699.5399070965
 21
15348.0163940954
 31
0.0
  0
LINE
  5
33316
330
A
100
AcDbEntity
  8
D-STR　構造物外形線
100
AcDbLine
 10
208562.7342534412
 20
15284.29689965981
 30
0.0
 11
208480.3529228755
 21
15294.41205532978
 31
0.0
  0
LINE
  5
33317
330
A
100
AcDbEntity
  8
D-STR　構造物外形線
100
AcDbLine
 10
208503.0758402349
 20
15441.02721982529
 30
0.0
 11
208503.0758402349
 21
15401.80733660019
 31
0.0
  0
LINE
  5
33318
330
A
100
AcDbEntity
  8
D-STR　構造物外形線
100
AcDbLine
 10
208509.0758402349
 20
15447.02721982529
 30
0.0
 11
208509.0758402349
 21
15406.24710305037
 31
0.0
  0
LINE
  5
33319
330
A
100
AcDbEntity
  8
D-STR　構造物外形線
100
AcDbLine
 10
208365.0793789512
 20
15258.19037575642
 30
0.0
 11
208447.4607095168
 21
15248.07522008646
 31
0.0
  0
LINE
  5
3331A
330
A
100
AcDbEntity
  8
D-STR　構造物外形線
100
AcDbLine
 10
208453.5541767879
 20
15297.70252765615
 30
0.0
 11
208371.1728462223
 21
15307.81768332611
 31
0.0
  0
LINE
  5
3331B
330
A
100
AcDbEntity
  8
D-STR　構造物外形線
100
AcDbLine
 10
208354.6576443616
 20
15259.47000388336
 30
0.0
 11
208364.6616191959
 21
15340.94583922293
 31
0.0
  0
LINE
  5
3331C
330
A
100
AcDbEntity
  8
D-STR　構造物外形線
100
AcDbLine
 10
208348.7023674532
 20
15260.20121995589
 30
0.0
 11
208358.1974878862
 21
15337.53276883927
 31
0.0
  0
ARC
  5
3331D
330
A
100
AcDbEntity
  8
D-STR　構造物外形線
100
AcDbCircle
 10
208365.8105950237
 20
15264.14565266479
 30
0.0
 40
5.999999999999339
100
AcDbArc
 50
172.999999883613
 51
262.9999998832119
  0
ARC
  5
3331E
330
A
100
AcDbEntity
  8
D-STR　構造物外形線
100
AcDbCircle
 10
208370.4416301497
 20
15301.86240641775
 30
0.0
 40
5.999999999999339
100
AcDbArc
 50
82.99999988321189
 51
172.999999883613
  0
LINE
  5
3331F
330
A
100
AcDbEntity
  8
D-STR　構造物外形線
100
AcDbLine
 10
208364.4863532413
 20
15302.59362249028
 30
0.0
 11
208359.8553181153
 21
15264.87686873731
 31
0.0
  0
ARC
  5
33320
330
A
100
AcDbEntity
  8
D-STR　構造物外形線
100
AcDbCircle
 10
208339.0118489361
 20
15267.43612499116
 30
0.0
 40
6.000000000001143
100
AcDbArc
 50
262.9999998832119
 51
352.999999883613
  0
ARC
  5
33321
330
A
100
AcDbEntity
  8
D-STR　構造物外形線
100
AcDbCircle
 10
208261.2615534964
 20
15315.26803441409
 30
0.0
 40
6.000000000001143
100
AcDbArc
 50
82.99999988321189
 51
172.999999883613
  0
ARC
  5
33322
330
A
100
AcDbEntity
  8
D-STR　構造物外形線
100
AcDbCircle
 10
208343.6428840621
 20
15305.15287874413
 30
0.0
 40
5.999999999999562
100
AcDbArc
 50
352.999999883613
 51
82.99999988321189
  0
LINE
  5
33323
330
A
100
AcDbEntity
  8
D-STR　構造物外形線
100
AcDbLine
 10
208255.8993022978
 20
15271.59600375277
 30
0.0
 11
208338.2806328636
 21
15261.4808480828
 31
0.0
  0
LINE
  5
33324
330
A
100
AcDbEntity
  8
D-STR　構造物外形線
100
AcDbLine
 10
208255.306276588
 20
15315.99925048662
 30
0.0
 11
208250.675241462
 21
15278.28249673366
 31
0.0
  0
LINE
  5
33325
330
A
100
AcDbEntity
  8
D-STR　構造物外形線
100
AcDbLine
 10
208344.3741001346
 20
15311.10815565249
 30
0.0
 11
208261.9927695689
 21
15321.22331132246
 31
0.0
  0
LINE
  5
33326
330
A
100
AcDbEntity
  8
D-STR　構造物外形線
100
AcDbLine
 10
208344.9671258444
 20
15266.70490891864
 30
0.0
 11
208349.5981609704
 21
15304.42166267159
 31
0.0
  0
ARC
  5
33327
330
A
100
AcDbEntity
  8
D-STR　構造物外形線
100
AcDbCircle
 10
208474.990671677
 20
15250.74002466845
 30
0.0
 40
5.999999999999562
100
AcDbArc
 50
172.999999883613
 51
262.9999998832119
  0
ARC
  5
33328
330
A
100
AcDbEntity
  8
D-STR　構造物外形線
100
AcDbCircle
 10
208479.621706803
 20
15288.45677842141
 30
0.0
 40
6.000000000001143
100
AcDbArc
 50
82.99999988321189
 51
172.999999883613
  0
LINE
  5
33329
330
A
100
AcDbEntity
  8
D-STR　構造物外形線
100
AcDbLine
 10
208473.6664298946
 20
15289.18799449394
 30
0.0
 11
208469.0353947687
 21
15251.47124074098
 31
0.0
  0
ARC
  5
3332A
330
A
100
AcDbEntity
  8
D-STR　構造物外形線
100
AcDbCircle
 10
208448.1919255894
 20
15254.03049699482
 30
0.0
 40
5.999999999999339
100
AcDbArc
 50
262.9999998832119
 51
352.999999883613
  0
ARC
  5
3332B
330
A
100
AcDbEntity
  8
D-STR　構造物外形線
100
AcDbCircle
 10
208452.8229607154
 20
15291.74725074779
 30
0.0
 40
6.000000000001143
100
AcDbArc
 50
352.999999883613
 51
82.99999988321189
  0
LINE
  5
3332C
330
A
100
AcDbEntity
  8
D-STR　構造物外形線
100
AcDbLine
 10
208454.1472024977
 20
15253.29928092229
 30
0.0
 11
208458.7782376237
 21
15291.01603467526
 31
0.0
  0
LINE
  5
33330
330
A
100
AcDbEntity
  8
D-STR　構造物外形線
100
AcDbLine
 10
208702.6098099962
 20
15358.05759403302
 30
0.0
 11
208726.8766614882
 21
15437.43088877794
 31
0.0
  0
LINE
  5
33331
330
A
100
AcDbEntity
  8
D-STR　構造物外形線
100
AcDbLine
 10
208679.06142369
 20
15452.04947401409
 30
0.0
 11
208654.794572198
 21
15372.67617926915
 31
0.0
  0
LINE
  5
33334
330
A
100
AcDbEntity
  8
D-STR　構造物外形線
100
AcDbLine
 10
208623.5276339015
 20
15253.40561094611
 30
0.0
 11
208682.5587655798
 21
15311.75220889989
 31
0.0
  0
LINE
  5
33335
330
A
100
AcDbEntity
  8
D-STR　構造物外形線
100
AcDbLine
 10
208682.6082499454
 20
15320.23734598172
 30
0.0
 11
208655.8953496775
 21
15347.26364723203
 31
0.0
  0
LINE
  5
33336
330
A
100
AcDbEntity
  8
D-STR　構造物外形線
100
AcDbLine
 10
208658.7781705055
 20
15365.18412050504
 30
0.0
 11
208695.1177512321
 21
15354.07399572557
 31
0.0
  0
ARC
  5
33337
330
A
100
AcDbEntity
  8
D-STR　構造物外形線
100
AcDbCircle
 10
208619.3098075434
 20
15257.67292166985
 30
0.0
 40
5.999999999999579
100
AcDbArc
 50
224.6658612431597
 51
314.6658612427202
  0
ARC
  5
33338
330
A
100
AcDbEntity
  8
D-STR　構造物外形線
100
AcDbCircle
 10
208592.5969072754
 20
15284.69922292015
 30
0.0
 40
5.9999999999983
100
AcDbArc
 50
134.6658612427201
 51
224.6658612431597
  0
ARC
  5
33339
330
A
100
AcDbEntity
  8
D-STR　構造物外形線
100
AcDbCircle
 10
208651.6280389537
 20
15343.04582087392
 30
0.0
 40
6.00000000000087
100
AcDbArc
 50
44.66586124315974
 51
134.6658612427201
  0
LINE
  5
3333A
330
A
100
AcDbEntity
  8
D-STR　構造物外形線
100
AcDbLine
 10
208588.3295965517
 20
15280.48139656205
 30
0.0
 11
208615.0424968197
 21
15253.45509531175
 31
0.0
  0
LINE
  5
3333B
330
A
100
AcDbEntity
  8
D-STR　構造物外形線
100
AcDbLine
 10
208647.4102125956
 20
15347.31313159766
 30
0.0
 11
208588.3790809173
 21
15288.96653364389
 31
0.0
  0
ARC
  5
3333C
330
A
100
AcDbEntity
  8
D-STR　構造物外形線
100
AcDbCircle
 10
208660.5324007338
 20
15370.92194904081
 30
0.0
 40
5.999999999999045
100
AcDbArc
 50
162.9999999999847
 51
252.9999999991569
  0
ARC
  5
3333D
330
A
100
AcDbEntity
  8
D-STR　構造物外形線
100
AcDbCircle
 10
208562.0030373687
 20
15278.34162275144
 30
0.0
 40
6.000000000001143
100
AcDbArc
 50
352.999999883613
 51
82.99999988321189
  0
LINE
  5
3333E
330
A
100
AcDbEntity
  8
D-STR　構造物外形線
100
AcDbLine
 10
208563.3272791511
 20
15239.89365292596
 30
0.0
 11
208567.9583142771
 21
15277.61040667892
 31
0.0
  0
ARC
  5
3333F
330
A
100
AcDbEntity
  8
D-STR　構造物外形線
100
AcDbCircle
 10
208678.3409392217
 20
15316.01951962362
 30
0.0
 40
5.999999999999592
100
AcDbArc
 50
314.6658612426469
 51
44.66586124315974
  0
ARC
  5
33340
330
A
100
AcDbEntity
  8
D-STR　構造物外形線
100
AcDbCircle
 10
208696.8719814604
 20
15359.81182426135
 30
0.0
 40
6.000000000000785
100
AcDbArc
 50
252.9999999991569
 51
342.9999999999846
  0
ARC
  5
33345
330
A
100
AcDbEntity
  8
D-STR　構造物外形線
100
AcDbCircle
 10
208721.1388329524
 20
15439.18511900628
 30
0.0
 40
5.999999999999045
100
AcDbArc
 50
342.9999999999846
 51
72.99999999915688
  0
ARC
  5
33346
330
A
100
AcDbEntity
  8
D-STR　構造物外形線
100
AcDbCircle
 10
208684.7992522258
 20
15450.29524378574
 30
0.0
 40
6.000000000001317
100
AcDbArc
 50
72.99999999915688
 51
162.9999999999847
  0
LINE
  5
33347
330
A
100
AcDbEntity
  8
D-STR　構造物外形線
100
AcDbLine
 10
208722.8930631807
 20
15444.92294754205
 30
0.0
 11
208686.5534824541
 21
15456.03307232152
 31
0.0
  0
ARC
  5
33348
330
A
100
AcDbEntity
  8
D-STR　構造物外形線
100
AcDbCircle
 10
208753.2997204719
 20
15544.37864216221
 30
0.0
 40
6.000000000000849
100
AcDbArc
 50
342.9999999999846
 51
72.99999999915688
  0
ARC
  5
33349
330
A
100
AcDbEntity
  8
D-STR　構造物外形線
100
AcDbCircle
 10
208729.0328689799
 20
15465.00534741728
 30
0.0
 40
5.999999999999045
100
AcDbArc
 50
252.9999999991569
 51
342.9999999999846
  0
ARC
  5
3334A
330
A
100
AcDbEntity
  8
D-STR　構造物外形線
100
AcDbCircle
 10
208692.6932882533
 20
15476.11547219674
 30
0.0
 40
6.000000000000785
100
AcDbArc
 50
162.9999999999847
 51
252.9999999991569
  0
ARC
  5
3334B
330
A
100
AcDbEntity
  8
D-STR　構造物外形線
100
AcDbCircle
 10
208716.9601397453
 20
15555.48876694168
 30
0.0
 40
5.999999999999045
100
AcDbArc
 50
72.99999999915688
 51
162.9999999999847
  0
LINE
  5
3334C
330
A
100
AcDbEntity
  8
D-STR　構造物外形線
100
AcDbLine
 10
208734.7706975156
 20
15463.25111718895
 30
0.0
 11
208759.0375490076
 21
15542.62441193388
 31
0.0
  0
LINE
  5
3334D
330
A
100
AcDbEntity
  8
D-STR　構造物外形線
100
AcDbLine
 10
208690.939058025
 20
15470.37764366097
 30
0.0
 11
208727.2786387516
 21
15459.26751888151
 31
0.0
  0
LINE
  5
3334E
330
A
100
AcDbEntity
  8
D-STR　構造物外形線
100
AcDbLine
 10
208711.2223112095
 20
15557.24299717001
 30
0.0
 11
208686.9554597175
 21
15477.86970242509
 31
0.0
  0
LINE
  5
3334F
330
A
100
AcDbEntity
  8
D-STR　構造物外形線
100
AcDbLine
 10
208755.0539507002
 20
15550.11647069799
 30
0.0
 11
208718.7143699736
 21
15561.22659547745
 31
0.0
  0
ARC
  5
33350
330
A
100
AcDbEntity
  8
D-STR　構造物外形線
100
AcDbCircle
 10
208761.1937564994
 20
15570.19887057322
 30
0.0
 40
6.000000000001002
100
AcDbArc
 50
252.9999999991569
 51
342.9999999999846
  0
ARC
  5
33351
330
A
100
AcDbEntity
  8
D-STR　構造物外形線
100
AcDbCircle
 10
208724.8541757728
 20
15581.30899535269
 30
0.0
 40
6.000000000000785
100
AcDbArc
 50
162.9999999999847
 51
252.9999999991569
  0
LINE
  5
33352
330
A
100
AcDbEntity
  8
D-STR　構造物外形線
100
AcDbLine
 10
208723.0999455444
 20
15575.57116681691
 30
0.0
 11
208759.4395262711
 21
15564.46104203744
 31
0.0
  0
ARC
  5
33354
330
A
100
AcDbEntity
  8
D-STR　構造物外形線
100
AcDbCircle
 10
208792.6005180957
 20
15666.08076850472
 30
0.0
 40
5.999999999999976
100
AcDbArc
 50
242.9999998833257
 51
332.9999998838882
  0
ARC
  5
33355
330
A
100
AcDbEntity
  8
D-STR　構造物外形線
100
AcDbCircle
 10
208796.4234818402
 20
15757.28594899469
 30
0.0
 40
5.999999999999976
100
AcDbArc
 50
62.99999988332571
 51
152.9999998838881
  0
ARC
  5
33356
330
A
100
AcDbEntity
  8
D-STR　構造物外形線
100
AcDbCircle
 10
208758.7422702116
 20
15683.33240756359
 30
0.0
 40
6.000000000000802
100
AcDbArc
 50
152.9999998838881
 51
242.9999998833257
  0
LINE
  5
33357
330
A
100
AcDbEntity
  8
D-STR　構造物外形線
100
AcDbLine
 10
208753.396231072
 20
15686.05635057288
 30
0.0
 11
208791.0774427006
 21
15760.00989200398
 31
0.0
  0
LINE
  5
33358
330
A
100
AcDbEntity
  8
D-STR　構造物外形線
100
AcDbLine
 10
208789.8765750864
 20
15660.73472936512
 30
0.0
 11
208756.0183272023
 21
15677.98636842398
 31
0.0
  0
ARC
  5
33359
330
A
100
AcDbEntity
  8
D-STR　構造物外形線
100
AcDbCircle
 10
208785.4606079914
 20
15649.57216531815
 30
0.0
 40
6.000000000000785
100
AcDbArc
 50
342.9999999999846
 51
72.99999999915688
  0
ARC
  5
3335A
330
A
100
AcDbEntity
  8
D-STR　構造物外形線
100
AcDbCircle
 10
208749.1210272648
 20
15660.68229009761
 30
0.0
 40
6.000000000000785
100
AcDbArc
 50
72.99999999915688
 51
162.9999999999847
  0
LINE
  5
3335B
330
A
100
AcDbEntity
  8
D-STR　構造物外形線
100
AcDbLine
 10
208787.2148382198
 20
15655.30999385392
 30
0.0
 11
208750.8752574931
 21
15666.4201186334
 31
0.0
  0
LINE
  5
33360
330
A
100
AcDbEntity
  8
D-STR　構造物外形線
100
AcDbLine
 10
208833.8118118949
 20
15733.7463507196
 30
0.0
 11
208841.8308706043
 21
15729.66043620566
 31
0.0
  0
LINE
  5
33361
330
A
100
AcDbEntity
  8
D-STR　構造物外形線
100
AcDbLine
 10
208841.8308706043
 20
15729.66043620566
 30
0.0
 11
208801.3291966688
 21
15650.1714258483
 31
0.0
  0
ARC
  5
33362
330
A
100
AcDbEntity
  8
D-STR　構造物外形線
100
AcDbCircle
 10
208830.2817297243
 20
15740.03430993583
 30
0.0
 40
5.999999999999181
100
AcDbArc
 50
332.9999998838882
 51
62.99999988332571
  0
LWPOLYLINE
  5
33B18
330
A
100
AcDbEntity
  8
D-STR　構造物外形線
100
AcDbPolyline
 90
        9
 70
   129
 43
0.0
 10
208540.0758402349
 20
15447.0272198253
 10
208202.0758402349
 20
15447.0272198253
 42
-0.414213562373184
 10
208196.0758402349
 20
15453.02721982529
 10
208196.0758402349
 20
15466.02721982529
 42
-0.4142135623730063
 10
208202.0758402349
 20
15472.02721982529
 10
208540.0758402349
 20
15472.02721982529
 42
-0.4142135623732728
 10
208546.0758402349
 20
15466.0272198253
 10
208546.0758402349
 20
15453.02721982529
 42
-0.4142135623732728
 10
208540.0758402349
 20
15447.0272198253
  0
LINE
  5
33B19
330
A
100
AcDbEntity
  8
D-STR　構造物外形線
100
AcDbLine
 10
208196.0758402349
 20
15466.02721982529
 30
0.0
 11
208546.0758402349
 21
15466.0272198253
 31
0.0
  0
LINE
  5
33B1A
330
A
100
AcDbEntity
  8
D-STR　構造物外形線
100
AcDbLine
 10
208546.0758402349
 20
15453.02721982529
 30
0.0
 11
208196.0758402349
 21
15453.02721982529
 31
0.0
  0
LINE
  5
33B1B
330
A
100
AcDbEntity
  8
D-STR　構造物外形線
100
AcDbLine
 10
208202.0758402349
 20
15472.02721982529
 30
0.0
 11
208202.0758402349
 21
15447.0272198253
 31
0.0
  0
LINE
  5
33B1C
330
A
100
AcDbEntity
  8
D-STR　構造物外形線
100
AcDbLine
 10
208540.0758402349
 20
15472.02721982529
 30
0.0
 11
208540.0758402349
 21
15447.0272198253
 31
0.0
  0
LINE
  5
341A0
330
A
100
AcDbEntity
  8
D-STR　構造物外形線
100
AcDbLine
 10
205153.9144509499
 20
14922.14322376342
 30
0.0
 11
204409.8815625107
 21
14922.14322376342
 31
0.0
  0
POLYLINE
  5
341A1
330
A
100
AcDbEntity
  8
D-STR　構造物外形線
100
AcDb2dPolyline
 66
     1
 10
0.0
 20
0.0
 30
0.0
  0
VERTEX
  5
341A2
330
341A1
100
AcDbEntity
  8
D-STR　構造物外形線
100
AcDbVertex
100
AcDb2dVertex
 10
205034.1644509499
 20
14822.14322376342
 30
0.0
  0
VERTEX
  5
341A3
330
341A1
100
AcDbEntity
  8
D-STR　構造物外形線
100
AcDbVertex
100
AcDb2dVertex
 10
205153.9146509499
 20
14822.14322376342
 30
0.0
  0
SEQEND
  5
341A4
330
341A1
100
AcDbEntity
  8
D-STR　構造物外形線
  0
POLYLINE
  5
341A5
330
A
100
AcDbEntity
  8
D-STR　構造物外形線
100
AcDb2dPolyline
 66
     1
 10
0.0
 20
0.0
 30
0.0
  0
VERTEX
  5
341A6
330
341A5
100
AcDbEntity
  8
D-STR　構造物外形線
100
AcDbVertex
100
AcDb2dVertex
 10
205214.4144509499
 20
14822.14322376341
 30
0.0
  0
VERTEX
  5
341A7
330
341A5
100
AcDbEntity
  8
D-STR　構造物外形線
100
AcDbVertex
100
AcDb2dVertex
 10
205334.1644509499
 20
14822.14322376342
 30
0.0
  0
VERTEX
  5
341A8
330
341A5
100
AcDbEntity
  8
D-STR　構造物外形線
100
AcDbVertex
100
AcDb2dVertex
 10
205334.1644509499
 20
14522.14322376342
 30
0.0
  0
VERTEX
  5
341A9
330
341A5
100
AcDbEntity
  8
D-STR　構造物外形線
100
AcDbVertex
100
AcDb2dVertex
 10
205034.1644509499
 20
14522.14322376342
 30
0.0
  0
VERTEX
  5
341AA
330
341A5
100
AcDbEntity
  8
D-STR　構造物外形線
100
AcDbVertex
100
AcDb2dVertex
 10
205034.1644509499
 20
14822.14322376342
 30
0.0
  0
SEQEND
  5
341AB
330
341A5
100
AcDbEntity
  8
D-STR　構造物外形線
  0
DIMENSION
  5
341CD
330
A
100
AcDbEntity
  8
D-STR-DIM　寸法線、寸法値
100
AcDbDimension
  2
*D7
 10
204833.0624715776
 20
14922.14322376342
 30
0.0
 11
204797.8552086334
 21
15122.07012056299
 31
0.0
 70
    32
 71
     5
 42
399.8537935990771
  3
1-15
100
AcDbAlignedDimension
 13
205084.1644509499
 23
15321.99701736249
 33
0.0
 14
205159.1644509498
 24
14922.14322376342
 34
0.0
 50
90.0
100
AcDbRotatedDimension
1001
ACAD
1000
DSTYLE
1002
{
1070
     3
1000
(<>)
1070
   271
1070
     0
1070
   340
1005
764
1002
}
  0
DIMENSION
  5
341CE
330
A
100
AcDbEntity
  8
D-STR-DIM　寸法線、寸法値
100
AcDbDimension
  2
*D8
 10
204833.0624715776
 20
14822.14322376342
 30
0.0
 11
204800.9960715776
 21
14872.14322376345
 31
0.0
 70
    32
 71
     5
 42
100.0
  3
1-15
100
AcDbAlignedDimension
 13
205159.1644509498
 23
14922.14322376342
 33
0.0
 14
205034.1644509499
 24
14822.14322376342
 34
0.0
 50
90.0
100
AcDbRotatedDimension
1001
ACAD
1000
DSTYLE
1002
{
1070
   340
1005
764
1002
}
  0
DIMENSION
  5
341CF
330
A
100
AcDbEntity
  8
D-STR-DIM　寸法線、寸法値
100
AcDbDimension
  2
*D9
 10
204833.0624715776
 20
14522.14322376342
 30
0.0
 11
204800.9960715776
 21
14672.14322376345
 31
0.0
 70
    32
 71
     5
 42
300.0
  3
1-15
100
AcDbAlignedDimension
 13
205034.1644509499
 23
14822.14322376342
 33
0.0
 14
204984.1644509498
 24
14522.14322376342
 34
0.0
 50
90.0
100
AcDbRotatedDimension
1001
ACAD
1000
DSTYLE
1002
{
1070
   340
1005
764
1002
}
  0
DIMENSION
  5
341D0
330
A
100
AcDbEntity
  8
D-STR-DIM　寸法線、寸法値
100
AcDbDimension
  2
*D10
 10
204833.0624715776
 20
14422.14322376342
 30
0.0
 11
204800.9960715776
 21
14472.14322376345
 31
0.0
 70
    32
 71
     5
 42
100.0
  3
1-15
100
AcDbAlignedDimension
 13
204984.1644509498
 23
14522.14322376342
 33
0.0
 14
204984.1644509498
 24
14422.14322376342
 34
0.0
 50
90.0
100
AcDbRotatedDimension
1001
ACAD
1000
DSTYLE
1002
{
1070
   340
1005
764
1002
}
  0
DIMENSION
  5
341D1
330
A
100
AcDbEntity
  8
D-STR-DIM　寸法線、寸法値
100
AcDbDimension
  2
*D11
 10
204693.6394999016
 20
14422.14322376342
 30
0.0
 11
204661.5730999016
 21
14672.14322376345
 31
0.0
 70
    32
 71
     5
 42
500.0
  3
1-15
100
AcDbAlignedDimension
 13
205159.1644509498
 23
14922.14322376342
 33
0.0
 14
204984.1644509498
 24
14422.14322376342
 34
0.0
 50
90.0
100
AcDbRotatedDimension
1001
ACAD
1000
DSTYLE
1002
{
1070
   340
1005
764
1002
}
  0
DIMENSION
  5
341D2
330
A
100
AcDbEntity
  8
D-STR-DIM　寸法線、寸法値
100
AcDbDimension
  2
*D12
 10
204693.6394999016
 20
15763.28594899469
 30
0.0
 11
204658.4322369574
 21
15342.71458637908
 31
0.0
 70
    32
  1
(840)
 71
     5
 42
841.1427252312714
  3
1-15
100
AcDbAlignedDimension
 13
205159.1644509498
 23
14922.14322376342
 33
0.0
 14
204984.1644509498
 24
15763.28594899469
 34
0.0
 50
90.0
100
AcDbRotatedDimension
1001
ACAD
1000
DSTYLE
1002
{
1070
     3
1000
(<>)
1070
   271
1070
     0
1070
   340
1005
764
1002
}
  0
DIMENSION
  5
34383
330
A
100
AcDbEntity
  8
D-STR-DIM　寸法線、寸法値
100
AcDbDimension
  2
*D13
 10
205184.1645509499
 20
15971.75158667055
 30
0.0
 11
205134.1645009499
 21
16003.81798667055
 31
0.0
 70
    32
 71
     5
 42
100.0001000000047
  3
1-15
100
AcDbAlignedDimension
 13
205084.1644509499
 23
15765.35593114361
 33
0.0
 14
205184.1645509499
 24
15765.35593114358
 34
0.0
100
AcDbRotatedDimension
1001
ACAD
1000
DSTYLE
1002
{
1070
   340
1005
764
1002
}
  0
DIMENSION
  5
34384
330
A
100
AcDbEntity
  8
D-STR-DIM　寸法線、寸法値
100
AcDbDimension
  2
*D14
 10
205984.1644509499
 20
15971.75158667055
 30
0.0
 11
205584.1645009499
 21
16003.81798667055
 31
0.0
 70
    32
 71
     5
 42
799.9998999999952
  3
1-15
100
AcDbAlignedDimension
 13
205184.1645509499
 23
15765.35593114358
 33
0.0
 14
205984.1644509499
 24
15765.35593114358
 34
0.0
100
AcDbRotatedDimension
1001
ACAD
1000
DSTYLE
1002
{
1070
   340
1005
764
1002
}
  0
DIMENSION
  5
34385
330
A
100
AcDbEntity
  8
D-STR-DIM　寸法線、寸法値
100
AcDbDimension
  2
*D15
 10
206784.1643509499
 20
15971.75158667055
 30
0.0
 11
206384.1644009499
 21
16003.81798667055
 31
0.0
 70
    32
 71
     5
 42
799.9998999999952
  3
1-15
100
AcDbAlignedDimension
 13
205984.1644509499
 23
15765.35593114358
 33
0.0
 14
206784.1643509499
 24
15765.35593114358
 34
0.0
100
AcDbRotatedDimension
1001
ACAD
1000
DSTYLE
1002
{
1070
   340
1005
764
1002
}
  0
DIMENSION
  5
34386
330
A
100
AcDbEntity
  8
D-STR-DIM　寸法線、寸法値
100
AcDbDimension
  2
*D16
 10
206884.1644509499
 20
15971.75158667055
 30
0.0
 11
206834.1644009498
 21
16003.81798667055
 31
0.0
 70
    32
 71
     5
 42
100.0001000000047
  3
1-15
100
AcDbAlignedDimension
 13
206784.1643509499
 23
15765.35593114358
 33
0.0
 14
206884.1644509499
 24
15765.35593114358
 34
0.0
100
AcDbRotatedDimension
1001
ACAD
1000
DSTYLE
1002
{
1070
   340
1005
764
1002
}
  0
DIMENSION
  5
34387
330
A
100
AcDbEntity
  8
D-STR-DIM　寸法線、寸法値
100
AcDbDimension
  2
*D17
 10
206884.1644509499
 20
16064.99900192488
 30
0.0
 11
205984.1644509499
 21
16097.06540192488
 31
0.0
 70
    32
 71
     5
 42
1800.0
  3
1-15
100
AcDbAlignedDimension
 13
205084.1644509499
 23
15765.35593114361
 33
0.0
 14
206884.1644509499
 24
15765.35593114358
 34
0.0
100
AcDbRotatedDimension
1001
ACAD
1000
DSTYLE
1002
{
1070
   340
1005
764
1002
}
  0
DIMENSION
  5
3445D
330
A
100
AcDbEntity
  8
D-STR-DIM　寸法線、寸法値
100
AcDbDimension
  2
*D18
 10
207995.6596796877
 20
14921.99701736249
 30
0.0
 11
207960.4524167436
 21
15121.84412088954
 31
0.0
 70
    32
 71
     5
 42
399.6942070540244
  3
1-15
100
AcDbAlignedDimension
 13
208236.6563295127
 23
15321.69122441652
 33
0.0
 14
208461.184630736
 24
14921.99701736249
 34
0.0
 50
90.0
100
AcDbRotatedDimension
1001
ACAD
1000
DSTYLE
1002
{
1070
     3
1000
(<>)
1070
   271
1070
     0
1070
   340
1005
764
1002
}
  0
DIMENSION
  5
3445E
330
A
100
AcDbEntity
  8
D-STR-DIM　寸法線、寸法値
100
AcDbDimension
  2
*D19
 10
208135.0826513638
 20
14821.99701736249
 30
0.0
 11
208103.0162513638
 21
14871.99701736252
 31
0.0
 70
    32
 71
     5
 42
100.0
  3
1-15
100
AcDbAlignedDimension
 13
208461.184630736
 23
14921.99701736249
 33
0.0
 14
208336.184630736
 24
14821.99701736249
 34
0.0
 50
90.0
100
AcDbRotatedDimension
1001
ACAD
1000
DSTYLE
1002
{
1070
   340
1005
764
1002
}
  0
DIMENSION
  5
3445F
330
A
100
AcDbEntity
  8
D-STR-DIM　寸法線、寸法値
100
AcDbDimension
  2
*D20
 10
208135.0826513638
 20
14521.99701736249
 30
0.0
 11
208103.0162513638
 21
14671.99701736252
 31
0.0
 70
    32
 71
     5
 42
300.0
  3
1-15
100
AcDbAlignedDimension
 13
208336.184630736
 23
14821.99701736249
 33
0.0
 14
208286.184630736
 24
14521.99701736249
 34
0.0
 50
90.0
100
AcDbRotatedDimension
1001
ACAD
1000
DSTYLE
1002
{
1070
   340
1005
764
1002
}
  0
DIMENSION
  5
34460
330
A
100
AcDbEntity
  8
D-STR-DIM　寸法線、寸法値
100
AcDbDimension
  2
*D21
 10
208135.0826513638
 20
14421.99701736249
 30
0.0
 11
208103.0162513638
 21
14471.99701736253
 31
0.0
 70
    32
 71
     5
 42
100.0
  3
1-15
100
AcDbAlignedDimension
 13
208286.184630736
 23
14521.99701736249
 33
0.0
 14
208286.184630736
 24
14421.99701736249
 34
0.0
 50
90.0
100
AcDbRotatedDimension
1001
ACAD
1000
DSTYLE
1002
{
1070
   340
1005
764
1002
}
  0
DIMENSION
  5
34461
330
A
100
AcDbEntity
  8
D-STR-DIM　寸法線、寸法値
100
AcDbDimension
  2
*D22
 10
207995.6596796877
 20
14421.99701736249
 30
0.0
 11
207963.5932796877
 21
14671.99701736252
 31
0.0
 70
    32
 71
     5
 42
500.0
  3
1-15
100
AcDbAlignedDimension
 13
208461.184630736
 23
14921.99701736249
 33
0.0
 14
208286.184630736
 24
14421.99701736249
 34
0.0
 50
90.0
100
AcDbRotatedDimension
1001
ACAD
1000
DSTYLE
1002
{
1070
   340
1005
764
1002
}
  0
DIMENSION
  5
34501
330
A
100
AcDbEntity
  8
D-STR-DIM　寸法線、寸法値
100
AcDbDimension
  2
*D23
 10
208636.184630736
 20
14308.71398837387
 30
0.0
 11
208486.184630736
 21
14340.78038837387
 31
0.0
 70
    32
 71
     5
 42
300.0
  3
1-15
100
AcDbAlignedDimension
 13
208336.184630736
 23
14422.14322376342
 33
0.0
 14
208636.184630736
 24
14422.14322376342
 34
0.0
100
AcDbRotatedDimension
1001
ACAD
1000
DSTYLE
1002
{
1070
     3
1000
300x<>
1070
   340
1005
764
1002
}
  0
DIMENSION
  5
34502
330
A
100
AcDbEntity
  8
D-STR-DIM　寸法線、寸法値
100
AcDbDimension
  2
*D24
 10
208336.184630736
 20
14308.71398837387
 30
0.0
 11
208311.184630736
 21
14340.78038837387
 31
0.0
 70
    32
 71
     5
 42
50.0
  3
1-15
100
AcDbAlignedDimension
 13
208286.184630736
 23
14422.14322376342
 33
0.0
 14
208336.184630736
 24
14422.14322376342
 34
0.0
100
AcDbRotatedDimension
1001
ACAD
1000
DSTYLE
1002
{
1070
   340
1005
764
1002
}
  0
DIMENSION
  5
34503
330
A
100
AcDbEntity
  8
D-STR-DIM　寸法線、寸法値
100
AcDbDimension
  2
*D25
 10
208686.184630736
 20
14308.71398837387
 30
0.0
 11
208661.184630736
 21
14340.78038837387
 31
0.0
 70
    32
 71
     5
 42
50.0
  3
1-15
100
AcDbAlignedDimension
 13
208636.184630736
 23
14422.14322376342
 33
0.0
 14
208686.184630736
 24
14422.14322376342
 34
0.0
100
AcDbRotatedDimension
1001
ACAD
1000
DSTYLE
1002
{
1070
   340
1005
764
1002
}
  0
DIMENSION
  5
34504
330
A
100
AcDbEntity
  8
D-STR-DIM　寸法線、寸法値
100
AcDbDimension
  2
*D26
 10
208686.184630736
 20
14233.03607059287
 30
0.0
 11
208486.184630736
 21
14265.10247059287
 31
0.0
 70
    32
 71
     5
 42
400.0
  3
1-15
100
AcDbAlignedDimension
 13
208286.184630736
 23
14422.14322376342
 33
0.0
 14
208686.184630736
 24
14422.14322376342
 34
0.0
100
AcDbRotatedDimension
1001
ACAD
1000
DSTYLE
1002
{
1070
     3
1000
400x<>
1070
   340
1005
764
1002
}
  0
DIMENSION
  5
34552
330
A
100
AcDbEntity
  8
D-STR-DIM　寸法線、寸法値
100
AcDbDimension
  2
*D27
 10
209089.4765432345
 20
14921.99701736249
 30
0.0
 11
209054.2692802903
 21
15342.64148317862
 31
0.0
 70
    32
 71
     5
 42
841.2889316321962
  3
1-15
100
AcDbAlignedDimension
 13
208796.4234818402
 23
15763.28594899469
 33
0.0
 14
208796.4234818402
 24
14921.99701736249
 34
0.0
 50
90.0
100
AcDbRotatedDimension
1001
ACAD
1000
DSTYLE
1002
{
1070
    45
1040
5.0
1070
     3
1000
(<>)
1070
   271
1070
     0
1002
}
  0
LEADER
  5
3458C
330
A
100
AcDbEntity
  8
D-STR-HTXT　旗上げ
100
AcDbLeader
  3
1-15
 73
     0
 74
     0
 75
     1
 40
45.11421319796954
 41
336.3578680203045
 76
     3
 10
205192.5986325725
 20
15154.39182584825
 30
0.0
 10
205350.3484535832
 20
14985.71033706052
 30
0.0
 10
205395.3484535833
 20
14985.71033706052
 30
0.0
340
3458D
  0
MTEXT
  5
3458D
102
{ACAD_REACTORS
330
3458C
102
}
330
A
100
AcDbEntity
  8
D-STR-HTXT　旗上げ
100
AcDbMText
 10
205408.6648535833
 20
14999.02673706052
 30
0.0
 40
37.5
 41
0.0
 71
     7
 72
     1
  1
柱 φ60.5×3.8
  7
YOKO_GOTHIC
 73
     1
 44
1.0
1001
ACAD
1000
MTEXTBEGIN
1070
    73
1070
     1
1070
    44
1040
1.0
1070
    74
1070
     0
1000
MTEXTEND
  0
LEADER
  5
3458E
330
A
100
AcDbEntity
  8
D-STR-HTXT　旗上げ
100
AcDbLeader
  3
1-15
 73
     0
 74
     0
 75
     1
 40
44.16243654822334
 41
289.1497461928933
 76
     3
 10
206041.1838687553
 20
15292.89049290234
 30
0.0
 10
206198.9336897661
 20
15124.20900411461
 30
0.0
 10
206243.9336897661
 20
15124.20900411461
 30
0.0
340
3458F
  0
MTEXT
  5
3458F
102
{ACAD_REACTORS
330
3458E
102
}
330
A
100
AcDbEntity
  8
D-STR-HTXT　旗上げ
100
AcDbMText
 10
206257.2500897661
 20
15137.52540411461
 30
0.0
 40
37.5
 41
0.0
 71
     7
 72
     1
  1
座板□95x50C
  7
YOKO_GOTHIC
 73
     1
 44
1.0
1001
ACAD
1000
MTEXTBEGIN
1070
    73
1070
     1
1070
    44
1040
1.0
1070
    74
1070
     0
1000
MTEXTEND
  0
LINE
  5
3459E
330
A
100
AcDbEntity
  8
D-STR　構造物外形線
100
AcDbLine
 10
204984.1644509498
 20
14522.14322376342
 30
0.0
 11
204984.1644509498
 21
14422.14322376342
 31
0.0
  0
LINE
  5
3459F
330
A
100
AcDbEntity
  8
D-STR　構造物外形線
100
AcDbLine
 10
204984.1644509498
 20
14422.14322376341
 30
0.0
 11
205030.257688397
 21
14522.14322376338
 31
0.0
  0
LINE
  5
345A0
330
A
100
AcDbEntity
  8
D-STR　構造物外形線
100
AcDbLine
 10
205019.6918004991
 20
14499.22036461296
 30
0.0
 11
205009.1259126012
 21
14522.14322376338
 31
0.0
  0
LINE
  5
345A1
330
A
100
AcDbEntity
  8
D-STR　構造物外形線
100
AcDbLine
 10
204994.7303388477
 20
14445.06608291383
 30
0.0
 11
205005.2962267456
 21
14422.14322376341
 31
0.0
  0
LINE
  5
345A2
330
A
100
AcDbEntity
  8
D-STR　構造物外形線
100
AcDbLine
 10
205020.2782769728
 20
14422.14322376341
 30
0.0
 11
205066.3715144199
 21
14522.14322376338
 31
0.0
  0
LINE
  5
345A3
330
A
100
AcDbEntity
  8
D-STR　構造物外形線
100
AcDbLine
 10
205055.805626522
 20
14499.22036461296
 30
0.0
 11
205045.2397386241
 21
14522.14322376338
 31
0.0
  0
LINE
  5
345A4
330
A
100
AcDbEntity
  8
D-STR　構造物外形線
100
AcDbLine
 10
205030.8441648706
 20
14445.06608291383
 30
0.0
 11
205041.4100527685
 21
14422.14322376341
 31
0.0
  0
LINE
  5
345A5
330
A
100
AcDbEntity
  8
D-STR　構造物外形線
100
AcDbLine
 10
205056.3921029957
 20
14422.14322376341
 30
0.0
 11
205102.4853404428
 21
14522.14322376338
 31
0.0
  0
LINE
  5
345A6
330
A
100
AcDbEntity
  8
D-STR　構造物外形線
100
AcDbLine
 10
205091.9194525449
 20
14499.22036461296
 30
0.0
 11
205081.353564647
 21
14522.14322376338
 31
0.0
  0
LINE
  5
345A7
330
A
100
AcDbEntity
  8
D-STR　構造物外形線
100
AcDbLine
 10
205066.9579908936
 20
14445.06608291383
 30
0.0
 11
205077.5238787914
 21
14422.14322376341
 31
0.0
  0
LINE
  5
345A8
330
A
100
AcDbEntity
  8
D-STR　構造物外形線
100
AcDbLine
 10
205265.8435614569
 20
14422.14322376341
 30
0.0
 11
205311.9367989041
 21
14522.14322376338
 31
0.0
  0
LINE
  5
345A9
330
A
100
AcDbEntity
  8
D-STR　構造物外形線
100
AcDbLine
 10
205301.3709110062
 20
14499.22036461296
 30
0.0
 11
205290.8050231083
 21
14522.14322376338
 31
0.0
  0
LINE
  5
345AA
330
A
100
AcDbEntity
  8
D-STR　構造物外形線
100
AcDbLine
 10
205276.4094493548
 20
14445.06608291383
 30
0.0
 11
205286.9753372527
 21
14422.14322376341
 31
0.0
  0
LINE
  5
345AB
330
A
100
AcDbEntity
  8
D-STR　構造物外形線
100
AcDbLine
 10
205301.9573874798
 20
14422.14322376341
 30
0.0
 11
205348.050624927
 21
14522.14322376338
 31
0.0
  0
LINE
  5
345AC
330
A
100
AcDbEntity
  8
D-STR　構造物外形線
100
AcDbLine
 10
205337.4847370291
 20
14499.22036461296
 30
0.0
 11
205326.9188491312
 21
14522.14322376338
 31
0.0
  0
LINE
  5
345AD
330
A
100
AcDbEntity
  8
D-STR　構造物外形線
100
AcDbLine
 10
205312.5232753777
 20
14445.06608291383
 30
0.0
 11
205323.0891632756
 21
14422.14322376341
 31
0.0
  0
LINE
  5
345AE
330
A
100
AcDbEntity
  8
D-STR　構造物外形線
100
AcDbLine
 10
205338.0712135028
 20
14422.14322376341
 30
0.0
 11
205384.1644509498
 21
14522.14322376338
 31
0.0
  0
LINE
  5
345AF
330
A
100
AcDbEntity
  8
D-STR　構造物外形線
100
AcDbLine
 10
205373.598563052
 20
14499.22036461296
 30
0.0
 11
205363.0326751541
 21
14522.14322376338
 31
0.0
  0
LINE
  5
345B0
330
A
100
AcDbEntity
  8
D-STR　構造物外形線
100
AcDbLine
 10
205348.6371014006
 20
14445.06608291383
 30
0.0
 11
205359.2029892985
 21
14422.14322376341
 31
0.0
  0
LINE
  5
345B1
330
A
100
AcDbEntity
  8
D-STR　構造物外形線
100
AcDbLine
 10
205034.1644509499
 20
14761.40696649381
 30
0.0
 11
205094.9007082194
 21
14822.1432237634
 31
0.0
  0
LINE
  5
345B2
330
A
100
AcDbEntity
  8
D-STR　構造物外形線
100
AcDbLine
 10
205034.1644509499
 20
14549.27493213783
 30
0.0
 11
205153.9144509499
 21
14669.02493213785
 31
0.0
  0
LINE
  5
345B3
330
A
100
AcDbEntity
  8
D-STR　構造物外形線
100
AcDbLine
 10
205214.4144509499
 20
14729.52493213787
 30
0.0
 11
205307.0327425754
 21
14822.1432237634
 31
0.0
  0
LINE
  5
345B4
330
A
100
AcDbEntity
  8
D-STR　構造物外形線
100
AcDbLine
 10
205219.1647769314
 20
14522.14322376341
 30
0.0
 11
205334.1644509499
 21
14637.14289778188
 31
0.0
  0
LINE
  5
345B5
330
A
100
AcDbEntity
  8
D-STR　構造物外形線
100
AcDbLine
 10
205034.1644509499
 20
14750.53196649381
 30
0.0
 11
205105.7757082194
 21
14822.1432237634
 31
0.0
  0
LINE
  5
345B6
330
A
100
AcDbEntity
  8
D-STR　構造物外形線
100
AcDbLine
 10
205034.1644509499
 20
14538.39993213783
 30
0.0
 11
205153.9144509499
 21
14658.14993213782
 31
0.0
  0
LINE
  5
345B7
330
A
100
AcDbEntity
  8
D-STR　構造物外形線
100
AcDbLine
 10
205214.4144509499
 20
14718.64993213787
 30
0.0
 11
205317.9077425754
 21
14822.14322376341
 31
0.0
  0
LINE
  5
345B8
330
A
100
AcDbEntity
  8
D-STR　構造物外形線
100
AcDbLine
 10
205230.0397769314
 20
14522.14322376341
 30
0.0
 11
205334.1644509499
 21
14626.26789778188
 31
0.0
  0
LINE
  5
345B9
330
A
100
AcDbEntity
  8
D-STR　構造物外形線
100
AcDbLine
 10
205034.1644509498
 20
14739.65696649381
 30
0.0
 11
205116.6507082195
 21
14822.14322376342
 31
0.0
  0
LINE
  5
345BA
330
A
100
AcDbEntity
  8
D-STR　構造物外形線
100
AcDbLine
 10
205034.1644509499
 20
14527.52493213783
 30
0.0
 11
205153.9144509499
 21
14647.27493213784
 31
0.0
  0
LINE
  5
345BB
330
A
100
AcDbEntity
  8
D-STR　構造物外形線
100
AcDbLine
 10
205214.4144509499
 20
14707.77493213788
 30
0.0
 11
205328.7827425755
 21
14822.14322376341
 31
0.0
  0
LINE
  5
345BC
330
A
100
AcDbEntity
  8
D-STR　構造物外形線
100
AcDbLine
 10
205240.9147769314
 20
14522.14322376342
 30
0.0
 11
205334.1644509499
 21
14615.39289778189
 31
0.0
  0
DIMENSION
  5
345BD
330
A
100
AcDbEntity
  8
D-STR-DIM　寸法線、寸法値
100
AcDbDimension
  2
*D28
 10
208841.8308706044
 20
15917.92935095191
 30
0.0
 11
208494.6475778933
 21
15953.13661389608
 31
0.0
 70
    32
  1
(695)
 71
     5
 42
694.366585422249
  3
1-15
100
AcDbAlignedDimension
 13
208147.4642851821
 23
15781.25593114358
 33
0.0
 14
208841.8308706044
 24
15781.25593114358
 34
0.0
100
AcDbRotatedDimension
1001
ACAD
1000
DSTYLE
1002
{
1070
     3
1000
(<>)
1070
   271
1070
     0
1002
}
  0
INSERT
  5
345F5
330
A
100
AcDbEntity
  8
D-TTL　外枠
100
AcDbBlockReference
 66
     1
  2
A$C0B7D5268
 10
203858.6857397068
 20
13353.08549668135
 30
0.0
 41
1.5
 42
1.5
 43
1.5
  0
ATTRIB
  5
345F6
330
345F5
100
AcDbEntity
  8
D-TTL-TXT　文字列
 48
0.5
100
AcDbText
 10
208061.5974763709
 20
13839.50013190131
 30
0.0
 40
52.5
  1
-
 41
0.8
  7
YOKO_GOTHIC
 72
     1
 11
208075.2421464216
 21
13829.90622327187
 31
0.0
100
AcDbAttribute
  2
PROJECT1
 70
     0
 74
     1
  0
ATTRIB
  5
345F7
330
345F5
100
AcDbEntity
  8
D-TTL-TXT　文字列
 48
0.5
100
AcDbText
 10
207665.9020448988
 20
13697.36061251858
 30
0.0
 40
52.5
  1
背付ベンチ 合成木材 (KMB-E-02)
 41
0.8
  7
YOKO_GOTHIC
 72
     1
 11
208075.2421464216
 21
13687.76670388914
 31
0.0
100
AcDbAttribute
  2
PROJECT2
 70
     0
 74
     1
  0
ATTRIB
  5
345F8
330
345F5
100
AcDbEntity
  8
D-TTL-TXT　文字列
 48
0.5
100
AcDbText
 10
209225.6214247258
 20
13869.97378039746
 30
0.0
 40
52.5
  1
2011／10／24
 41
0.8
  7
YOKO_GOTHIC
 72
     1
 11
209389.3574653349
 21
13860.37987176802
 31
0.0
100
AcDbAttribute
  2
DATE
 70
     0
 74
     1
  0
ATTRIB
  5
345F9
330
345F5
100
AcDbEntity
  8
D-TTL-TXT　文字列
 48
0.5
100
AcDbText
 10
208623.7747887141
 20
13730.44598105738
 30
0.0
 40
52.5
  1
図示
 41
0.8
  7
YOKO_GOTHIC
 72
     1
 11
208678.3534689171
 21
13720.85207242794
 31
0.0
100
AcDbAttribute
  2
SCALE
 70
     0
 74
     1
  0
ATTRIB
  5
345FA
330
345F5
100
AcDbEntity
  8
D-TTL-TXT　文字列
 48
0.5
100
AcDbText
 10
209762.9659392135
 20
13747.70125187836
 30
0.0
 40
52.5
  1
.
 41
0.8
  7
YOKO_GOTHIC
 72
     1
 11
209776.6106092643
 21
13738.10734324892
 31
0.0
100
AcDbAttribute
  2
DWGNO
 70
     0
 74
     1
  0
ATTRIB
  5
345FB
330
345F5
100
AcDbEntity
  8
D-TTL-TXT　文字列
 48
0.5
100
AcDbText
 10
208862.7464618717
 20
13683.75521154954
 30
0.0
 40
52.5
  1
尾　下
 41
0.8
  7
YOKO_GOTHIC
 72
     1
 11
208944.6144821764
 21
13674.16130292009
 31
0.0
100
AcDbAttribute
  2
DRAWN
 70
     0
 74
     1
  0
ATTRIB
  5
345FC
330
345F5
100
AcDbEntity
  8
D-TTL-TXT　文字列
 48
0.5
100
AcDbText
 10
209159.9456516646
 20
13683.75521154954
 30
0.0
 40
52.5
  1
上屋敷
 41
0.8
  7
YOKO_GOTHIC
 72
     1
 11
209241.8136719691
 21
13674.16130292009
 31
0.0
100
AcDbAttribute
  2
CHECKED
 70
     8
 74
     1
  0
ATTRIB
  5
345FD
330
345F5
100
AcDbEntity
  8
D-TTL-TXT　文字列
 48
0.5
100
AcDbText
 10
209462.9655337275
 20
13683.75521154954
 30
0.0
 40
52.5
  1
新　谷
 41
0.8
  7
YOKO_GOTHIC
 72
     1
 11
209544.8335540321
 21
13674.16130292009
 31
0.0
100
AcDbAttribute
  2
APPROVED
 70
     8
 74
     1
  0
SEQEND
  5
345FE
330
345F5
100
AcDbEntity
  8
D-TTL　外枠
  0
MTEXT
  5
345FF
330
A
100
AcDbEntity
  8
D-DOC　文章(説明、指示、参照事項等)
100
AcDbMText
 10
208119.0942549189
 20
16864.42837462938
 30
0.0
 40
37.5
 41
0.0
 71
     1
 72
     1
  1
※本製品製作工場は、ＩＳＯ９００１：２０００認証工場であること。\P※本製品は、（社）日本公園施設業協会賠償責任保険　加入製品とする。\P※本製品は、（社）日本公園施設業協会SP・SPL表示認定企業の製品とする。　
  7
YOKO_GOTHIC
 73
     1
 44
0.9
1001
ACAD
1000
MTEXTBEGIN
1070
    73
1070
     1
1070
    44
1040
0.9
1070
    74
1070
     0
1000
MTEXTEND
  0
MTEXT
  5
34600
330
A
100
AcDbEntity
  8
D-STR-HTXT　旗上げ
100
AcDbMText
 10
204249.3733357134
 20
17411.09949616733
 30
0.0
 40
37.5
 41
0.0
 71
     4
 72
     1
  1
背付ベンチ 合成木材 (KMB-E-02)
  7
YOKO_GOTHIC
 73
     1
 44
1.0
1001
ACAD
1000
MTEXTBEGIN
1070
    73
1070
     1
1070
    44
1040
1.0
1070
    74
1070
     0
1000
MTEXTEND
  0
LWPOLYLINE
  5
34601
330
A
100
AcDbEntity
  8
D-TTL-FRAM　タイトル枠、凡例図枠
100
AcDbPolyline
 90
        4
 70
     1
 43
0.0
 10
204236.6538789237
 20
17442.58948015483
 10
204982.0951937927
 20
17442.58948015483
 10
204982.0951937927
 20
17375.69161335139
 10
204236.6538789237
 20
17375.69161335139
  0
MTEXT
  5
34602
330
A
100
AcDbEntity
  8
D-DOC　文章(説明、指示、参照事項等)
100
AcDbMText
 10
208708.2912321774
 20
17304.55306728343
 30
0.0
 40
37.5
 41
0.0
 71
     1
 72
     1
  1
仕様\P　合成木材　アインスーパーウッド\P　鋼　　材　JIS規格品　電気亜鉛メッキ\P　塗　　装　ポリウレタン樹脂塗装\P　ボルト類　ステンレス製品\P  地際処理　防食テープ巻
  7
YOKO_GOTHIC
 73
     1
 44
1.0
1001
ACAD
1000
MTEXTBEGIN
1070
    73
1070
     1
1070
    44
1040
1.0
1070
    74
1070
     0
1000
MTEXTEND
  0
LWPOLYLINE
  5
34603
330
A
100
AcDbEntity
  8
D-TTL-FRAM　タイトル枠、凡例図枠
100
AcDbPolyline
 90
        4
 70
     1
 43
0.0
 10
208668.9394561522
 20
17325.81771268234
 10
209640.3241373635
 20
17325.81771268234
 10
209640.3241373635
 20
16902.29204696226
 10
208668.9394561522
 20
16902.29204696226
  0
LINE
  5
347DB
330
A
100
AcDbEntity
  8
D-STR　構造物外形線
100
AcDbLine
 10
208336.184630736
 20
14761.26076009289
 30
0.0
 11
208396.9208880056
 21
14821.99701736248
 31
0.0
  0
LINE
  5
347DC
330
A
100
AcDbEntity
  8
D-STR　構造物外形線
100
AcDbLine
 10
208336.184630736
 20
14549.12872573691
 30
0.0
 11
208455.9346307361
 21
14668.87872573693
 31
0.0
  0
LINE
  5
347DD
330
A
100
AcDbEntity
  8
D-STR　構造物外形線
100
AcDbLine
 10
208516.434630736
 20
14729.37872573695
 30
0.0
 11
208609.0529223616
 21
14821.99701736248
 31
0.0
  0
LINE
  5
347DE
330
A
100
AcDbEntity
  8
D-STR　構造物外形線
100
AcDbLine
 10
208521.1849567175
 20
14521.99701736249
 30
0.0
 11
208636.184630736
 21
14636.99669138096
 31
0.0
  0
LINE
  5
347DF
330
A
100
AcDbEntity
  8
D-STR　構造物外形線
100
AcDbLine
 10
208336.184630736
 20
14750.38576009288
 30
0.0
 11
208407.7958880056
 21
14821.99701736248
 31
0.0
  0
LINE
  5
347E0
330
A
100
AcDbEntity
  8
D-STR　構造物外形線
100
AcDbLine
 10
208336.184630736
 20
14538.2537257369
 30
0.0
 11
208455.9346307361
 21
14658.0037257369
 31
0.0
  0
LINE
  5
347E1
330
A
100
AcDbEntity
  8
D-STR　構造物外形線
100
AcDbLine
 10
208516.434630736
 20
14718.50372573695
 30
0.0
 11
208619.9279223616
 21
14821.99701736249
 31
0.0
  0
LINE
  5
347E2
330
A
100
AcDbEntity
  8
D-STR　構造物外形線
100
AcDbLine
 10
208532.0599567175
 20
14521.99701736249
 30
0.0
 11
208636.184630736
 21
14626.12169138096
 31
0.0
  0
LINE
  5
347E3
330
A
100
AcDbEntity
  8
D-STR　構造物外形線
100
AcDbLine
 10
208336.184630736
 20
14739.51076009288
 30
0.0
 11
208418.6708880056
 21
14821.9970173625
 31
0.0
  0
LINE
  5
347E4
330
A
100
AcDbEntity
  8
D-STR　構造物外形線
100
AcDbLine
 10
208336.184630736
 20
14527.37872573691
 30
0.0
 11
208455.9346307361
 21
14647.12872573691
 31
0.0
  0
LINE
  5
347E5
330
A
100
AcDbEntity
  8
D-STR　構造物外形線
100
AcDbLine
 10
208516.434630736
 20
14707.62872573695
 30
0.0
 11
208630.8029223616
 21
14821.99701736249
 31
0.0
  0
LINE
  5
347E6
330
A
100
AcDbEntity
  8
D-STR　構造物外形線
100
AcDbLine
 10
208542.9349567176
 20
14521.9970173625
 30
0.0
 11
208636.184630736
 21
14615.24669138096
 31
0.0
  0
LINE
  5
347E7
330
A
100
AcDbEntity
  8
D-STR　構造物外形線
100
AcDbLine
 10
208286.184630736
 20
14421.99701736249
 30
0.0
 11
208332.2778681832
 21
14521.99701736246
 31
0.0
  0
LINE
  5
347E8
330
A
100
AcDbEntity
  8
D-STR　構造物外形線
100
AcDbLine
 10
208321.7119802853
 20
14499.07415821204
 30
0.0
 11
208311.1460923874
 21
14521.99701736246
 31
0.0
  0
LINE
  5
347E9
330
A
100
AcDbEntity
  8
D-STR　構造物外形線
100
AcDbLine
 10
208296.7505186339
 20
14444.91987651291
 30
0.0
 11
208307.3164065318
 21
14421.99701736249
 31
0.0
  0
LINE
  5
347EA
330
A
100
AcDbEntity
  8
D-STR　構造物外形線
100
AcDbLine
 10
208322.2984567589
 20
14421.99701736249
 30
0.0
 11
208368.391694206
 21
14521.99701736246
 31
0.0
  0
LINE
  5
347EB
330
A
100
AcDbEntity
  8
D-STR　構造物外形線
100
AcDbLine
 10
208357.8258063082
 20
14499.07415821204
 30
0.0
 11
208347.2599184103
 21
14521.99701736246
 31
0.0
  0
LINE
  5
347EC
330
A
100
AcDbEntity
  8
D-STR　構造物外形線
100
AcDbLine
 10
208332.8643446568
 20
14444.91987651291
 30
0.0
 11
208343.4302325547
 21
14421.99701736249
 31
0.0
  0
LINE
  5
347ED
330
A
100
AcDbEntity
  8
D-STR　構造物外形線
100
AcDbLine
 10
208358.4122827819
 20
14421.99701736249
 30
0.0
 11
208404.5055202289
 21
14521.99701736246
 31
0.0
  0
LINE
  5
347EE
330
A
100
AcDbEntity
  8
D-STR　構造物外形線
100
AcDbLine
 10
208393.9396323311
 20
14499.07415821204
 30
0.0
 11
208383.3737444332
 21
14521.99701736246
 31
0.0
  0
LINE
  5
347EF
330
A
100
AcDbEntity
  8
D-STR　構造物外形線
100
AcDbLine
 10
208368.9781706797
 20
14444.91987651291
 30
0.0
 11
208379.5440585776
 21
14421.99701736249
 31
0.0
  0
LINE
  5
347F0
330
A
100
AcDbEntity
  8
D-STR　構造物外形線
100
AcDbLine
 10
208567.8637412431
 20
14421.99701736249
 30
0.0
 11
208613.9569786903
 21
14521.99701736246
 31
0.0
  0
LINE
  5
347F1
330
A
100
AcDbEntity
  8
D-STR　構造物外形線
100
AcDbLine
 10
208603.3910907923
 20
14499.07415821204
 30
0.0
 11
208592.8252028945
 21
14521.99701736246
 31
0.0
  0
LINE
  5
347F2
330
A
100
AcDbEntity
  8
D-STR　構造物外形線
100
AcDbLine
 10
208578.429629141
 20
14444.91987651291
 30
0.0
 11
208588.9955170388
 21
14421.99701736249
 31
0.0
  0
LINE
  5
347F3
330
A
100
AcDbEntity
  8
D-STR　構造物外形線
100
AcDbLine
 10
208603.977567266
 20
14421.99701736249
 30
0.0
 11
208650.0708047131
 21
14521.99701736246
 31
0.0
  0
LINE
  5
347F4
330
A
100
AcDbEntity
  8
D-STR　構造物外形線
100
AcDbLine
 10
208639.5049168153
 20
14499.07415821204
 30
0.0
 11
208628.9390289174
 21
14521.99701736246
 31
0.0
  0
LINE
  5
347F5
330
A
100
AcDbEntity
  8
D-STR　構造物外形線
100
AcDbLine
 10
208614.5434551639
 20
14444.91987651291
 30
0.0
 11
208625.1093430618
 21
14421.99701736249
 31
0.0
  0
LINE
  5
347F6
330
A
100
AcDbEntity
  8
D-STR　構造物外形線
100
AcDbLine
 10
208640.0913932889
 20
14421.99701736249
 30
0.0
 11
208686.184630736
 21
14521.99701736246
 31
0.0
  0
LINE
  5
347F7
330
A
100
AcDbEntity
  8
D-STR　構造物外形線
100
AcDbLine
 10
208675.6187428381
 20
14499.07415821204
 30
0.0
 11
208665.0528549403
 21
14521.99701736246
 31
0.0
  0
LINE
  5
347F8
330
A
100
AcDbEntity
  8
D-STR　構造物外形線
100
AcDbLine
 10
208650.6572811868
 20
14444.91987651291
 30
0.0
 11
208661.2231690847
 21
14421.99701736249
 31
0.0
  0
LEADER
  5
347F9
330
A
100
AcDbEntity
  8
D-STR-HTXT　旗上げ
100
AcDbLeader
  3
1-15
 73
     0
 75
     1
 40
37.5
 41
189.5939086294416
 76
     3
 10
208233.0758402349
 20
15424.61398172787
 30
0.0
 10
208064.5431046836
 20
15511.65939624967
 30
0.0
 10
208019.5431046835
 20
15511.65939624967
 30
0.0
340
347FA
  0
MTEXT
  5
347FA
102
{ACAD_REACTORS
330
347F9
102
}
330
A
100
AcDbEntity
  8
D-STR-HTXT　旗上げ
100
AcDbMText
 10
207816.6327960541
 20
15524.97579624967
 30
0.0
 40
37.5
 41
0.0
 71
     7
 72
     1
  1
FB-6×75
  7
YOKO_GOTHIC
 73
     1
 44
1.0
1001
ACAD
1000
MTEXTBEGIN
1070
    73
1070
     1
1070
    44
1040
1.0
1070
    74
1070
     0
1000
MTEXTEND
  0
LEADER
  5
347FB
330
A
100
AcDbEntity
  8
D-STR-HTXT　旗上げ
100
AcDbLeader
  3
1-15
 73
     0
 75
     1
 40
43.78172588832486
 41
531.6624365482232
 76
     3
 10
208371.0758402349
 20
15472.02721982529
 30
0.0
 10
208200.8228737706
 20
15667.87099145343
 30
0.0
 10
208155.8228737705
 20
15667.87099145343
 30
0.0
340
347FC
  0
MTEXT
  5
347FC
102
{ACAD_REACTORS
330
347FB
102
}
330
A
100
AcDbEntity
  8
D-STR-HTXT　旗上げ
100
AcDbMText
 10
207610.8440372223
 20
15681.18739145343
 30
0.0
 40
37.5
 41
0.0
 71
     7
 72
     1
  1
肘掛け:ESW100×25×350
  7
YOKO_GOTHIC
 73
     1
 44
1.0
1001
ACAD
1000
MTEXTBEGIN
1070
    73
1070
     1
1070
    44
1040
1.0
1070
    74
1070
     0
1000
MTEXTEND
  0
LEADER
  5
347FF
330
A
100
AcDbEntity
  8
D-STR-HTXT　旗上げ
100
AcDbLeader
  3
1-15
 73
     0
 74
     0
 75
     1
 40
44.16243654822334
 41
362.2461928934009
 76
     3
 10
206859.3914742081
 20
15609.31229488679
 30
0.0
 10
207023.9312200003
 20
15800.6209179756
 30
0.0
 10
207068.9312200003
 20
15800.6209179756
 30
0.0
340
34800
  0
MTEXT
  5
34800
102
{ACAD_REACTORS
330
347FF
102
}
330
A
100
AcDbEntity
  8
D-STR-HTXT　旗上げ
100
AcDbMText
 10
207082.2476200003
 20
15813.9373179756
 30
0.0
 40
37.5
 41
0.0
 71
     7
 72
     1
  1
座板:ESW95×50C
  7
YOKO_GOTHIC
 73
     1
 44
1.0
1001
ACAD
1000
MTEXTBEGIN
1070
    73
1070
     1
1070
    44
1040
1.0
1070
    74
1070
     0
1000
MTEXTEND
  0
LEADER
  5
34801
330
A
100
AcDbEntity
  8
D-STR-HTXT　旗上げ
100
AcDbLeader
  3
1-15
 73
     0
 74
     0
 75
     1
 40
44.16243654822334
 41
362.2461928934009
 76
     3
 10
208812.0467536469
 20
15731.45480312725
 30
0.0
 10
208939.4774713755
 20
15922.76342621607
 30
0.0
 10
208984.4774713755
 20
15922.76342621607
 30
0.0
340
34802
  0
MTEXT
  5
34802
102
{ACAD_REACTORS
330
34801
102
}
330
A
100
AcDbEntity
  8
D-STR-HTXT　旗上げ
100
AcDbMText
 10
208997.7938713755
 20
15936.07982621607
 30
0.0
 40
37.5
 41
0.0
 71
     7
 72
     1
  1
座板:ESW95×50C
  7
YOKO_GOTHIC
 73
     1
 44
1.0
1001
ACAD
1000
MTEXTBEGIN
1070
    73
1070
     1
1070
    44
1040
1.0
1070
    74
1070
     0
1000
MTEXTEND
  0
LEADER
  5
34803
330
A
100
AcDbEntity
  8
D-STR-HTXT　旗上げ
100
AcDbLeader
  3
1-15
 73
     0
 74
     0
 75
     1
 40
37.5
 41
189.5939086294416
 76
     3
 10
208650.7255507191
 20
15267.63379688559
 30
0.0
 10
208755.171261765
 20
15149.72532306052
 30
0.0
 10
208800.171261765
 20
15149.72532306052
 30
0.0
340
34804
  0
MTEXT
  5
34804
102
{ACAD_REACTORS
330
34803
102
}
330
A
100
AcDbEntity
  8
D-STR-HTXT　旗上げ
100
AcDbMText
 10
208813.487661765
 20
15163.04172306052
 30
0.0
 40
37.5
 41
0.0
 71
     7
 72
     1
  1
FB-9×75
  7
YOKO_GOTHIC
 73
     1
 44
1.0
1001
ACAD
1000
MTEXTBEGIN
1070
    73
1070
     1
1070
    44
1040
1.0
1070
    74
1070
     0
1000
MTEXTEND
  0
LEADER
  5
34805
330
A
100
AcDbEntity
  8
D-STR-HTXT　旗上げ
100
AcDbLeader
  3
1-15
 73
     0
 74
     0
 75
     1
 40
43.97208121827411
 41
360.7233502538071
 76
     3
 10
208495.7060247536
 20
15114.6496577271
 30
0.0
 10
208600.1517357995
 20
14996.74118390203
 30
0.0
 10
208645.1517357995
 20
14996.74118390203
 30
0.0
340
34806
  0
MTEXT
  5
34806
102
{ACAD_REACTORS
330
34805
102
}
330
A
100
AcDbEntity
  8
D-STR-HTXT　旗上げ
100
AcDbMText
 10
208658.4681357995
 20
15010.05758390203
 30
0.0
 40
37.5
 41
0.0
 71
     7
 72
     1
  1
脚　φ60.5×3.8
  7
YOKO_GOTHIC
 73
     1
 44
1.0
1001
ACAD
1000
MTEXTBEGIN
1070
    73
1070
     1
1070
    44
1040
1.0
1070
    74
1070
     0
1000
MTEXTEND
  0
MTEXT
  5
34810
330
A
100
AcDbEntity
  8
D-STR-HTXT　旗上げ
100
AcDbMText
 10
204757.2344463076
 20
16248.92422117413
 30
0.0
 40
52.5
 41
0.0
 71
     7
 72
     1
  1
{\L平面図　1：15}
  7
YOKO_GOTHIC
 73
     1
 44
1.0
1001
ACAD
1000
MTEXTBEGIN
1070
    73
1070
     1
1070
    44
1040
1.0
1070
    74
1070
     0
1000
MTEXTEND
  0
MTEXT
  5
34811
330
A
100
AcDbEntity
  8
D-STR-HTXT　旗上げ
100
AcDbMText
 10
204755.7938038148
 20
14046.08134580771
 30
0.0
 40
52.5
 41
0.0
 71
     7
 72
     1
  1
{\L立面図　1：15}
  7
YOKO_GOTHIC
 73
     1
 44
1.0
1001
ACAD
1000
MTEXTBEGIN
1070
    73
1070
     1
1070
    44
1040
1.0
1070
    74
1070
     0
1000
MTEXTEND
  0
MTEXT
  5
34812
330
A
100
AcDbEntity
  8
D-STR-HTXT　旗上げ
100
AcDbMText
 10
207870.3248234306
 20
14046.08134580771
 30
0.0
 40
52.5
 41
0.0
 71
     7
 72
     1
  1
{\L断面図　1：15}
  7
YOKO_GOTHIC
 73
     1
 44
1.0
1001
ACAD
1000
MTEXTBEGIN
1070
    73
1070
     1
1070
    44
1040
1.0
1070
    74
1070
     0
1000
MTEXTEND
  0
DIMENSION
  5
34AAF
330
A
100
AcDbEntity
  8
D-STR-DIM　寸法線、寸法値
100
AcDbDimension
  2
*D29
 10
208546.075840235
 20
15577.24608610895
 30
0.0
 11
208371.075840235
 21
15609.31248610895
 31
0.0
 70
    32
 71
     5
 42
350.0
  3
1-15
100
AcDbAlignedDimension
 13
208196.0758402349
 23
15487.92721982529
 33
0.0
 14
208546.075840235
 24
15487.92721982529
 34
0.0
100
AcDbRotatedDimension
  0
LINE
  5
34ACE
330
A
100
AcDbEntity
  8
D-STR　構造物外形線
100
AcDbLine
 10
205084.1644509499
 20
16464.02241314501
 30
0.0
 11
205084.1644509499
 21
17152.24040384274
 31
0.0
  0
LINE
  5
34ACF
330
A
100
AcDbEntity
  8
D-STR　構造物外形線
100
AcDbLine
 10
206884.1644509499
 20
16464.02241314501
 30
0.0
 11
206884.1644509499
 21
17152.24040384274
 31
0.0
  0
LINE
  5
34AD0
330
A
100
AcDbEntity
  8
D-STR　構造物外形線
100
AcDbLine
 10
205084.1644509499
 20
17152.24040384274
 30
0.0
 11
206884.1644509499
 21
17152.24040384274
 31
0.0
  0
LINE
  5
34AD1
330
A
100
AcDbEntity
  8
D-STR　構造物外形線
100
AcDbLine
 10
205084.1644509499
 20
17112.67581685707
 30
0.0
 11
206884.1644509499
 21
17112.67581685707
 31
0.0
  0
LINE
  5
34AD2
330
A
100
AcDbEntity
  8
D-STR　構造物外形線
100
AcDbLine
 10
205084.1644509499
 20
17069.28826612695
 30
0.0
 11
206884.1644509499
 21
17069.28826612695
 31
0.0
  0
LINE
  5
34AD3
330
A
100
AcDbEntity
  8
D-STR　構造物外形線
100
AcDbLine
 10
205084.1644509499
 20
17065.37336228169
 30
0.0
 11
206884.1644509499
 21
17065.37336228169
 31
0.0
  0
LINE
  5
34AD4
330
A
100
AcDbEntity
  8
D-STR　構造物外形線
100
AcDbLine
 10
205084.1644509499
 20
17035.80882523255
 30
0.0
 11
206884.1644509499
 21
17035.80882523255
 31
0.0
  0
LINE
  5
34AD5
330
A
100
AcDbEntity
  8
D-STR　構造物外形線
100
AcDbLine
 10
205084.1644509499
 20
17033.21247476218
 30
0.0
 11
206884.1644509499
 21
17033.21247476218
 31
0.0
  0
LINE
  5
34AD6
330
A
100
AcDbEntity
  8
D-STR　構造物外形線
100
AcDbLine
 10
205084.1644509499
 20
17002.94562327019
 30
0.0
 11
206884.1644509499
 21
17002.94562327019
 31
0.0
  0
LINE
  5
34AD7
330
A
100
AcDbEntity
  8
D-STR　構造物外形線
100
AcDbLine
 10
205084.1644509499
 20
17001.0515872427
 30
0.0
 11
206884.1644509499
 21
17001.0515872427
 31
0.0
  0
LINE
  5
34AD8
330
A
100
AcDbEntity
  8
D-STR　構造物外形線
100
AcDbLine
 10
205084.1644509499
 20
16970.78473575071
 30
0.0
 11
205146.6645509499
 21
16970.78473575071
 31
0.0
  0
LINE
  5
34AD9
330
A
100
AcDbEntity
  8
D-STR　構造物外形線
100
AcDbLine
 10
205084.1644509499
 20
16902.84924229233
 30
0.0
 11
205146.6645509499
 21
16902.84924229233
 31
0.0
  0
LINE
  5
34ADA
330
A
100
AcDbEntity
  8
D-STR　構造物外形線
100
AcDbLine
 10
205084.1644509499
 20
16884.21064929399
 30
0.0
 11
205146.6645509499
 21
16884.21064929399
 31
0.0
  0
LINE
  5
34ADB
330
A
100
AcDbEntity
  8
D-STR　構造物外形線
100
AcDbLine
 10
205084.1644509499
 20
16785.24300669391
 30
0.0
 11
205134.1643509499
 21
16785.24300669391
 31
0.0
  0
LINE
  5
34ADC
330
A
100
AcDbEntity
  8
D-STR　構造物外形線
100
AcDbLine
 10
205084.1644509499
 20
16775.03057264067
 30
0.0
 11
205134.1643509499
 21
16775.03057264067
 31
0.0
  0
LINE
  5
34ADD
330
A
100
AcDbEntity
  8
D-STR　構造物外形線
100
AcDbLine
 10
205084.1644509499
 20
16676.0629300406
 30
0.0
 11
205134.1643509498
 21
16676.0629300406
 31
0.0
  0
LINE
  5
34ADE
330
A
100
AcDbEntity
  8
D-STR　構造物外形線
100
AcDbLine
 10
205084.1644509499
 20
16665.85049598734
 30
0.0
 11
205134.1643509498
 21
16665.85049598734
 31
0.0
  0
LINE
  5
34ADF
330
A
100
AcDbEntity
  8
D-STR　構造物外形線
100
AcDbLine
 10
205084.1644509499
 20
16566.92757647892
 30
0.0
 11
205134.1643509498
 21
16566.92757647892
 31
0.0
  0
LINE
  5
34AE0
330
A
100
AcDbEntity
  8
D-STR　構造物外形線
100
AcDbLine
 10
205084.1644509499
 20
16560.88920807541
 30
0.0
 11
205134.1643509498
 21
16560.88920807541
 31
0.0
  0
LINE
  5
34AE1
330
A
100
AcDbEntity
  8
D-STR　構造物外形線
100
AcDbLine
 10
205084.1644509499
 20
16464.02241314501
 30
0.0
 11
206884.1644509499
 21
16464.02241314501
 31
0.0
  0
LWPOLYLINE
  5
34AE9
330
A
100
AcDbEntity
  8
D-STR　構造物外形線
100
AcDbPolyline
 90
        8
 70
     1
 43
0.0
 10
206740.1645509498
 20
16862.32817525183
 10
206828.1645509499
 20
16862.32817525184
 42
-0.4142135623731065
 10
206834.1645509498
 20
16856.32817525184
 10
206834.1645509498
 20
16518.32817525183
 42
-0.4142135623731197
 10
206828.1645509499
 20
16512.32817525183
 10
206740.1645509499
 20
16512.32817525183
 42
-0.4142135623730647
 10
206734.1645509499
 20
16518.32817525184
 10
206734.1645509499
 20
16856.32817525183
 42
-0.4142135623730951
  0
LWPOLYLINE
  5
34AEA
330
A
100
AcDbEntity
  8
D-STR　構造物外形線
100
AcDbPolyline
 90
        4
 70
     1
 43
0.0
 10
206746.6643509499
 20
16971.04690721494
 10
206821.6643509499
 20
16971.04690721494
 10
206821.6643509499
 20
16862.32817525184
 10
206746.6643509499
 20
16862.32817525184
  0
LWPOLYLINE
  5
34AEC
330
A
100
AcDbEntity
  8
D-STR　構造物外形線
100
AcDbPolyline
 90
        8
 70
     1
 43
0.0
 10
205228.1643509499
 20
16862.32817525183
 10
205140.1643509499
 20
16862.32817525184
 42
0.4142135623731065
 10
205134.1643509499
 20
16856.32817525184
 10
205134.1643509498
 20
16518.32817525183
 42
0.4142135623731197
 10
205140.1643509498
 20
16512.32817525183
 10
205228.1643509498
 20
16512.32817525183
 42
0.4142135623730647
 10
205234.1643509498
 20
16518.32817525184
 10
205234.1643509499
 20
16856.32817525183
 42
0.4142135623730951
  0
LWPOLYLINE
  5
34AED
330
A
100
AcDbEntity
  8
D-STR　構造物外形線
100
AcDbPolyline
 90
        4
 70
     1
 43
0.0
 10
205221.6645509499
 20
16971.04690721494
 10
205146.6645509499
 20
16971.04690721494
 10
205146.6645509499
 20
16862.32817525184
 10
205221.6645509499
 20
16862.32817525184
  0
LINE
  5
34AEE
330
A
100
AcDbEntity
  8
D-STR　構造物外形線
100
AcDbLine
 10
205221.6645509499
 20
16884.21064929399
 30
0.0
 11
206746.6643509499
 21
16884.21064929399
 31
0.0
  0
LINE
  5
34AEF
330
A
100
AcDbEntity
  8
D-STR　構造物外形線
100
AcDbLine
 10
205221.6645509499
 20
16902.84924229233
 30
0.0
 11
206746.6643509499
 21
16902.84924229233
 31
0.0
  0
LINE
  5
34AF0
330
A
100
AcDbEntity
  8
D-STR　構造物外形線
100
AcDbLine
 10
205221.6645509499
 20
16970.78473575071
 30
0.0
 11
206746.6643509499
 21
16970.78473575071
 31
0.0
  0
LINE
  5
34AF1
330
A
100
AcDbEntity
  8
D-STR　構造物外形線
100
AcDbLine
 10
206821.6643509499
 20
16884.21064929399
 30
0.0
 11
206884.1644509499
 21
16884.21064929399
 31
0.0
  0
LINE
  5
34AF2
330
A
100
AcDbEntity
  8
D-STR　構造物外形線
100
AcDbLine
 10
206821.6643509499
 20
16902.84924229233
 30
0.0
 11
206884.1644509499
 21
16902.84924229233
 31
0.0
  0
LINE
  5
34AF3
330
A
100
AcDbEntity
  8
D-STR　構造物外形線
100
AcDbLine
 10
206821.6643509499
 20
16970.78473575071
 30
0.0
 11
206884.1644509499
 21
16970.78473575071
 31
0.0
  0
LINE
  5
34AF4
330
A
100
AcDbEntity
  8
D-STR　構造物外形線
100
AcDbLine
 10
206834.1645509498
 20
16775.03057264067
 30
0.0
 11
206884.1644509499
 21
16775.03057264067
 31
0.0
  0
LINE
  5
34AF5
330
A
100
AcDbEntity
  8
D-STR　構造物外形線
100
AcDbLine
 10
206834.1645509498
 20
16785.24300669391
 30
0.0
 11
206884.1644509499
 21
16785.24300669391
 31
0.0
  0
LINE
  5
34AF6
330
A
100
AcDbEntity
  8
D-STR　構造物外形線
100
AcDbLine
 10
206834.1645509498
 20
16676.0629300406
 30
0.0
 11
206884.1644509499
 21
16676.0629300406
 31
0.0
  0
LINE
  5
34AF7
330
A
100
AcDbEntity
  8
D-STR　構造物外形線
100
AcDbLine
 10
206834.1645509498
 20
16665.85049598734
 30
0.0
 11
206884.1644509499
 21
16665.85049598734
 31
0.0
  0
LINE
  5
34AF8
330
A
100
AcDbEntity
  8
D-STR　構造物外形線
100
AcDbLine
 10
206834.1645509498
 20
16560.88920807541
 30
0.0
 11
206884.1644509499
 21
16560.88920807541
 31
0.0
  0
LINE
  5
34AF9
330
A
100
AcDbEntity
  8
D-STR　構造物外形線
100
AcDbLine
 10
206834.1645509498
 20
16566.92757647892
 30
0.0
 11
206884.1644509499
 21
16566.92757647892
 31
0.0
  0
LINE
  5
34AFA
330
A
100
AcDbEntity
  8
D-STR　構造物外形線
100
AcDbLine
 10
205234.1643509498
 20
16560.88920807541
 30
0.0
 11
206734.1645509499
 21
16560.88920807541
 31
0.0
  0
LINE
  5
34AFB
330
A
100
AcDbEntity
  8
D-STR　構造物外形線
100
AcDbLine
 10
205234.1643509498
 20
16566.92757647892
 30
0.0
 11
206734.1645509499
 21
16566.92757647892
 31
0.0
  0
LINE
  5
34AFC
330
A
100
AcDbEntity
  8
D-STR　構造物外形線
100
AcDbLine
 10
205234.1643509498
 20
16665.85049598734
 30
0.0
 11
206734.1645509499
 21
16665.85049598734
 31
0.0
  0
LINE
  5
34AFD
330
A
100
AcDbEntity
  8
D-STR　構造物外形線
100
AcDbLine
 10
205234.1643509498
 20
16676.0629300406
 30
0.0
 11
206734.1645509499
 21
16676.0629300406
 31
0.0
  0
LINE
  5
34AFE
330
A
100
AcDbEntity
  8
D-STR　構造物外形線
100
AcDbLine
 10
205234.1643509499
 20
16775.03057264067
 30
0.0
 11
206734.1645509499
 21
16775.03057264067
 31
0.0
  0
LINE
  5
34AFF
330
A
100
AcDbEntity
  8
D-STR　構造物外形線
100
AcDbLine
 10
205234.1643509499
 20
16785.24300669391
 30
0.0
 11
206734.1645509499
 21
16785.24300669391
 31
0.0
  0
LINE
  5
34B97
330
A
100
AcDbEntity
  8
D-STR　構造物外形線
100
AcDbLine
 10
208779.6555542684
 20
15740.0161394154
 30
0.0
 11
208780.6356670949
 21
15739.51674751012
 31
0.0
  0
LINE
  5
34B98
330
A
100
AcDbEntity
  8
D-STR　構造物外形線
100
AcDbLine
 10
208779.6555750504
 20
15740.01618020246
 30
0.0
 11
208779.2185755152
 21
15741.36117691167
 31
0.0
  0
LINE
  5
34B99
330
A
100
AcDbEntity
  8
D-STR　構造物外形線
100
AcDbLine
 10
208784.212432222
 20
15751.16218281571
 30
0.0
 11
208779.2185443422
 21
15741.36111573112
 31
0.0
  0
LINE
  5
34B9A
330
A
100
AcDbEntity
  8
D-STR　構造物外形線
100
AcDbLine
 10
208785.5574597158
 20
15751.59919235332
 30
0.0
 11
208786.5375317553
 21
15751.09982123004
 31
0.0
  0
LINE
  5
34B9B
330
A
100
AcDbEntity
  8
D-STR　構造物外形線
100
AcDbLine
 10
208784.2124722321
 20
15751.16205967759
 30
0.0
 11
208785.5574997258
 21
15751.59906921518
 31
0.0
  0
LINE
  5
34B9C
330
A
100
AcDbEntity
  8
D-STR　構造物外形線
100
AcDbLine
 10
208785.5574189287
 20
15751.59921313531
 30
0.0
 11
208779.6555542684
 21
15740.0161394154
 31
0.0
  0
LINE
  5
34B9D
330
A
100
AcDbEntity
  8
D-STR　構造物外形線
 48
0.1
100
AcDbLine
 10
208786.5375317553
 20
15751.09982123004
 30
0.0
 11
208780.6356670949
 21
15739.51674751012
 31
0.0
  0
LINE
  5
34B9E
330
A
100
AcDbEntity
  8
D-STR　構造物外形線
100
AcDbLine
 10
208762.857899209
 20
15707.04888529356
 30
0.0
 11
208763.8380116103
 21
15706.54949255352
 31
0.0
  0
LINE
  5
34B9F
330
A
100
AcDbEntity
  8
D-STR　構造物外形線
100
AcDbLine
 10
208762.857878427
 20
15707.04884450655
 30
0.0
 11
208761.512891348
 21
15706.61181533236
 31
0.0
  0
LINE
  5
34BA0
330
A
100
AcDbEntity
  8
D-STR　構造物外形線
100
AcDbLine
 10
208756.5190262942
 20
15696.81081368132
 30
0.0
 11
208761.5129225211
 21
15706.61187651287
 31
0.0
  0
LINE
  5
34BA1
330
A
100
AcDbEntity
  8
D-STR　構造物外形線
 48
0.1
100
AcDbLine
 10
208757.9361370851
 20
15694.96642385992
 30
0.0
 11
208763.8380116103
 21
15706.54949255352
 31
0.0
  0
LINE
  5
34BA2
330
A
100
AcDbEntity
  8
D-STR　構造物外形線
100
AcDbLine
 10
208756.9560362203
 20
15695.46583736558
 30
0.0
 11
208757.9361490469
 21
15694.96644546028
 31
0.0
  0
LINE
  5
34BA3
330
A
100
AcDbEntity
  8
D-STR　構造物外形線
100
AcDbLine
 10
208756.9560570024
 20
15695.46587815264
 30
0.0
 11
208756.5190574673
 21
15696.81087486186
 31
0.0
  0
LINE
  5
34BA4
330
A
100
AcDbEntity
  8
D-STR　構造物外形線
100
AcDbLine
 10
208762.8579008807
 20
15707.04891108553
 30
0.0
 11
208756.9560362203
 21
15695.46583736558
 31
0.0
  0
LINE
  5
34BA5
330
A
100
AcDbEntity
  8
D-STR　構造物外形線
100
AcDbLine
 10
208735.6067131927
 20
15640.76312763736
 30
0.0
 11
208736.658654398
 21
15640.44151742561
 31
0.0
  0
LINE
  5
34BA6
330
A
100
AcDbEntity
  8
D-STR　構造物外形線
100
AcDbLine
 10
208735.6067265764
 20
15640.76317141353
 30
0.0
 11
208734.9428098161
 21
15642.01185042627
 31
0.0
  0
LINE
  5
34BA7
330
A
100
AcDbEntity
  8
D-STR　構造物外形線
100
AcDbLine
 10
208738.1588717824
 20
15652.53113115108
 30
0.0
 11
208734.9427897406
 21
15642.01178476205
 31
0.0
  0
LINE
  5
34BA8
330
A
100
AcDbEntity
  8
D-STR　構造物外形線
100
AcDbLine
 10
208739.4075793751
 20
15653.19506310759
 30
0.0
 11
208740.4594768043
 21
15652.87346627953
 31
0.0
  0
LINE
  5
34BA9
330
A
100
AcDbEntity
  8
D-STR　構造物外形線
100
AcDbLine
 10
208738.1589325674
 20
15652.53101683139
 30
0.0
 11
208739.4076401601
 21
15653.19494878788
 31
0.0
  0
LINE
  5
34BAA
330
A
100
AcDbEntity
  8
D-STR　構造物外形線
100
AcDbLine
 10
208739.407535599
 20
15653.19507649127
 30
0.0
 11
208735.6067131927
 21
15640.76312763736
 31
0.0
  0
LINE
  5
34BAB
330
A
100
AcDbEntity
  8
D-STR　構造物外形線
 48
0.1
100
AcDbLine
 10
208740.4594768043
 20
15652.87346627953
 30
0.0
 11
208736.658654398
 21
15640.44151742561
 31
0.0
  0
LINE
  5
34BAC
330
A
100
AcDbEntity
  8
D-STR　構造物外形線
100
AcDbLine
 10
208724.7889559306
 20
15605.37983797054
 30
0.0
 11
208725.8408968621
 21
15605.05822686288
 31
0.0
  0
LINE
  5
34BAD
330
A
100
AcDbEntity
  8
D-STR　構造物外形線
100
AcDbLine
 10
208724.7889425469
 20
15605.37979419441
 30
0.0
 11
208723.5402781649
 21
15604.7158499176
 31
0.0
  0
LINE
  5
34BAE
330
A
100
AcDbEntity
  8
D-STR　構造物外形線
100
AcDbLine
 10
208720.3242072398
 20
15594.19657193174
 30
0.0
 11
208723.5402982405
 21
15604.71591558179
 31
0.0
  0
LINE
  5
34BAF
330
A
100
AcDbEntity
  8
D-STR　構造物外形線
 48
0.1
100
AcDbLine
 10
208722.040063868
 20
15592.62628124591
 30
0.0
 11
208725.8408968621
 21
15605.05822686288
 31
0.0
  0
LINE
  5
34BB0
330
A
100
AcDbEntity
  8
D-STR　構造物外形線
100
AcDbLine
 10
208720.9881306919
 20
15592.94791480702
 30
0.0
 11
208722.0400718972
 21
15592.62630459526
 31
0.0
  0
LINE
  5
34BB1
330
A
100
AcDbEntity
  8
D-STR　構造物外形線
100
AcDbLine
 10
208720.9881440756
 20
15592.94795858319
 30
0.0
 11
208720.3242273153
 21
15594.19663759595
 31
0.0
  0
LINE
  5
34BB2
330
A
100
AcDbEntity
  8
D-STR　構造物外形線
100
AcDbLine
 10
208724.7889530981
 20
15605.37986366097
 30
0.0
 11
208720.9881306919
 21
15592.94791480702
 31
0.0
  0
LINE
  5
34BB3
330
A
100
AcDbEntity
  8
D-STR　構造物外形線
100
AcDbLine
 10
208703.4458256732
 20
15535.5696044814
 30
0.0
 11
208704.4977668785
 21
15535.24799426965
 31
0.0
  0
LINE
  5
34BB4
330
A
100
AcDbEntity
  8
D-STR　構造物外形線
100
AcDbLine
 10
208703.4458390569
 20
15535.56964825757
 30
0.0
 11
208702.7819222966
 21
15536.81832727031
 31
0.0
  0
LINE
  5
34BB5
330
A
100
AcDbEntity
  8
D-STR　構造物外形線
100
AcDbLine
 10
208705.997984263
 20
15547.33760799513
 30
0.0
 11
208702.781902221
 21
15536.81826160609
 31
0.0
  0
LINE
  5
34BB6
330
A
100
AcDbEntity
  8
D-STR　構造物外形線
100
AcDbLine
 10
208707.2466918556
 20
15548.00153995164
 30
0.0
 11
208708.2985892848
 21
15547.67994312358
 31
0.0
  0
LINE
  5
34BB7
330
A
100
AcDbEntity
  8
D-STR　構造物外形線
100
AcDbLine
 10
208705.9980450479
 20
15547.33749367543
 30
0.0
 11
208707.2467526406
 21
15548.00142563193
 31
0.0
  0
LINE
  5
34BB8
330
A
100
AcDbEntity
  8
D-STR　構造物外形線
100
AcDbLine
 10
208707.2466480794
 20
15548.00155333531
 30
0.0
 11
208703.4458256732
 21
15535.5696044814
 31
0.0
  0
LINE
  5
34BB9
330
A
100
AcDbEntity
  8
D-STR　構造物外形線
 48
0.1
100
AcDbLine
 10
208708.2985892848
 20
15547.67994312358
 30
0.0
 11
208704.4977668785
 21
15535.24799426965
 31
0.0
  0
LINE
  5
34BBA
330
A
100
AcDbEntity
  8
D-STR　構造物外形線
100
AcDbLine
 10
208692.6280684112
 20
15500.18631481457
 30
0.0
 11
208693.6800093426
 21
15499.86470370691
 31
0.0
  0
LINE
  5
34BBB
330
A
100
AcDbEntity
  8
D-STR　構造物外形線
100
AcDbLine
 10
208692.6280550274
 20
15500.18627103844
 30
0.0
 11
208691.3793906454
 21
15499.52232676163
 31
0.0
  0
LINE
  5
34BBC
330
A
100
AcDbEntity
  8
D-STR　構造物外形線
100
AcDbLine
 10
208688.1633197203
 20
15489.00304877576
 30
0.0
 11
208691.3794107211
 21
15499.52239242582
 31
0.0
  0
LINE
  5
34BBD
330
A
100
AcDbEntity
  8
D-STR　構造物外形線
 48
0.1
100
AcDbLine
 10
208689.8791763486
 20
15487.43275808994
 30
0.0
 11
208693.6800093426
 21
15499.86470370691
 31
0.0
  0
LINE
  5
34BBE
330
A
100
AcDbEntity
  8
D-STR　構造物外形線
100
AcDbLine
 10
208688.8272431725
 20
15487.75439165105
 30
0.0
 11
208689.8791843778
 21
15487.43278143929
 31
0.0
  0
LINE
  5
34BBF
330
A
100
AcDbEntity
  8
D-STR　構造物外形線
100
AcDbLine
 10
208688.8272565562
 20
15487.75443542722
 30
0.0
 11
208688.1633397959
 21
15489.00311443997
 31
0.0
  0
LINE
  5
34BC0
330
A
100
AcDbEntity
  8
D-STR　構造物外形線
100
AcDbLine
 10
208692.6280655788
 20
15500.18634050499
 30
0.0
 11
208688.8272431725
 21
15487.75439165105
 31
0.0
  0
LINE
  5
34BC1
330
A
100
AcDbEntity
  8
D-STR　構造物外形線
100
AcDbLine
 10
208671.2849381537
 20
15430.37608132553
 30
0.0
 11
208672.336879359
 21
15430.05447111378
 31
0.0
  0
LINE
  5
34BC2
330
A
100
AcDbEntity
  8
D-STR　構造物外形線
100
AcDbLine
 10
208671.2849515373
 20
15430.37612510169
 30
0.0
 11
208670.621034777
 21
15431.62480411443
 31
0.0
  0
LINE
  5
34BC3
330
A
100
AcDbEntity
  8
D-STR　構造物外形線
100
AcDbLine
 10
208673.8370967434
 20
15442.14408483925
 30
0.0
 11
208670.6210147015
 21
15431.62473845022
 31
0.0
  0
LINE
  5
34BC4
330
A
100
AcDbEntity
  8
D-STR　構造物外形線
100
AcDbLine
 10
208675.0858043361
 20
15442.80801679576
 30
0.0
 11
208676.1377017653
 21
15442.4864199677
 31
0.0
  0
LINE
  5
34BC5
330
A
100
AcDbEntity
  8
D-STR　構造物外形線
100
AcDbLine
 10
208673.8371575283
 20
15442.14397051955
 30
0.0
 11
208675.085865121
 21
15442.80790247605
 31
0.0
  0
LINE
  5
34BC6
330
A
100
AcDbEntity
  8
D-STR　構造物外形線
100
AcDbLine
 10
208675.0857605599
 20
15442.80803017944
 30
0.0
 11
208671.2849381537
 21
15430.37608132553
 31
0.0
  0
LINE
  5
34BC7
330
A
100
AcDbEntity
  8
D-STR　構造物外形線
 48
0.1
100
AcDbLine
 10
208676.1377017653
 20
15442.4864199677
 30
0.0
 11
208672.336879359
 21
15430.05447111378
 31
0.0
  0
LINE
  5
34BC8
330
A
100
AcDbEntity
  8
D-STR　構造物外形線
100
AcDbLine
 10
208660.4671808915
 20
15394.9927916587
 30
0.0
 11
208661.519121823
 21
15394.67118055104
 31
0.0
  0
LINE
  5
34BC9
330
A
100
AcDbEntity
  8
D-STR　構造物外形線
100
AcDbLine
 10
208660.4671675079
 20
15394.99274788257
 30
0.0
 11
208659.2185031259
 21
15394.32880360576
 31
0.0
  0
LINE
  5
34BCA
330
A
100
AcDbEntity
  8
D-STR　構造物外形線
100
AcDbLine
 10
208656.0024322007
 20
15383.8095256199
 30
0.0
 11
208659.2185232015
 21
15394.32886926995
 31
0.0
  0
LINE
  5
34BCB
330
A
100
AcDbEntity
  8
D-STR　構造物外形線
 48
0.1
100
AcDbLine
 10
208657.718288829
 20
15382.23923493407
 30
0.0
 11
208661.519121823
 21
15394.67118055104
 31
0.0
  0
LINE
  5
34BCC
330
A
100
AcDbEntity
  8
D-STR　構造物外形線
100
AcDbLine
 10
208656.6663556529
 20
15382.56086849518
 30
0.0
 11
208657.7182968582
 21
15382.23925828342
 31
0.0
  0
LINE
  5
34BCD
330
A
100
AcDbEntity
  8
D-STR　構造物外形線
100
AcDbLine
 10
208656.6663690366
 20
15382.56091227135
 30
0.0
 11
208656.0024522763
 21
15383.8095912841
 31
0.0
  0
LINE
  5
34BCE
330
A
100
AcDbEntity
  8
D-STR　構造物外形線
100
AcDbLine
 10
208660.4671780592
 20
15394.99281734913
 30
0.0
 11
208656.6663556529
 21
15382.56086849518
 31
0.0
  0
LINE
  5
34BCF
330
A
100
AcDbEntity
  8
D-STR　構造物外形線
100
AcDbLine
 10
208630.2789227373
 20
15331.9271449306
 30
0.0
 11
208631.0521955266
 21
15331.14480061961
 31
0.0
  0
LINE
  5
34BD0
330
A
100
AcDbEntity
  8
D-STR　構造物外形線
100
AcDbLine
 10
208630.2789552942
 20
15331.92717711008
 30
0.0
 11
208630.287218239
 21
15333.34136113814
 31
0.0
  0
LINE
  5
34BD1
330
A
100
AcDbEntity
  8
D-STR　構造物外形線
100
AcDbLine
 10
208638.110563678
 20
15341.07399249362
 30
0.0
 11
208630.2871694035
 21
15333.34131286895
 31
0.0
  0
LINE
  5
34BD2
330
A
100
AcDbEntity
  8
D-STR　構造物外形線
100
AcDbLine
 10
208639.5247800743
 20
15341.06572936013
 30
0.0
 11
208640.2980206842
 21
15340.2834176061
 31
0.0
  0
LINE
  5
34BD3
330
A
100
AcDbEntity
  8
D-STR　構造物外形線
100
AcDbLine
 10
208638.110562923
 20
15341.07386302072
 30
0.0
 11
208639.5247793193
 21
15341.06559988722
 31
0.0
  0
LINE
  5
34BD4
330
A
100
AcDbEntity
  8
D-STR　構造物外形線
100
AcDbLine
 10
208639.5247478948
 20
15341.06576191709
 30
0.0
 11
208630.2789227373
 21
15331.9271449306
 31
0.0
  0
LINE
  5
34BD5
330
A
100
AcDbEntity
  8
D-STR　構造物外形線
 48
0.1
100
AcDbLine
 10
208640.2980206842
 20
15340.2834176061
 30
0.0
 11
208631.0521955266
 21
15331.14480061961
 31
0.0
  0
LINE
  5
34BD6
330
A
100
AcDbEntity
  8
D-STR　構造物外形線
100
AcDbLine
 10
208603.9638297549
 20
15305.91720565435
 30
0.0
 11
208604.737101878
 21
15305.13486068473
 31
0.0
  0
LINE
  5
34BD7
330
A
100
AcDbEntity
  8
D-STR　構造物外形線
100
AcDbLine
 10
208603.9637971979
 20
15305.91717347491
 30
0.0
 11
208602.549612988
 21
15305.92540525579
 31
0.0
  0
LINE
  5
34BD8
330
A
100
AcDbEntity
  8
D-STR　構造物外形線
100
AcDbLine
 10
208594.7262609634
 20
15298.19278056305
 30
0.0
 11
208602.5496618235
 21
15305.92545352492
 31
0.0
  0
LINE
  5
34BD9
330
A
100
AcDbEntity
  8
D-STR　構造物外形線
 48
0.1
100
AcDbLine
 10
208595.4912689374
 20
15295.99625157246
 30
0.0
 11
208604.737101878
 21
15305.13486068473
 31
0.0
  0
LINE
  5
34BDA
330
A
100
AcDbEntity
  8
D-STR　構造物外形線
100
AcDbLine
 10
208594.7180142972
 20
15296.77861262468
 30
0.0
 11
208595.4912870866
 21
15295.99626831366
 31
0.0
  0
LINE
  5
34BDB
330
A
100
AcDbEntity
  8
D-STR　構造物外形線
100
AcDbLine
 10
208594.7180468542
 20
15296.77864480416
 30
0.0
 11
208594.7263097989
 21
15298.19282883222
 31
0.0
  0
LINE
  5
34BDC
330
A
100
AcDbEntity
  8
D-STR　構造物外形線
100
AcDbLine
 10
208603.9638394548
 20
15305.91722961121
 30
0.0
 11
208594.7180142972
 21
15296.77861262468
 31
0.0
  0
LINE
  5
34BDD
330
A
100
AcDbEntity
  8
D-STR　構造物外形線
100
AcDbLine
 10
208540.0397557533
 20
15288.19169780908
 30
0.0
 11
208539.9056991944
 21
15287.09989092747
 31
0.0
  0
LINE
  5
34BDE
330
A
100
AcDbEntity
  8
D-STR　構造物外形線
100
AcDbLine
 10
208540.0398011884
 20
15288.19169223037
 30
0.0
 11
208541.1542220274
 21
15289.06235343607
 31
0.0
  0
LINE
  5
34BDF
330
A
100
AcDbEntity
  8
D-STR　構造物外形線
100
AcDbLine
 10
208552.0721545384
 20
15287.72180458347
 30
0.0
 11
208541.1541538747
 21
15289.06236180414
 31
0.0
  0
LINE
  5
34BE0
330
A
100
AcDbEntity
  8
D-STR　構造物外形線
100
AcDbLine
 10
208552.9428356722
 20
15286.60735823754
 30
0.0
 11
208552.808784692
 21
15285.51559679104
 31
0.0
  0
LINE
  5
34BE1
330
A
100
AcDbEntity
  8
D-STR　構造物外形線
100
AcDbLine
 10
208552.0720525106
 20
15287.7217248706
 30
0.0
 11
208552.9427336445
 21
15286.60727852464
 31
0.0
  0
LINE
  5
34BE2
330
A
100
AcDbEntity
  8
D-STR　構造物外形線
100
AcDbLine
 10
208552.942841251
 20
15286.60740367268
 30
0.0
 11
208540.0397557533
 21
15288.19169780908
 31
0.0
  0
LINE
  5
34BE3
330
A
100
AcDbEntity
  8
D-STR　構造物外形線
 48
0.1
100
AcDbLine
 10
208552.808784692
 20
15285.51559679104
 30
0.0
 11
208539.9056991944
 21
15287.09989092747
 31
0.0
  0
LINE
  5
34BE4
330
A
100
AcDbEntity
  8
D-STR　構造物外形線
100
AcDbLine
 10
208503.3155339365
 20
15292.70086533507
 30
0.0
 11
208503.1814764477
 21
15291.60905856755
 31
0.0
  0
LINE
  5
34BE5
330
A
100
AcDbEntity
  8
D-STR　構造物外形線
100
AcDbLine
 10
208503.3154885014
 20
15292.7008709138
 30
0.0
 11
208502.4448027378
 21
15293.81527256614
 31
0.0
  0
LINE
  5
34BE6
330
A
100
AcDbEntity
  8
D-STR　構造物外形線
100
AcDbLine
 10
208491.5268713686
 20
15295.15583071696
 30
0.0
 11
208502.4448708905
 21
15293.81526419798
 31
0.0
  0
LINE
  5
34BE7
330
A
100
AcDbEntity
  8
D-STR　構造物外形線
 48
0.1
100
AcDbLine
 10
208490.2783922993
 20
15293.19336369293
 30
0.0
 11
208503.1814764477
 21
15291.60905856755
 31
0.0
  0
LINE
  5
34BE8
330
A
100
AcDbEntity
  8
D-STR　構造物外形線
100
AcDbLine
 10
208490.4124732471
 20
15294.2851667219
 30
0.0
 11
208490.2784166882
 21
15293.19335984026
 31
0.0
  0
LINE
  5
34BE9
330
A
100
AcDbEntity
  8
D-STR　構造物外形線
100
AcDbLine
 10
208490.4125186822
 20
15294.28516114319
 30
0.0
 11
208491.5269395212
 21
15295.15582234886
 31
0.0
  0
LINE
  5
34BEA
330
A
100
AcDbEntity
  8
D-STR　構造物外形線
100
AcDbLine
 10
208503.3155587447
 20
15292.70087258553
 30
0.0
 11
208490.4124732471
 21
15294.2851667219
 31
0.0
  0
LINE
  5
34BEB
330
A
100
AcDbEntity
  8
D-STR　構造物外形線
100
AcDbLine
 10
208430.8596792021
 20
15301.59732743064
 30
0.0
 11
208430.7256227392
 21
15300.50552053725
 31
0.0
  0
LINE
  5
34BEC
330
A
100
AcDbEntity
  8
D-STR　構造物外形線
100
AcDbLine
 10
208430.8597246373
 20
15301.59732185193
 30
0.0
 11
208431.9741453997
 21
15302.46798315556
 31
0.0
  0
LINE
  5
34BED
330
A
100
AcDbEntity
  8
D-STR　構造物外形線
100
AcDbLine
 10
208442.8920780284
 20
15301.1274352623
 30
0.0
 11
208431.974077247
 21
15302.46799152362
 31
0.0
  0
LINE
  5
34BEE
330
A
100
AcDbEntity
  8
D-STR　構造物外形線
100
AcDbLine
 10
208443.7627592603
 20
15300.01298899287
 30
0.0
 11
208443.628708376
 21
15298.92122753459
 31
0.0
  0
LINE
  5
34BEF
330
A
100
AcDbEntity
  8
D-STR　構造物外形線
100
AcDbLine
 10
208442.8919760007
 20
15301.12735554941
 30
0.0
 11
208443.7626572325
 21
15300.01290927996
 31
0.0
  0
LINE
  5
34BF0
330
A
100
AcDbEntity
  8
D-STR　構造物外形線
100
AcDbLine
 10
208443.762764839
 20
15300.01303442801
 30
0.0
 11
208430.8596792021
 21
15301.59732743064
 31
0.0
  0
LINE
  5
34BF1
330
A
100
AcDbEntity
  8
D-STR　構造物外形線
 48
0.1
100
AcDbLine
 10
208443.628708376
 20
15298.92122753459
 30
0.0
 11
208430.7256227392
 21
15300.50552053725
 31
0.0
  0
LINE
  5
34BF2
330
A
100
AcDbEntity
  8
D-STR　構造物外形線
100
AcDbLine
 10
208394.1354569891
 20
15306.10649172975
 30
0.0
 11
208394.0013995963
 21
15305.01468495044
 31
0.0
  0
LINE
  5
34BF3
330
A
100
AcDbEntity
  8
D-STR　構造物外形線
100
AcDbLine
 10
208394.1354115539
 20
15306.10649730847
 30
0.0
 11
208393.2647256925
 21
15307.2208988843
 31
0.0
  0
LINE
  5
34BF4
330
A
100
AcDbEntity
  8
D-STR　構造物外形線
100
AcDbLine
 10
208382.3467942055
 20
15308.56145607579
 30
0.0
 11
208393.2647938452
 21
15307.22089051615
 31
0.0
  0
LINE
  5
34BF5
330
A
100
AcDbEntity
  8
D-STR　構造物外形線
 48
0.1
100
AcDbLine
 10
208381.0983153087
 20
15306.59898894206
 30
0.0
 11
208394.0013995963
 21
15305.01468495044
 31
0.0
  0
LINE
  5
34BF6
330
A
100
AcDbEntity
  8
D-STR　構造物外形線
100
AcDbLine
 10
208381.2323961605
 20
15307.69079198281
 30
0.0
 11
208381.0983396976
 21
15306.59898508939
 31
0.0
  0
LINE
  5
34BF7
330
A
100
AcDbEntity
  8
D-STR　構造物外形線
100
AcDbLine
 10
208381.2324415957
 20
15307.6907864041
 30
0.0
 11
208382.3468623581
 21
15308.56144770769
 31
0.0
  0
LINE
  5
34BF8
330
A
100
AcDbEntity
  8
D-STR　構造物外形線
100
AcDbLine
 10
208394.1354817974
 20
15306.1064989802
 30
0.0
 11
208381.2323961605
 21
15307.69079198281
 31
0.0
  0
LINE
  5
34BF9
330
A
100
AcDbEntity
  8
D-STR　構造物外形線
100
AcDbLine
 10
208321.6796024466
 20
15315.00295380176
 30
0.0
 11
208321.5455458878
 21
15313.91114692015
 31
0.0
  0
LINE
  5
34BFA
330
A
100
AcDbEntity
  8
D-STR　構造物外形線
100
AcDbLine
 10
208321.6796478818
 20
15315.00294822305
 30
0.0
 11
208322.7940687208
 21
15315.87360942875
 31
0.0
  0
LINE
  5
34BFB
330
A
100
AcDbEntity
  8
D-STR　構造物外形線
100
AcDbLine
 10
208333.7120012317
 20
15314.53306057616
 30
0.0
 11
208322.7940005681
 21
15315.87361779682
 31
0.0
  0
LINE
  5
34BFC
330
A
100
AcDbEntity
  8
D-STR　構造物外形線
100
AcDbLine
 10
208334.5826823656
 20
15313.41861423022
 30
0.0
 11
208334.4486313855
 21
15312.32685278372
 31
0.0
  0
LINE
  5
34BFD
330
A
100
AcDbEntity
  8
D-STR　構造物外形線
100
AcDbLine
 10
208333.711899204
 20
15314.53298086328
 30
0.0
 11
208334.5825803379
 21
15313.41853451732
 31
0.0
  0
LINE
  5
34BFE
330
A
100
AcDbEntity
  8
D-STR　構造物外形線
100
AcDbLine
 10
208334.5826879443
 20
15313.41865966536
 30
0.0
 11
208321.6796024466
 21
15315.00295380176
 31
0.0
  0
LINE
  5
34BFF
330
A
100
AcDbEntity
  8
D-STR　構造物外形線
 48
0.1
100
AcDbLine
 10
208334.4486313855
 20
15312.32685278372
 30
0.0
 11
208321.5455458878
 21
15313.91114692015
 31
0.0
  0
LINE
  5
34C00
330
A
100
AcDbEntity
  8
D-STR　構造物外形線
100
AcDbLine
 10
208284.9553806298
 20
15319.51212132775
 30
0.0
 11
208284.8213231411
 21
15318.42031456023
 31
0.0
  0
LINE
  5
34C01
330
A
100
AcDbEntity
  8
D-STR　構造物外形線
100
AcDbLine
 10
208284.9553351947
 20
15319.51212690649
 30
0.0
 11
208284.0846494312
 21
15320.62652855882
 31
0.0
  0
LINE
  5
34C02
330
A
100
AcDbEntity
  8
D-STR　構造物外形線
100
AcDbLine
 10
208273.1667180619
 20
15321.96708670964
 30
0.0
 11
208284.0847175839
 21
15320.62652019066
 31
0.0
  0
LINE
  5
34C03
330
A
100
AcDbEntity
  8
D-STR　構造物外形線
 48
0.1
100
AcDbLine
 10
208271.9182389927
 20
15320.00461968561
 30
0.0
 11
208284.8213231411
 21
15318.42031456023
 31
0.0
  0
LINE
  5
34C04
330
A
100
AcDbEntity
  8
D-STR　構造物外形線
100
AcDbLine
 10
208272.0523199405
 20
15321.09642271458
 30
0.0
 11
208271.9182633816
 21
15320.00461583294
 31
0.0
  0
LINE
  5
34C05
330
A
100
AcDbEntity
  8
D-STR　構造物外形線
100
AcDbLine
 10
208272.0523653756
 20
15321.09641713588
 30
0.0
 11
208273.1667862146
 21
15321.96707834154
 31
0.0
  0
LINE
  5
34C06
330
A
100
AcDbEntity
  8
D-STR　構造物外形線
100
AcDbLine
 10
208284.9554054381
 20
15319.51212857821
 30
0.0
 11
208272.0523199405
 21
15321.09642271458
 31
0.0
  0
LINE
  5
34C07
330
A
100
AcDbEntity
  8
D-STR　構造物外形線
100
AcDbLine
 10
208213.3162719006
 20
15321.57777082549
 30
0.0
 11
208213.3738422397
 21
15320.47927226666
 31
0.0
  0
LINE
  5
34C08
330
A
100
AcDbEntity
  8
D-STR　構造物外形線
100
AcDbLine
 10
208213.3163176143
 20
15321.57777322127
 30
0.0
 11
208214.2626191628
 21
15322.62872427666
 31
0.0
  0
LINE
  5
34C09
330
A
100
AcDbEntity
  8
D-STR　構造物外形線
100
AcDbLine
 10
208225.2474676105
 20
15323.20442048005
 30
0.0
 11
208214.2625505923
 21
15322.62872068301
 31
0.0
  0
LINE
  5
34C0A
330
A
100
AcDbEntity
  8
D-STR　構造物外形線
100
AcDbLine
 10
208226.2984427206
 20
15322.25809727263
 30
0.0
 11
208226.3560106639
 21
15321.15964442737
 31
0.0
  0
LINE
  5
34C0B
330
A
100
AcDbEntity
  8
D-STR　構造物外形線
100
AcDbLine
 10
208225.2473809748
 20
15323.20432426127
 30
0.0
 11
208226.2983560848
 21
15322.25800105381
 31
0.0
  0
LINE
  5
34C0C
330
A
100
AcDbEntity
  8
D-STR　構造物外形線
100
AcDbLine
 10
208226.2984403248
 20
15322.25814298623
 30
0.0
 11
208213.3162719006
 21
15321.57777082549
 31
0.0
  0
LINE
  5
34C0D
330
A
100
AcDbEntity
  8
D-STR　構造物外形線
 48
0.1
100
AcDbLine
 10
208226.3560106639
 20
15321.15964442737
 30
0.0
 11
208213.3738422397
 21
15320.47927226666
 31
0.0
  0
LINE
  5
34C0E
330
A
100
AcDbEntity
  8
D-STR　構造物外形線
100
AcDbLine
 10
208176.3669648124
 20
15319.64133969495
 30
0.0
 11
208176.4245342159
 21
15318.54284108699
 31
0.0
  0
LINE
  5
34C0F
330
A
100
AcDbEntity
  8
D-STR　構造物外形線
100
AcDbLine
 10
208176.3669190987
 20
15319.6413372992
 30
0.0
 11
208175.3159471903
 21
15320.58761568809
 31
0.0
  0
LINE
  5
34C10
330
A
100
AcDbEntity
  8
D-STR　構造物外形線
100
AcDbLine
 10
208164.3310982522
 20
15320.01192883991
 30
0.0
 11
208175.3160157608
 21
15320.58761928165
 31
0.0
  0
LINE
  5
34C11
330
A
100
AcDbEntity
  8
D-STR　構造物外形線
 48
0.1
100
AcDbLine
 10
208163.4423652122
 20
15317.86247998258
 30
0.0
 11
208176.4245342159
 21
15318.54284108699
 31
0.0
  0
LINE
  5
34C12
330
A
100
AcDbEntity
  8
D-STR　構造物外形線
100
AcDbLine
 10
208163.3848195606
 20
15318.9609789824
 30
0.0
 11
208163.4423898996
 21
15317.86248042353
 31
0.0
  0
LINE
  5
34C13
330
A
100
AcDbEntity
  8
D-STR　構造物外形線
100
AcDbLine
 10
208163.3848652742
 20
15318.96098137817
 30
0.0
 11
208164.3311668227
 21
15320.01193243353
 31
0.0
  0
LINE
  5
34C14
330
A
100
AcDbEntity
  8
D-STR　構造物外形線
100
AcDbLine
 10
208176.3669879848
 20
15319.64135114316
 30
0.0
 11
208163.3848195606
 21
15318.9609789824
 31
0.0
  0
ELLIPSE
  5
34C2C
330
A
100
AcDbEntity
  8
D-STR　構造物外形線
100
AcDbEllipse
 10
206784.1643509499
 20
15745.55798032271
 30
0.0
 11
8.0
 21
0.0
 31
0.0
210
0.0
220
0.0
230
1.0
 40
0.7551541015745898
 41
0.0
 42
6.283185307179586
  0
ELLIPSE
  5
34C2D
330
A
100
AcDbEntity
  8
D-STR　構造物外形線
100
AcDbEllipse
 10
206784.1643509499
 20
15701.00767103181
 30
0.0
 11
8.0
 21
0.0
 31
0.0
210
0.0
220
0.0
230
1.0
 40
0.7551533051741899
 41
0.0
 42
6.283185307179586
  0
ELLIPSE
  5
34C2E
330
A
100
AcDbEntity
  8
D-STR　構造物外形線
100
AcDbEllipse
 10
206784.1643509499
 20
15646.8182634989
 30
0.0
 11
8.0
 21
0.0
 31
0.0
210
0.0
220
0.0
230
1.0
 40
0.7970932591611018
 41
0.0
 42
6.283185307179586
  0
ELLIPSE
  5
34C2F
330
A
100
AcDbEntity
  8
D-STR　構造物外形線
100
AcDbEllipse
 10
206784.1643509499
 20
15599.00304572201
 30
0.0
 11
8.0
 21
0.0
 31
0.0
210
0.0
220
0.0
230
1.0
 40
0.797092710869265
 41
0.0
 42
6.283185307179586
  0
ELLIPSE
  5
34C30
330
A
100
AcDbEntity
  8
D-STR　構造物外形線
100
AcDbEllipse
 10
206784.1643509499
 20
15541.6246643636
 30
0.0
 11
8.0
 21
0.0
 31
0.0
210
0.0
220
0.0
230
1.0
 40
0.797083761742897
 41
0.0
 42
6.283185307179586
  0
ELLIPSE
  5
34C31
330
A
100
AcDbEntity
  8
D-STR　構造物外形線
100
AcDbEllipse
 10
206784.1643509499
 20
15493.80956109665
 30
0.0
 11
8.0
 21
0.0
 31
0.0
210
0.0
220
0.0
230
1.0
 40
0.7970974260435923
 41
0.0
 42
6.283185307179586
  0
ELLIPSE
  5
34C38
330
A
100
AcDbEntity
  8
D-STR　構造物外形線
100
AcDbEllipse
 10
205984.1644509499
 20
15745.55798032271
 30
0.0
 11
8.0
 21
0.0
 31
0.0
210
0.0
220
0.0
230
1.0
 40
0.7551541015745898
 41
0.0
 42
6.283185307179586
  0
ELLIPSE
  5
34C39
330
A
100
AcDbEntity
  8
D-STR　構造物外形線
100
AcDbEllipse
 10
205984.1644509499
 20
15701.00767103181
 30
0.0
 11
8.0
 21
0.0
 31
0.0
210
0.0
220
0.0
230
1.0
 40
0.7551533051741899
 41
0.0
 42
6.283185307179586
  0
ELLIPSE
  5
34C3A
330
A
100
AcDbEntity
  8
D-STR　構造物外形線
100
AcDbEllipse
 10
205984.1644509499
 20
15646.8182634989
 30
0.0
 11
8.0
 21
0.0
 31
0.0
210
0.0
220
0.0
230
1.0
 40
0.7970932591611018
 41
0.0
 42
6.283185307179586
  0
ELLIPSE
  5
34C3B
330
A
100
AcDbEntity
  8
D-STR　構造物外形線
100
AcDbEllipse
 10
205984.1644509499
 20
15599.00304572201
 30
0.0
 11
8.0
 21
0.0
 31
0.0
210
0.0
220
0.0
230
1.0
 40
0.797092710869265
 41
0.0
 42
6.283185307179586
  0
ELLIPSE
  5
34C3C
330
A
100
AcDbEntity
  8
D-STR　構造物外形線
100
AcDbEllipse
 10
205984.1644509499
 20
15541.6246643636
 30
0.0
 11
8.0
 21
0.0
 31
0.0
210
0.0
220
0.0
230
1.0
 40
0.797083761742897
 41
0.0
 42
6.283185307179586
  0
ELLIPSE
  5
34C3D
330
A
100
AcDbEntity
  8
D-STR　構造物外形線
100
AcDbEllipse
 10
205984.1644509499
 20
15493.80956109665
 30
0.0
 11
8.0
 21
0.0
 31
0.0
210
0.0
220
0.0
230
1.0
 40
0.7970974260435923
 41
0.0
 42
6.283185307179586
  0
ELLIPSE
  5
34C3E
330
A
100
AcDbEntity
  8
D-STR　構造物外形線
100
AcDbEllipse
 10
205984.1644509499
 20
15436.43114120772
 30
0.0
 11
8.0
 21
0.0
 31
0.0
210
0.0
220
0.0
230
1.0
 40
0.7970837617426696
 41
0.0
 42
6.283185307179586
  0
ELLIPSE
  5
34C3F
330
A
100
AcDbEntity
  8
D-STR　構造物外形線
100
AcDbEllipse
 10
205984.1644509499
 20
15388.61603794078
 30
0.0
 11
8.0
 21
0.0
 31
0.0
210
0.0
220
0.0
230
1.0
 40
0.7970974260435923
 41
0.0
 42
6.283185307179586
  0
ELLIPSE
  5
34C40
330
A
100
AcDbEntity
  8
D-STR　構造物外形線
100
AcDbEllipse
 10
205984.1644509499
 20
15336.10519987516
 30
0.0
 11
7.999999999999999
 21
0.0
 31
0.0
210
0.0
220
0.0
230
1.0
 40
0.6200499069441321
 41
0.0
 42
6.283185307179586
  0
ELLIPSE
  5
34C41
330
A
100
AcDbEntity
  8
D-STR　構造物外形線
100
AcDbEllipse
 10
205984.1644509499
 20
15300.95674059183
 30
0.0
 11
7.999999999999999
 21
0.0
 31
0.0
210
0.0
220
0.0
230
1.0
 40
0.6200611274218773
 41
0.0
 42
6.283185307179586
  0
ELLIPSE
  5
34C42
330
A
100
AcDbEntity
  8
D-STR　構造物外形線
100
AcDbEllipse
 10
205184.1645509499
 20
15745.55798032271
 30
0.0
 11
-8.0
 21
0.0
 31
0.0
210
0.0
220
0.0
230
-1.0
 40
0.7551541015745898
 41
0.0
 42
6.283185307179586
  0
ELLIPSE
  5
34C43
330
A
100
AcDbEntity
  8
D-STR　構造物外形線
100
AcDbEllipse
 10
205184.1645509499
 20
15701.00767103181
 30
0.0
 11
-8.0
 21
0.0
 31
0.0
210
0.0
220
0.0
230
-1.0
 40
0.7551533051741899
 41
0.0
 42
6.283185307179586
  0
ELLIPSE
  5
34C44
330
A
100
AcDbEntity
  8
D-STR　構造物外形線
100
AcDbEllipse
 10
205184.1645509499
 20
15646.8182634989
 30
0.0
 11
-8.0
 21
0.0
 31
0.0
210
0.0
220
0.0
230
-1.0
 40
0.7970932591611018
 41
0.0
 42
6.283185307179586
  0
ELLIPSE
  5
34C45
330
A
100
AcDbEntity
  8
D-STR　構造物外形線
100
AcDbEllipse
 10
205184.1645509499
 20
15599.00304572201
 30
0.0
 11
-8.0
 21
0.0
 31
0.0
210
0.0
220
0.0
230
-1.0
 40
0.797092710869265
 41
0.0
 42
6.283185307179586
  0
ELLIPSE
  5
34C46
330
A
100
AcDbEntity
  8
D-STR　構造物外形線
100
AcDbEllipse
 10
205184.1645509499
 20
15541.6246643636
 30
0.0
 11
-8.0
 21
0.0
 31
0.0
210
0.0
220
0.0
230
-1.0
 40
0.797083761742897
 41
0.0
 42
6.283185307179586
  0
ELLIPSE
  5
34C47
330
A
100
AcDbEntity
  8
D-STR　構造物外形線
100
AcDbEllipse
 10
205184.1645509499
 20
15493.80956109665
 30
0.0
 11
-8.0
 21
0.0
 31
0.0
210
0.0
220
0.0
230
-1.0
 40
0.7970974260435923
 41
0.0
 42
6.283185307179586
  0
LINE
  5
34C4C
330
A
100
AcDbEntity
  8
D-STR　構造物外形線
100
AcDbLine
 10
206746.6645509499
 20
15402.20074363046
 30
0.0
 11
206821.6643509499
 21
15402.20074363046
 31
0.0
  0
LINE
  5
34C4D
330
A
100
AcDbEntity
  8
D-STR　構造物外形線
100
AcDbLine
 10
206746.6645509499
 20
15337.53276883927
 30
0.0
 11
206821.6643509499
 21
15337.53276883927
 31
0.0
  0
ELLIPSE
  5
34D75
330
A
100
AcDbEntity
  8
D-STR　構造物外形線
100
AcDbEllipse
 10
206784.1643509499
 20
16486.15701303055
 30
0.0
 11
8.0
 21
0.0
 31
0.0
210
0.0
220
0.0
230
1.0
 40
0.8149820071710109
 41
0.0
 42
6.283185307179586
  0
ELLIPSE
  5
34D7C
330
A
100
AcDbEntity
  8
D-STR　構造物外形線
100
AcDbEllipse
 10
206784.1643509499
 20
16862.67659129267
 30
0.0
 11
8.0
 21
0.0
 31
0.0
210
0.0
220
0.0
230
1.0
 40
0.8148196351694423
 41
6.229709952469784
 42
9.478253315479181
  0
ELLIPSE
  5
34D7D
330
A
100
AcDbEntity
  8
D-STR　構造物外形線
100
AcDbEllipse
 10
206784.1643509499
 20
16915.98401643762
 30
0.0
 11
7.999999999999999
 21
0.0
 31
0.0
210
0.0
220
0.0
230
1.0
 40
0.6256775571582694
 41
0.0
 42
6.283185307179586
  0
ELLIPSE
  5
34D7E
330
A
100
AcDbEntity
  8
D-STR　構造物外形線
100
AcDbEllipse
 10
206784.1643509499
 20
16951.54493006077
 30
0.0
 11
8.0
 21
0.0
 31
0.0
210
0.0
220
0.0
230
1.0
 40
0.6256782050477341
 41
0.0
 42
6.283185307179586
  0
ELLIPSE
  5
34D7F
330
A
100
AcDbEntity
  8
D-STR　構造物外形線
100
AcDbEllipse
 10
206784.1643509499
 20
16975.01311070531
 30
0.0
 11
8.0
 21
0.0
 31
0.0
210
0.0
220
0.0
230
1.0
 40
0.3447929359554109
 41
0.0
 42
6.283185307179586
  0
ELLIPSE
  5
34D80
330
A
100
AcDbEntity
  8
D-STR　構造物外形線
100
AcDbEllipse
 10
206784.1643509499
 20
16989.63169325029
 30
0.0
 11
8.0
 21
0.0
 31
0.0
210
0.0
220
0.0
230
1.0
 40
0.3447929414869577
 41
0.0
 42
6.283185307179586
  0
ELLIPSE
  5
34D81
330
A
100
AcDbEntity
  8
D-STR　構造物外形線
100
AcDbEllipse
 10
206784.1643509499
 20
17007.17400958619
 30
0.0
 11
8.0
 21
0.0
 31
0.0
210
0.0
220
0.0
230
1.0
 40
0.3447918466699775
 41
0.0
 42
6.283185307179586
  0
ELLIPSE
  5
34D82
330
A
100
AcDbEntity
  8
D-STR　構造物外形線
100
AcDbEllipse
 10
206784.1643509499
 20
17021.79259213103
 30
0.0
 11
8.0
 21
0.0
 31
0.0
210
0.0
220
0.0
230
1.0
 40
0.3447918521919746
 41
0.0
 42
6.283185307179586
  0
ELLIPSE
  5
34D83
330
A
100
AcDbEntity
  8
D-STR　構造物外形線
100
AcDbEllipse
 10
206784.1643509499
 20
17039.33488574432
 30
0.0
 11
8.0
 21
0.0
 31
0.0
210
0.0
220
0.0
230
1.0
 40
0.3447929359535919
 41
0.0
 42
6.283185307179586
  0
ELLIPSE
  5
34D84
330
A
100
AcDbEntity
  8
D-STR　構造物外形線
100
AcDbEllipse
 10
206784.1643509499
 20
17053.95347832709
 30
0.0
 11
8.0
 21
0.0
 31
0.0
210
0.0
220
0.0
230
1.0
 40
0.3447916867639833
 41
0.0
 42
6.283185307179586
  0
ELLIPSE
  5
34D85
330
A
100
AcDbEntity
  8
D-STR　構造物外形線
100
AcDbEllipse
 10
206784.1643509499
 20
17076.43085396917
 30
0.0
 11
7.999999999999999
 21
0.0
 31
0.0
210
0.0
220
0.0
230
1.0
 40
0.4574365822500114
 41
0.0
 42
6.283185307179586
  0
ELLIPSE
  5
34D86
330
A
100
AcDbEntity
  8
D-STR　構造物外形線
100
AcDbEllipse
 10
206784.1643509499
 20
17099.13037306568
 30
0.0
 11
8.0
 21
0.0
 31
0.0
210
0.0
220
0.0
230
1.0
 40
0.4574367133136547
 41
0.0
 42
6.283185307179586
  0
ELLIPSE
  5
34D88
330
A
100
AcDbEntity
  8
D-STR　構造物外形線
100
AcDbEllipse
 10
205984.1643509499
 20
16486.15701303055
 30
0.0
 11
8.0
 21
0.0
 31
0.0
210
0.0
220
0.0
230
1.0
 40
0.8149820071710109
 41
0.0
 42
6.283185307179586
  0
ELLIPSE
  5
34D89
330
A
100
AcDbEntity
  8
D-STR　構造物外形線
100
AcDbEllipse
 10
205984.1643509499
 20
16536.08847629919
 30
0.0
 11
8.0
 21
0.0
 31
0.0
210
0.0
220
0.0
230
1.0
 40
0.8149836727025103
 41
0.0
 42
6.283185307179586
  0
ELLIPSE
  5
34D8A
330
A
100
AcDbEntity
  8
D-STR　構造物外形線
100
AcDbEllipse
 10
205984.1643509499
 20
16594.68911766146
 30
0.0
 11
8.0
 21
0.0
 31
0.0
210
0.0
220
0.0
230
1.0
 40
0.8148179564834663
 41
0.0
 42
6.283185307179586
  0
ELLIPSE
  5
34D8B
330
A
100
AcDbEntity
  8
D-STR　構造物外形線
100
AcDbEllipse
 10
205984.1643509499
 20
16644.31633834664
 30
0.0
 11
8.0
 21
0.0
 31
0.0
210
0.0
220
0.0
230
1.0
 40
0.8148071802436334
 41
0.0
 42
6.283185307179586
  0
ELLIPSE
  5
34D8C
330
A
100
AcDbEntity
  8
D-STR　構造物外形線
100
AcDbEllipse
 10
205984.1643509499
 20
16703.86906021634
 30
0.0
 11
8.0
 21
0.0
 31
0.0
210
0.0
220
0.0
230
1.0
 40
0.8148445747447112
 41
0.0
 42
6.283185307179586
  0
ELLIPSE
  5
34D8D
330
A
100
AcDbEntity
  8
D-STR　構造物外形線
100
AcDbEllipse
 10
205984.1643509499
 20
16753.49651485908
 30
0.0
 11
8.0
 21
0.0
 31
0.0
210
0.0
220
0.0
230
1.0
 40
0.8148196378749616
 41
0.0
 42
6.283185307179586
  0
ELLIPSE
  5
34D8E
330
A
100
AcDbEntity
  8
D-STR　構造物外形線
100
AcDbEllipse
 10
205984.1643509499
 20
16813.04927096808
 30
0.0
 11
8.0
 21
0.0
 31
0.0
210
0.0
220
0.0
230
1.0
 40
0.8148179564832389
 41
0.0
 42
6.283185307179586
  0
ELLIPSE
  5
34D8F
330
A
100
AcDbEntity
  8
D-STR　構造物外形線
100
AcDbEllipse
 10
205984.1643509499
 20
16862.67659129267
 30
0.0
 11
8.0
 21
0.0
 31
0.0
210
0.0
220
0.0
230
1.0
 40
0.8148196351694423
 41
0.0
 42
6.283185307179586
  0
ELLIPSE
  5
34D90
330
A
100
AcDbEntity
  8
D-STR　構造物外形線
100
AcDbEllipse
 10
205984.1643509499
 20
16915.98401643762
 30
0.0
 11
7.999999999999999
 21
0.0
 31
0.0
210
0.0
220
0.0
230
1.0
 40
0.6256775571582694
 41
0.0
 42
6.283185307179586
  0
ELLIPSE
  5
34D91
330
A
100
AcDbEntity
  8
D-STR　構造物外形線
100
AcDbEllipse
 10
205984.1643509499
 20
16951.54493006077
 30
0.0
 11
8.0
 21
0.0
 31
0.0
210
0.0
220
0.0
230
1.0
 40
0.6256782050477341
 41
0.0
 42
6.283185307179586
  0
ELLIPSE
  5
34D92
330
A
100
AcDbEntity
  8
D-STR　構造物外形線
100
AcDbEllipse
 10
205984.1643509499
 20
16975.01311070531
 30
0.0
 11
8.0
 21
0.0
 31
0.0
210
0.0
220
0.0
230
1.0
 40
0.3447929359554109
 41
0.0
 42
6.283185307179586
  0
ELLIPSE
  5
34D93
330
A
100
AcDbEntity
  8
D-STR　構造物外形線
100
AcDbEllipse
 10
205984.1643509499
 20
16989.63169325029
 30
0.0
 11
8.0
 21
0.0
 31
0.0
210
0.0
220
0.0
230
1.0
 40
0.3447929414869577
 41
0.0
 42
6.283185307179586
  0
ELLIPSE
  5
34D94
330
A
100
AcDbEntity
  8
D-STR　構造物外形線
100
AcDbEllipse
 10
205984.1643509499
 20
17007.17400958619
 30
0.0
 11
8.0
 21
0.0
 31
0.0
210
0.0
220
0.0
230
1.0
 40
0.3447918466699775
 41
0.0
 42
6.283185307179586
  0
ELLIPSE
  5
34D95
330
A
100
AcDbEntity
  8
D-STR　構造物外形線
100
AcDbEllipse
 10
205984.1643509499
 20
17021.79259213103
 30
0.0
 11
8.0
 21
0.0
 31
0.0
210
0.0
220
0.0
230
1.0
 40
0.3447918521919746
 41
0.0
 42
6.283185307179586
  0
ELLIPSE
  5
34D96
330
A
100
AcDbEntity
  8
D-STR　構造物外形線
100
AcDbEllipse
 10
205984.1643509499
 20
17039.33488574432
 30
0.0
 11
8.0
 21
0.0
 31
0.0
210
0.0
220
0.0
230
1.0
 40
0.3447929359535919
 41
0.0
 42
6.283185307179586
  0
ELLIPSE
  5
34D97
330
A
100
AcDbEntity
  8
D-STR　構造物外形線
100
AcDbEllipse
 10
205984.1643509499
 20
17053.95347832709
 30
0.0
 11
8.0
 21
0.0
 31
0.0
210
0.0
220
0.0
230
1.0
 40
0.3447916867639833
 41
0.0
 42
6.283185307179586
  0
ELLIPSE
  5
34D98
330
A
100
AcDbEntity
  8
D-STR　構造物外形線
100
AcDbEllipse
 10
205984.1643509499
 20
17076.43085396917
 30
0.0
 11
7.999999999999999
 21
0.0
 31
0.0
210
0.0
220
0.0
230
1.0
 40
0.4574365822500114
 41
0.0
 42
6.283185307179586
  0
ELLIPSE
  5
34D99
330
A
100
AcDbEntity
  8
D-STR　構造物外形線
100
AcDbEllipse
 10
205984.1643509499
 20
17099.13037306568
 30
0.0
 11
8.0
 21
0.0
 31
0.0
210
0.0
220
0.0
230
1.0
 40
0.4574367133136547
 41
0.0
 42
6.283185307179586
  0
ELLIPSE
  5
34D9A
330
A
100
AcDbEntity
  8
D-STR　構造物外形線
100
AcDbEllipse
 10
205184.1645509499
 20
16486.15701303055
 30
0.0
 11
-8.0
 21
0.0
 31
0.0
210
0.0
220
0.0
230
-1.0
 40
0.8149820071710109
 41
0.0
 42
6.283185307179586
  0
ELLIPSE
  5
34D9B
330
A
100
AcDbEntity
  8
D-STR　構造物外形線
100
AcDbEllipse
 10
205184.1645509499
 20
16862.67659129267
 30
0.0
 11
-8.0
 21
0.0
 31
0.0
210
0.0
220
0.0
230
-1.0
 40
0.8148196351694423
 41
6.229709952469784
 42
9.478253315479181
  0
ELLIPSE
  5
34D9C
330
A
100
AcDbEntity
  8
D-STR　構造物外形線
100
AcDbEllipse
 10
205184.1645509499
 20
16915.98401643762
 30
0.0
 11
-7.999999999999999
 21
0.0
 31
0.0
210
0.0
220
0.0
230
-1.0
 40
0.6256775571582694
 41
0.0
 42
6.283185307179586
  0
ELLIPSE
  5
34D9D
330
A
100
AcDbEntity
  8
D-STR　構造物外形線
100
AcDbEllipse
 10
205184.1645509499
 20
16951.54493006077
 30
0.0
 11
-8.0
 21
0.0
 31
0.0
210
0.0
220
0.0
230
-1.0
 40
0.6256782050477341
 41
0.0
 42
6.283185307179586
  0
ELLIPSE
  5
34D9E
330
A
100
AcDbEntity
  8
D-STR　構造物外形線
100
AcDbEllipse
 10
205184.1645509499
 20
16975.01311070531
 30
0.0
 11
-8.0
 21
0.0
 31
0.0
210
0.0
220
0.0
230
-1.0
 40
0.3447929359554109
 41
0.0
 42
6.283185307179586
  0
ELLIPSE
  5
34D9F
330
A
100
AcDbEntity
  8
D-STR　構造物外形線
100
AcDbEllipse
 10
205184.1645509499
 20
16989.63169325029
 30
0.0
 11
-8.0
 21
0.0
 31
0.0
210
0.0
220
0.0
230
-1.0
 40
0.3447929414869577
 41
0.0
 42
6.283185307179586
  0
ELLIPSE
  5
34DA0
330
A
100
AcDbEntity
  8
D-STR　構造物外形線
100
AcDbEllipse
 10
205184.1645509499
 20
17007.17400958619
 30
0.0
 11
-8.0
 21
0.0
 31
0.0
210
0.0
220
0.0
230
-1.0
 40
0.3447918466699775
 41
0.0
 42
6.283185307179586
  0
ELLIPSE
  5
34DA1
330
A
100
AcDbEntity
  8
D-STR　構造物外形線
100
AcDbEllipse
 10
205184.1645509499
 20
17021.79259213103
 30
0.0
 11
-8.0
 21
0.0
 31
0.0
210
0.0
220
0.0
230
-1.0
 40
0.3447918521919746
 41
0.0
 42
6.283185307179586
  0
ELLIPSE
  5
34DA2
330
A
100
AcDbEntity
  8
D-STR　構造物外形線
100
AcDbEllipse
 10
205184.1645509499
 20
17039.33488574432
 30
0.0
 11
-8.0
 21
0.0
 31
0.0
210
0.0
220
0.0
230
-1.0
 40
0.3447929359535919
 41
0.0
 42
6.283185307179586
  0
ELLIPSE
  5
34DA3
330
A
100
AcDbEntity
  8
D-STR　構造物外形線
100
AcDbEllipse
 10
205184.1645509499
 20
17053.95347832709
 30
0.0
 11
-8.0
 21
0.0
 31
0.0
210
0.0
220
0.0
230
-1.0
 40
0.3447916867639833
 41
0.0
 42
6.283185307179586
  0
ELLIPSE
  5
34DA4
330
A
100
AcDbEntity
  8
D-STR　構造物外形線
100
AcDbEllipse
 10
205184.1645509499
 20
17076.43085396917
 30
0.0
 11
-7.999999999999999
 21
0.0
 31
0.0
210
0.0
220
0.0
230
-1.0
 40
0.4574365822500114
 41
0.0
 42
6.283185307179586
  0
ELLIPSE
  5
34DA5
330
A
100
AcDbEntity
  8
D-STR　構造物外形線
100
AcDbEllipse
 10
205184.1645509499
 20
17099.13037306568
 30
0.0
 11
-8.0
 21
0.0
 31
0.0
210
0.0
220
0.0
230
-1.0
 40
0.4574367133136547
 41
0.0
 42
6.283185307179586
  0
LWPOLYLINE
  5
34DAA
330
A
100
AcDbEntity
  8
D-STR　構造物外形線
  6
STYLE_01
100
AcDbPolyline
 90
        4
 70
     1
 43
0.0
 10
205034.1643509498
 20
16652.43696575294
 10
205334.1643509499
 20
16652.43696575294
 10
205334.1643509499
 20
16952.43696575294
 10
205034.1643509498
 20
16952.43696575294
  0
LWPOLYLINE
  5
34DAC
330
A
100
AcDbEntity
  8
D-STR　構造物外形線
  6
STYLE_01
100
AcDbPolyline
 90
        4
 70
     1
 43
0.0
 10
205834.1644509499
 20
16652.43696575294
 10
206134.1644509498
 20
16652.43696575294
 10
206134.1644509498
 20
16952.43696575294
 10
205834.1644509499
 20
16952.43696575294
  0
LWPOLYLINE
  5
34DAE
330
A
100
AcDbEntity
  8
D-STR　構造物外形線
  6
STYLE_01
100
AcDbPolyline
 90
        4
 70
     1
 43
0.0
 10
206634.1643509499
 20
16652.43696575294
 10
206934.1643509499
 20
16652.43696575294
 10
206934.1643509499
 20
16952.43696575294
 10
206634.1643509499
 20
16952.43696575294
  0
DIMENSION
  5
34DB0
330
A
100
AcDbEntity
  8
D-STR-DIM　寸法線、寸法値
100
AcDbDimension
  2
*D30
 10
206884.1644509499
 20
17320.5816927205
 30
0.0
 11
205984.1644509499
 21
17352.6480927205
 31
0.0
 70
    32
 71
     5
 42
1800.0
  3
1-15
100
AcDbAlignedDimension
 13
205084.1644509499
 23
17196.18009220814
 33
0.0
 14
206884.1644509499
 24
17196.18009220812
 34
0.0
100
AcDbRotatedDimension
1001
ACAD
1000
DSTYLE
1002
{
1070
   340
1005
764
1002
}
  0
DIMENSION
  5
34DCF
330
A
100
AcDbEntity
  8
D-STR-DIM　寸法線、寸法値
100
AcDbDimension
  2
*D31
 10
207038.9873917672
 20
16457.87381842049
 30
0.0
 11
207003.7801288231
 21
16805.05711113165
 31
0.0
 70
    32
  1
(695)
 71
     5
 42
694.366585422249
  3
1-15
100
AcDbAlignedDimension
 13
206902.3139719589
 23
17152.24040384274
 33
0.0
 14
206902.3139719589
 24
16457.87381842049
 34
0.0
 50
270.0
100
AcDbRotatedDimension
1001
ACAD
1000
DSTYLE
1002
{
1070
     3
1000
(<>)
1070
   271
1070
     0
1002
}
  0
LEADER
  5
34E00
330
A
100
AcDbEntity
  8
D-STR-HTXT　旗上げ
100
AcDbLeader
  3
1-15
 73
     0
 74
     0
 75
     1
 40
44.16243654822334
 41
362.2461928934009
 76
     3
 10
206269.8700615683
 20
16502.46921586679
 30
0.0
 10
206411.5230769047
 20
16298.97492092679
 30
0.0
 10
206456.5230769046
 20
16298.97492092679
 30
0.0
340
34E01
  0
MTEXT
  5
34E01
102
{ACAD_REACTORS
330
34E00
102
}
330
A
100
AcDbEntity
  8
D-STR-HTXT　旗上げ
100
AcDbMText
 10
206469.8394769047
 20
16312.29132092679
 30
0.0
 40
37.5
 41
0.0
 71
     7
 72
     1
  1
座板:ESW95×50C
  7
YOKO_GOTHIC
 73
     1
 44
1.0
1001
ACAD
1000
MTEXTBEGIN
1070
    73
1070
     1
1070
    44
1040
1.0
1070
    74
1070
     0
1000
MTEXTEND
  0
LINE
  5
34F00
330
A
100
AcDbEntity
  8
D-STR　構造物外形線
100
AcDbLine
 10
205084.1644509499
 20
15763.28594899469
 30
0.0
 11
206884.1644509499
 21
15763.28594899469
 31
0.0
  0
LINE
  5
34F01
330
A
100
AcDbEntity
  8
D-STR　構造物外形線
100
AcDbLine
 10
205084.1644509499
 20
15683.33240756359
 30
0.0
 11
206884.1644509499
 21
15683.33240756359
 31
0.0
  0
LINE
  5
34F02
330
A
100
AcDbEntity
  8
D-STR　構造物外形線
100
AcDbLine
 10
205084.1644509499
 20
15666.68229009761
 30
0.0
 11
206884.1644509499
 21
15666.68229009761
 31
0.0
  0
LINE
  5
34F03
330
A
100
AcDbEntity
  8
D-STR　構造物外形線
100
AcDbLine
 10
205084.1644509499
 20
15564.19887057322
 30
0.0
 11
206884.1644509499
 21
15564.19887057322
 31
0.0
  0
LINE
  5
34F04
330
A
100
AcDbEntity
  8
D-STR　構造物外形線
100
AcDbLine
 10
205084.1644509499
 20
15561.48876694168
 30
0.0
 11
206884.1644509499
 21
15561.48876694168
 31
0.0
  0
LINE
  5
34F05
330
A
100
AcDbEntity
  8
D-STR　構造物外形線
100
AcDbLine
 10
205084.1644509499
 20
15459.00534741728
 30
0.0
 11
205146.6643509499
 21
15459.00534741728
 31
0.0
  0
LINE
  5
34F06
330
A
100
AcDbEntity
  8
D-STR　構造物外形線
100
AcDbLine
 10
205084.1644509499
 20
15456.29524378574
 30
0.0
 11
205146.6643509499
 21
15456.29524378574
 31
0.0
  0
LINE
  5
34F07
330
A
100
AcDbEntity
  8
D-STR　構造物外形線
100
AcDbLine
 10
205084.1644509499
 20
15370.92194904081
 30
0.0
 11
205146.6643509499
 21
15370.92194904081
 31
0.0
  0
LINE
  5
34F08
330
A
100
AcDbEntity
  8
D-STR　構造物外形線
100
AcDbLine
 10
205084.1644509499
 20
15349.04571884379
 30
0.0
 11
205146.6643509499
 21
15349.04571884379
 31
0.0
  0
LINE
  5
34F09
330
A
100
AcDbEntity
  8
D-STR　構造物外形線
100
AcDbLine
 10
205084.1644509499
 20
15321.68300162504
 30
0.0
 11
206884.1644509499
 21
15321.68300162514
 31
0.0
  0
LINE
  5
34F0A
330
A
100
AcDbEntity
  8
D-STR　構造物外形線
100
AcDbLine
 10
205084.1644509499
 20
15267.39941772766
 30
0.0
 11
206884.1644509499
 21
15267.39941772766
 31
0.0
  0
LINE
  5
34F0C
330
A
100
AcDbEntity
  8
D-STR　構造物外形線
100
AcDbLine
 10
205084.1644509499
 20
15476.11547219674
 30
0.0
 11
205134.1641509499
 21
15476.11547219674
 31
0.0
  0
LINE
  5
34F0D
330
A
100
AcDbEntity
  8
D-STR　構造物外形線
100
AcDbLine
 10
205084.1644509499
 20
15353.56110844324
 30
0.0
 11
205146.6643509499
 21
15353.56110844324
 31
0.0
  0
LINE
  5
34F0E
330
A
100
AcDbEntity
  8
D-STR　構造物外形線
100
AcDbLine
 10
205084.1644509499
 20
15581.30899535269
 30
0.0
 11
206884.1644509499
 21
15581.30899535269
 31
0.0
  0
LINE
  5
34F21
330
A
100
AcDbEntity
  8
D-STR　構造物外形線
100
AcDbLine
 10
206884.1644509499
 20
15763.28594899469
 30
0.0
 11
206884.1644509499
 21
15683.33240756359
 31
0.0
  0
LINE
  5
34F22
330
A
100
AcDbEntity
  8
D-STR　構造物外形線
100
AcDbLine
 10
205084.1644509499
 20
15763.28594899469
 30
0.0
 11
205084.1644509499
 21
15683.33240756359
 31
0.0
  0
LINE
  5
34F23
330
A
100
AcDbEntity
  8
D-STR　構造物外形線
100
AcDbLine
 10
206884.1644509499
 20
15666.68229009761
 30
0.0
 11
206884.1644509499
 21
15564.19887057322
 31
0.0
  0
LINE
  5
34F24
330
A
100
AcDbEntity
  8
D-STR　構造物外形線
100
AcDbLine
 10
206884.1644509499
 20
15561.48876694168
 30
0.0
 11
206884.1644509499
 21
15459.00534741728
 31
0.0
  0
LINE
  5
34F25
330
A
100
AcDbEntity
  8
D-STR　構造物外形線
100
AcDbLine
 10
206884.1644509499
 20
15456.29524378574
 30
0.0
 11
206884.1644509499
 21
15353.56110844324
 31
0.0
  0
LINE
  5
34F26
330
A
100
AcDbEntity
  8
D-STR　構造物外形線
100
AcDbLine
 10
206884.1644509499
 20
15349.04571884379
 30
0.0
 11
206884.1644509499
 21
15267.39941772766
 31
0.0
  0
LINE
  5
34F27
330
A
100
AcDbEntity
  8
D-STR　構造物外形線
100
AcDbLine
 10
205084.1644509499
 20
15666.68229009761
 30
0.0
 11
205084.1644509499
 21
15564.19887057322
 31
0.0
  0
LINE
  5
34F28
330
A
100
AcDbEntity
  8
D-STR　構造物外形線
100
AcDbLine
 10
205084.1644509499
 20
15561.48876694168
 30
0.0
 11
205084.1644509499
 21
15459.00534741728
 31
0.0
  0
LINE
  5
34F29
330
A
100
AcDbEntity
  8
D-STR　構造物外形線
100
AcDbLine
 10
205084.1644509499
 20
15456.29524378574
 30
0.0
 11
205084.1644509499
 21
15353.56110844324
 31
0.0
  0
LINE
  5
34F2A
330
A
100
AcDbEntity
  8
D-STR　構造物外形線
100
AcDbLine
 10
205084.1644509499
 20
15349.04571884379
 30
0.0
 11
205084.1644509499
 21
15267.39941772766
 31
0.0
  0
LWPOLYLINE
  5
34F2D
330
A
100
AcDbEntity
  8
D-STR　構造物外形線
100
AcDbPolyline
 90
        4
 70
     1
 43
0.0
 10
206746.6643509499
 20
15267.39941772766
 10
206821.6643509499
 20
15267.39941772766
 10
206821.6643509499
 20
15258.62931795063
 10
206746.6643509499
 20
15258.62931795063
  0
LWPOLYLINE
  5
34F2E
330
A
100
AcDbEntity
  8
D-STR　構造物外形線
100
AcDbPolyline
 90
        4
 70
     1
 43
0.0
 10
205946.6643509499
 20
15267.39941772766
 10
206021.6643509499
 20
15267.39941772766
 10
206021.6643509499
 20
15258.62931795063
 10
205946.6643509499
 20
15258.62931795063
  0
LWPOLYLINE
  5
34F2F
330
A
100
AcDbEntity
  8
D-STR　構造物外形線
100
AcDbPolyline
 90
        4
 70
     1
 43
0.0
 10
205146.6643509499
 20
15267.39941772766
 10
205221.6643509499
 20
15267.39941772766
 10
205221.6643509499
 20
15258.62931795062
 10
205146.6643509499
 20
15258.62931795062
  0
LWPOLYLINE
  5
34F3E
330
A
100
AcDbEntity
  8
D-STR　構造物外形線
100
AcDbPolyline
 90
        8
 70
     1
 43
0.0
 10
206740.1645509499
 20
15459.33292376341
 10
206828.1645509499
 20
15459.33292376341
 42
0.4142135623730951
 10
206834.1645509498
 20
15465.33292376341
 10
206834.1645509498
 20
15478.33292376341
 42
0.4142135623730951
 10
206828.1645509499
 20
15484.33292376341
 10
206740.1645509498
 20
15484.33292376342
 42
0.4142135623731008
 10
206734.1645509499
 20
15478.33292376342
 10
206734.1645509499
 20
15465.3329237634
 42
0.4142135623726464
  0
LINE
  5
34F3F
330
A
100
AcDbEntity
  8
D-STR　構造物外形線
100
AcDbLine
 10
206834.1645509498
 20
15476.11547219674
 30
0.0
 11
206884.1644509499
 21
15476.11547219674
 31
0.0
  0
LINE
  5
34F40
330
A
100
AcDbEntity
  8
D-STR　構造物外形線
100
AcDbLine
 10
206821.6643509499
 20
15456.29524378574
 30
0.0
 11
206884.1644509499
 21
15456.29524378574
 31
0.0
  0
LINE
  5
34F41
330
A
100
AcDbEntity
  8
D-STR　構造物外形線
100
AcDbLine
 10
206821.6643509499
 20
15459.00534741728
 30
0.0
 11
206884.1644509499
 21
15459.00534741728
 31
0.0
  0
LINE
  5
34F42
330
A
100
AcDbEntity
  8
D-STR　構造物外形線
100
AcDbLine
 10
206821.6643509499
 20
15370.92194904081
 30
0.0
 11
206884.1644509499
 21
15370.92194904081
 31
0.0
  0
LINE
  5
34F43
330
A
100
AcDbEntity
  8
D-STR　構造物外形線
100
AcDbLine
 10
206821.6643509499
 20
15353.56110844324
 30
0.0
 11
206884.1644509499
 21
15353.56110844324
 31
0.0
  0
LINE
  5
34F44
330
A
100
AcDbEntity
  8
D-STR　構造物外形線
100
AcDbLine
 10
206821.6643509499
 20
15349.04571884379
 30
0.0
 11
206884.1644509499
 21
15349.04571884379
 31
0.0
  0
LINE
  5
34F47
330
A
100
AcDbEntity
  8
D-STR　構造物外形線
100
AcDbLine
 10
205221.6641509499
 20
15321.68300162504
 30
0.0
 11
205221.6641509499
 21
15459.33292376341
 31
0.0
  0
LINE
  5
34F48
330
A
100
AcDbEntity
  8
D-STR　構造物外形線
100
AcDbLine
 10
205146.6643509499
 20
15459.33292376341
 30
0.0
 11
205146.6643509499
 21
15321.68300162504
 31
0.0
  0
LINE
  5
34F49
330
A
100
AcDbEntity
  8
D-STR　構造物外形線
100
AcDbLine
 10
205221.6641509499
 20
15402.20074363046
 30
0.0
 11
205146.6643509499
 21
15402.20074363046
 31
0.0
  0
LINE
  5
34F4A
330
A
100
AcDbEntity
  8
D-STR　構造物外形線
100
AcDbLine
 10
205221.6641509499
 20
15337.53276883927
 30
0.0
 11
205146.6643509499
 21
15337.53276883927
 31
0.0
  0
LWPOLYLINE
  5
34F4B
330
A
100
AcDbEntity
  8
D-STR　構造物外形線
100
AcDbPolyline
 90
        8
 70
     1
 43
0.0
 10
205228.1641509499
 20
15459.33292376341
 10
205140.1641509499
 20
15459.33292376341
 42
-0.4142135623730951
 10
205134.1641509499
 20
15465.33292376341
 10
205134.1641509499
 20
15478.33292376341
 42
-0.4142135623730951
 10
205140.1641509499
 20
15484.33292376341
 10
205228.1641509499
 20
15484.33292376342
 42
-0.4142135623731008
 10
205234.1641509499
 20
15478.33292376342
 10
205234.1641509499
 20
15465.3329237634
 42
-0.4142135623726464
  0
LINE
  5
34F4C
330
A
100
AcDbEntity
  8
D-STR　構造物外形線
100
AcDbLine
 10
205221.6641509499
 20
15370.92194904081
 30
0.0
 11
206746.6643509499
 21
15370.92194904081
 31
0.0
  0
LINE
  5
34F4D
330
A
100
AcDbEntity
  8
D-STR　構造物外形線
100
AcDbLine
 10
205221.6641509499
 20
15353.56110844324
 30
0.0
 11
206746.6643509499
 21
15353.56110844324
 31
0.0
  0
LINE
  5
34F4E
330
A
100
AcDbEntity
  8
D-STR　構造物外形線
100
AcDbLine
 10
205221.6641509499
 20
15349.04571884379
 30
0.0
 11
206746.6643509499
 21
15349.04571884379
 31
0.0
  0
LINE
  5
34F4F
330
A
100
AcDbEntity
  8
D-STR　構造物外形線
100
AcDbLine
 10
205221.6641509499
 20
15456.29524378574
 30
0.0
 11
206746.6643509499
 21
15456.29524378574
 31
0.0
  0
LINE
  5
34F50
330
A
100
AcDbEntity
  8
D-STR　構造物外形線
100
AcDbLine
 10
205221.6641509499
 20
15459.00534741728
 30
0.0
 11
206746.6643509499
 21
15459.00534741728
 31
0.0
  0
LINE
  5
34F51
330
A
100
AcDbEntity
  8
D-STR　構造物外形線
100
AcDbLine
 10
205234.1641509499
 20
15476.11547219674
 30
0.0
 11
206734.1645509499
 21
15476.11547219674
 31
0.0
  0
LINE
  5
34F53
330
A
100
AcDbEntity
  8
D-STR　構造物外形線
100
AcDbLine
 10
206821.6643509499
 20
15683.33240756359
 30
0.0
 11
206821.6643509499
 21
15666.68229009761
 31
0.0
  0
LINE
  5
34F54
330
A
100
AcDbEntity
  8
D-STR　構造物外形線
100
AcDbLine
 10
206746.6643509499
 20
15683.33240756359
 30
0.0
 11
206746.6643509499
 21
15666.68229009761
 31
0.0
  0
LINE
  5
34F55
330
A
100
AcDbEntity
  8
D-STR　構造物外形線
100
AcDbLine
 10
206821.6643509499
 20
15564.19887057322
 30
0.0
 11
206821.6643509499
 21
15561.48876694168
 31
0.0
  0
LINE
  5
34F56
330
A
100
AcDbEntity
  8
D-STR　構造物外形線
100
AcDbLine
 10
206746.6643509499
 20
15564.19887057322
 30
0.0
 11
206746.6643509499
 21
15561.48876694168
 31
0.0
  0
LINE
  5
34F57
330
A
100
AcDbEntity
  8
D-STR　構造物外形線
100
AcDbLine
 10
205146.6645509499
 20
15683.33240756359
 30
0.0
 11
205146.6645509499
 21
15666.68229009761
 31
0.0
  0
LINE
  5
34F58
330
A
100
AcDbEntity
  8
D-STR　構造物外形線
100
AcDbLine
 10
205146.6645509499
 20
15564.19887057322
 30
0.0
 11
205146.6645509499
 21
15561.48876694168
 31
0.0
  0
LINE
  5
34F59
330
A
100
AcDbEntity
  8
D-STR　構造物外形線
100
AcDbLine
 10
205221.6645509499
 20
15683.33240756359
 30
0.0
 11
205221.6645509499
 21
15666.68229009761
 31
0.0
  0
LINE
  5
34F5A
330
A
100
AcDbEntity
  8
D-STR　構造物外形線
100
AcDbLine
 10
205221.6645509499
 20
15564.19887057322
 30
0.0
 11
205221.6645509499
 21
15561.48876694168
 31
0.0
  0
LINE
  5
34F66
330
A
100
AcDbEntity
  8
D-STR　構造物外形線
100
AcDbLine
 10
205946.6644509499
 20
15683.33240756359
 30
0.0
 11
205946.6644509499
 21
15666.68229009761
 31
0.0
  0
LINE
  5
34F67
330
A
100
AcDbEntity
  8
D-STR　構造物外形線
100
AcDbLine
 10
205946.6644509499
 20
15564.19887057322
 30
0.0
 11
205946.6644509499
 21
15561.48876694168
 31
0.0
  0
LINE
  5
34F68
330
A
100
AcDbEntity
  8
D-STR　構造物外形線
100
AcDbLine
 10
206021.6644509499
 20
15683.33240756359
 30
0.0
 11
206021.6644509499
 21
15666.68229009761
 31
0.0
  0
LINE
  5
34F69
330
A
100
AcDbEntity
  8
D-STR　構造物外形線
100
AcDbLine
 10
206021.6644509499
 20
15564.19887057322
 30
0.0
 11
206021.6644509499
 21
15561.48876694168
 31
0.0
  0
LINE
  5
34FC1
330
A
100
AcDbEntity
  8
D-STR　構造物外形線
100
AcDbLine
 10
205153.9144509499
 20
14972.14322376341
 30
0.0
 11
205214.4144509499
 21
14972.14322376341
 31
0.0
  0
LINE
  5
34FC2
330
A
100
AcDbEntity
  8
D-STR　構造物外形線
100
AcDbLine
 10
205153.9144509499
 20
14772.14322376341
 30
0.0
 11
205214.4144509499
 21
14772.14322376341
 31
0.0
  0
LINE
  5
34FC5
330
A
100
AcDbEntity
  8
D-STR　構造物外形線
100
AcDbLine
 10
205153.9144509499
 20
14955.00070548833
 30
0.0
 11
205171.056969225
 21
14972.14322376344
 31
0.0
  0
LINE
  5
34FC6
330
A
100
AcDbEntity
  8
D-STR　構造物外形線
100
AcDbLine
 10
205153.9144509499
 20
14937.32303595866
 30
0.0
 11
205188.7346387546
 21
14972.14322376341
 31
0.0
  0
LINE
  5
34FC7
330
A
100
AcDbEntity
  8
D-STR　構造物外形線
100
AcDbLine
 10
205153.9144509499
 20
14919.64536642899
 30
0.0
 11
205206.4123082843
 21
14972.14322376341
 31
0.0
  0
LINE
  5
34FC8
330
A
100
AcDbEntity
  8
D-STR　構造物外形線
100
AcDbLine
 10
205153.9144509499
 20
14901.96769689933
 30
0.0
 11
205214.4144509498
 21
14962.46769689927
 31
0.0
  0
LINE
  5
34FC9
330
A
100
AcDbEntity
  8
D-STR　構造物外形線
100
AcDbLine
 10
205153.9144509499
 20
14884.29002736967
 30
0.0
 11
205214.4144509498
 21
14944.79002736961
 31
0.0
  0
LINE
  5
34FCA
330
A
100
AcDbEntity
  8
D-STR　構造物外形線
100
AcDbLine
 10
205153.9144509499
 20
14866.61235784001
 30
0.0
 11
205214.4144509498
 21
14927.11235783996
 31
0.0
  0
LINE
  5
34FCB
330
A
100
AcDbEntity
  8
D-STR　構造物外形線
100
AcDbLine
 10
205153.9144509499
 20
14848.93468831034
 30
0.0
 11
205214.4144509498
 21
14909.4346883103
 31
0.0
  0
LINE
  5
34FCC
330
A
100
AcDbEntity
  8
D-STR　構造物外形線
100
AcDbLine
 10
205153.9144509499
 20
14831.25701878067
 30
0.0
 11
205214.4144509499
 21
14891.75701878066
 31
0.0
  0
LINE
  5
34FCD
330
A
100
AcDbEntity
  8
D-STR　構造物外形線
100
AcDbLine
 10
205153.9144509499
 20
14813.57934925101
 30
0.0
 11
205214.4144509499
 21
14874.079349251
 31
0.0
  0
LINE
  5
34FCE
330
A
100
AcDbEntity
  8
D-STR　構造物外形線
100
AcDbLine
 10
205153.9144509499
 20
14795.90167972135
 30
0.0
 11
205214.4144509499
 21
14856.40167972134
 31
0.0
  0
LINE
  5
34FCF
330
A
100
AcDbEntity
  8
D-STR　構造物外形線
100
AcDbLine
 10
205153.9144509499
 20
14778.22401019168
 30
0.0
 11
205214.4144509499
 21
14838.72401019167
 31
0.0
  0
LINE
  5
34FD0
330
A
100
AcDbEntity
  8
D-STR　構造物外形線
100
AcDbLine
 10
205165.5113340513
 20
14772.14322376341
 30
0.0
 11
205214.4144509499
 21
14821.046340662
 31
0.0
  0
LINE
  5
34FD1
330
A
100
AcDbEntity
  8
D-STR　構造物外形線
100
AcDbLine
 10
205183.1890035809
 20
14772.14322376343
 30
0.0
 11
205214.4144509499
 21
14803.36867113234
 31
0.0
  0
LINE
  5
34FD2
330
A
100
AcDbEntity
  8
D-STR　構造物外形線
100
AcDbLine
 10
205200.8666731106
 20
14772.14322376343
 30
0.0
 11
205214.4144509499
 21
14785.69100160268
 31
0.0
  0
LINE
  5
34FDF
330
A
100
AcDbEntity
  8
D-STR　構造物外形線
100
AcDbLine
 10
206753.9143509498
 20
14972.14322376341
 30
0.0
 11
206814.4143509499
 21
14972.14322376341
 31
0.0
  0
LINE
  5
34FE0
330
A
100
AcDbEntity
  8
D-STR　構造物外形線
100
AcDbLine
 10
206753.9143509498
 20
14958.4648126449
 30
0.0
 11
206767.5927620684
 21
14972.14322376344
 31
0.0
  0
LINE
  5
34FE1
330
A
100
AcDbEntity
  8
D-STR　構造物外形線
100
AcDbLine
 10
206753.9143509498
 20
14940.78714311522
 30
0.0
 11
206785.270431598
 21
14972.14322376344
 31
0.0
  0
LINE
  5
34FE2
330
A
100
AcDbEntity
  8
D-STR　構造物外形線
100
AcDbLine
 10
206753.9143509498
 20
14923.10947358552
 30
0.0
 11
206802.9481011278
 21
14972.14322376344
 31
0.0
  0
LINE
  5
34FE3
330
A
100
AcDbEntity
  8
D-STR　構造物外形線
100
AcDbLine
 10
206770.6257706574
 20
14922.14322376343
 30
0.0
 11
206814.4143509498
 21
14965.93180405584
 31
0.0
  0
LINE
  5
34FE4
330
A
100
AcDbEntity
  8
D-STR　構造物外形線
100
AcDbLine
 10
206788.3034401871
 20
14922.14322376343
 30
0.0
 11
206814.4143509498
 21
14948.25413452619
 31
0.0
  0
LINE
  5
34FE5
330
A
100
AcDbEntity
  8
D-STR　構造物外形線
100
AcDbLine
 10
206805.9811097167
 20
14922.14322376343
 30
0.0
 11
206814.4143509498
 21
14930.57646499654
 31
0.0
  0
LINE
  5
34FE6
330
A
100
AcDbEntity
  8
D-STR　構造物外形線
100
AcDbLine
 10
205953.9143509498
 20
14972.14322376341
 30
0.0
 11
206014.4143509498
 21
14972.14322376341
 31
0.0
  0
LINE
  5
34FE7
330
A
100
AcDbEntity
  8
D-STR　構造物外形線
100
AcDbLine
 10
205953.9143509498
 20
14958.4648126449
 30
0.0
 11
205967.5927620684
 21
14972.14322376344
 31
0.0
  0
LINE
  5
34FE8
330
A
100
AcDbEntity
  8
D-STR　構造物外形線
100
AcDbLine
 10
205953.9143509498
 20
14940.78714311522
 30
0.0
 11
205985.270431598
 21
14972.14322376344
 31
0.0
  0
LINE
  5
34FE9
330
A
100
AcDbEntity
  8
D-STR　構造物外形線
100
AcDbLine
 10
205953.9143509498
 20
14923.10947358552
 30
0.0
 11
206002.9481011277
 21
14972.14322376344
 31
0.0
  0
LINE
  5
34FEA
330
A
100
AcDbEntity
  8
D-STR　構造物外形線
100
AcDbLine
 10
205970.6257706574
 20
14922.14322376343
 30
0.0
 11
206014.4143509498
 21
14965.93180405584
 31
0.0
  0
LINE
  5
34FEB
330
A
100
AcDbEntity
  8
D-STR　構造物外形線
100
AcDbLine
 10
205988.303440187
 20
14922.14322376343
 30
0.0
 11
206014.4143509498
 21
14948.25413452619
 31
0.0
  0
LINE
  5
34FEC
330
A
100
AcDbEntity
  8
D-STR　構造物外形線
100
AcDbLine
 10
206005.9811097167
 20
14922.14322376343
 30
0.0
 11
206014.4143509498
 21
14930.57646499654
 31
0.0
  0
HATCH
  5
34FFE
330
A
100
AcDbEntity
  8
D-STR　構造物外形線
100
AcDbHatch
 10
0.0
 20
0.0
 30
0.0
210
0.0
220
0.0
230
1.0
  2
ANSI31
 70
     0
 71
     1
 91
        1
 92
        7
 72
     0
 73
     1
 93
        5
 10
208516.434630736
 20
14971.99701736249
 10
208455.934630736
 20
14971.99701736249
 10
208455.934630736
 20
14771.99701736249
 10
208516.434630736
 20
14771.99701736249
 10
208516.434630736
 20
14821.99701736249
 97
        5
330
33088
330
33051
330
33074
330
3305F
330
33054
 75
     0
 76
     1
 52
0.0
 41
100.0
 77
     0
 78
     1
 53
45.0
 43
173.7227930039807
 44
0.0
 45
-8.838834764831842
 46
8.838834764831844
 79
     0
 47
1.449175272800227
 98
        1
 10
208503.4647284743
 20
14860.93093146014
  0
VIEWPORT
  5
8B7
102
{ACAD_XDICTIONARY
360
35128
102
}
330
B
100
AcDbEntity
 67
     1
  8
0
  6
Continuous
370
     0
100
AcDbViewport
 10
5.613749947134904
 20
3.902083231708196
 30
0.0
 40
12.36801978644423
 41
9.533417101575722
 68
     1
 69
     1
 12
5.613749947134904
 22
3.902083231708196
 13
0.0
 23
0.0
 14
10.0
 24
10.0
 15
10.0
 25
10.0
 16
0.0
 26
0.0
 36
1.0
 17
0.0
 27
0.0
 37
0.0
 42
50.0
 43
0.0
 44
0.0
 45
9.533417101575722
 50
0.0
 51
0.0
 72
   100
 90
    32800
  1

281
     0
 71
     1
 74
     0
110
0.0
120
0.0
130
0.0
111
1.0
121
0.0
131
0.0
112
0.0
122
1.0
132
0.0
 79
     0
146
0.0
  0
VIEWPORT
  5
8BA
102
{ACAD_XDICTIONARY
360
3512A
102
}
330
B
100
AcDbEntity
 67
     1
  8
D-STR-DIM　寸法線、寸法値
  6
Continuous
370
     0
100
AcDbViewport
 10
5.61374996590802
 20
3.902083250481312
 30
0.0
 40
8.981999945452834
 41
6.243333200770099
 68
     2
 69
     2
 12
10500.00005355105
 22
7425.000039231964
 13
0.0
 23
0.0
 14
1.0
 24
1.0
 15
0.0
 25
0.0
 16
0.0
 26
0.0
 36
1.0
 17
0.0
 27
0.0
 37
0.0
 42
50.0
 43
0.0
 44
0.0
 45
15032.18305239522
 50
0.0
 51
0.0
 72
   100
 90
    32800
  1

281
     0
 71
     1
 74
     0
110
0.0
120
0.0
130
0.0
111
1.0
121
0.0
131
0.0
112
0.0
122
1.0
132
0.0
 79
     0
146
0.0
  0
ENDSEC
  0
SECTION
  2
OBJECTS
  0
DICTIONARY
  5
19
330
0
100
AcDbDictionary
281
     1
  3
ACAD_COLOR
350
7C5
  3
ACAD_GROUP
350
1A
  3
ACAD_LAYOUT
350
1E
  3
ACAD_MATERIAL
350
7C4
  3
ACAD_MLINESTYLE
350
1B
  3
ACAD_PLOTSETTINGS
350
22
  3
ACAD_PLOTSTYLENAME
350
1F
  3
ACAD_TABLESTYLE
350
7C6
  3
ACAD_VISUALSTYLE
350
350A6
  3
AcadDim
350
9C12
  3
AcDbVariableDictionary
350
88F
  3
DWGPROPS
350
35122
  0
DICTIONARY
  5
350C9
330
7
100
AcDbDictionary
280
     1
281
     1
  0
DICTIONARY
  5
891
330
2
100
AcDbDictionary
280
     1
281
     1
  3
ACAD_LAYERFILTERS
360
266D7
  3
ACAD_LAYERSTATES
360
8BE
  3
ACLYDICTIONARY
360
266D6
  0
DICTIONARY
  5
FFF
330
FFE
100
AcDbDictionary
280
     1
281
     1
  3
ADSK_XREC_LAYER_RECONCILED
360
1000
  0
DICTIONARY
  5
1002
330
1001
100
AcDbDictionary
280
     1
281
     1
  3
ADSK_XREC_LAYER_RECONCILED
360
1003
  0
DICTIONARY
  5
1DC41
330
1DC40
100
AcDbDictionary
280
     1
281
     1
  3
ADSK_XREC_LAYER_RECONCILED
360
1DC42
  0
DICTIONARY
  5
C53
330
A
100
AcDbDictionary
280
     1
281
     1
  3
ACAD_SORTENTS
360
C54
  0
DICTIONARY
  5
249E2
330
249E1
100
AcDbDictionary
280
     1
281
     1
  3
ACAD_SORTENTS
360
249E3
  0
DICTIONARY
  5
35128
330
8B7
100
AcDbDictionary
280
     1
281
     1
  3
ACAD_XREC_ROUNDTRIP
360
35129
  0
DICTIONARY
  5
3512A
330
8BA
100
AcDbDictionary
280
     1
281
     1
  3
ACAD_XREC_ROUNDTRIP
360
3512B
  0
DICTIONARY
  5
7C5
102
{ACAD_REACTORS
330
19
102
}
330
19
100
AcDbDictionary
281
     1
  0
DICTIONARY
  5
1A
102
{ACAD_REACTORS
330
19
102
}
330
19
100
AcDbDictionary
281
     1
  0
DICTIONARY
  5
1E
102
{ACAD_REACTORS
330
19
102
}
330
19
100
AcDbDictionary
281
     1
  3
Layout1
350
21
  3
Model
350
20
  0
DICTIONARY
  5
7C4
102
{ACAD_REACTORS
330
19
102
}
330
19
100
AcDbDictionary
281
     1
  3
ByBlock
350
350A5
  3
ByLayer
350
350A4
  3
Global
350
A2FC
  0
DICTIONARY
  5
1B
102
{ACAD_REACTORS
330
19
102
}
330
19
100
AcDbDictionary
281
     1
  3
Standard
350
1C
  0
DICTIONARY
  5
22
102
{ACAD_REACTORS
330
19
102
}
330
19
100
AcDbDictionary
281
     1
  0
ACDBDICTIONARYWDFLT
  5
1F
102
{ACAD_REACTORS
330
19
102
}
330
19
100
AcDbDictionary
281
     1
  3
Normal
350
1D
100
AcDbDictionaryWithDefault
340
1D
  0
DICTIONARY
  5
7C6
102
{ACAD_REACTORS
330
19
102
}
330
19
100
AcDbDictionary
281
     1
  3
Standard
350
7C7
  0
DICTIONARY
  5
350A6
102
{ACAD_REACTORS
330
19
102
}
330
19
100
AcDbDictionary
281
     1
  3
2dWireframe
350
350AC
  3
3D Hidden
350
350AE
  3
3dWireframe
350
350AD
  3
Basic
350
350AB
  3
Brighten
350
350B2
  3
ColorChange
350
350B6
  3
Conceptual
350
350AF
  3
Dim
350
350B1
  3
Facepattern
350
350B5
  3
Flat
350
350A7
  3
FlatWithEdges
350
350A8
  3
Gouraud
350
350A9
  3
GouraudWithEdges
350
350AA
  3
Linepattern
350
350B4
  3
Realistic
350
350B0
  3
Thicken
350
350B3
  0
XRECORD
  5
9C12
102
{ACAD_REACTORS
330
19
102
}
330
19
100
AcDbXrecord
280
     1
 90
   990106
  3

 60
     0
 61
     0
 62
     1
 63
     3
 64
     0
 65
     0
 66
     0
 67
     3
 68
     1
 69
     0
 70
     0
 71
     0
 72
     0
 40
0.0
170
     0
  0
DICTIONARY
  5
88F
102
{ACAD_REACTORS
330
19
102
}
330
19
100
AcDbDictionary
281
     1
  3
CTABLESTYLE
350
890
  3
DIMASSOC
350
8CC
  3
INDEXCTL
350
350EB
  3
PROJECTNAME
350
8CD
  3
SORTENTS
350
34FEE
  0
XRECORD
  5
35122
102
{ACAD_REACTORS
330
19
102
}
330
19
100
AcDbXrecord
280
     1
  1
DWGPROPS COOKIE
  2

  3

  4

  6

  7

  8
owner
  9

300
=
301
=
302
=
303
=
304
=
305
=
306
=
307
=
308
=
309
=
 40
0.6497153587962963
 41
2455426.923043982
 42
2457163.697137118
  1

 90
        0
  0
DICTIONARY
  5
266D7
102
{ACAD_REACTORS
330
891
102
}
330
891
100
AcDbDictionary
281
     1
  0
DICTIONARY
  5
8BE
102
{ACAD_REACTORS
330
891
102
}
330
891
100
AcDbDictionary
281
     1
  0
DICTIONARY
  5
266D6
102
{ACAD_REACTORS
330
891
102
}
330
891
100
AcDbDictionary
281
     1
1001
ACAD
1000
<All
  0
XRECORD
  5
1000
102
{ACAD_REACTORS
330
FFF
102
}
330
FFF
100
AcDbXrecord
280
     1
290
     1
  0
XRECORD
  5
1003
102
{ACAD_REACTORS
330
1002
102
}
330
1002
100
AcDbXrecord
280
     1
290
     1
  0
XRECORD
  5
1DC42
102
{ACAD_REACTORS
330
1DC41
102
}
330
1DC41
100
AcDbXrecord
280
     1
290
     1
  0
SORTENTSTABLE
  5
C54
102
{ACAD_REACTORS
330
C53
102
}
330
C53
100
AcDbSortentsTable
330
A
331
31A46
  5
31A46
331
34BE0
  5
34BE0
331
3333C
  5
3333C
331
33305
  5
33305
331
34D8E
  5
34D8E
331
34BE8
  5
34BE8
331
34F43
  5
34F2E
331
32FD7
  5
32FD7
331
34F4B
  5
34F51
331
34C3F
  5
34C3F
331
34BF0
  5
34BF0
331
34D96
  5
34D96
331
33315
  5
33315
331
3334C
  5
3334C
331
32FEF
  5
32FEF
331
34F53
  5
34F53
331
34C47
  5
34C47
331
34D9E
  5
34D9E
331
34BF8
  5
34BF8
331
34F04
  5
34F04
331
33354
  5
33354
331
347E1
  5
347E1
331
345AA
  5
345AA
331
34F0C
  5
34F27
331
34BAD
  5
34BAD
331
347E9
  5
347E9
331
345B2
  5
345B2
331
34ADE
  5
34AF2
331
347F1
  5
347F1
331
345BA
  5
345BA
331
34BB5
  5
34BB5
331
34AAF
  5
34AAF
331
34AEE
  5
34ADF
331
34504
  5
34504
331
34BBD
  5
34BBD
331
34AF6
  5
34AF1
331
34C00
  5
34C00
331
34BC1
  5
34BC1
331
3331D
  5
3331D
331
332E6
  5
332E6
331
32C19
  5
32C19
331
32DD0
  5
32DD0
331
34C08
  5
34C08
331
34BC9
  5
34BC9
331
34DAE
  5
34DAE
331
332EE
  5
332EE
331
33325
  5
33325
331
34C10
  5
34C10
331
34BD1
  5
34BD1
331
34F24
  5
34F3F
331
33B1C
  5
33B1C
331
32C31
  5
32C31
331
34D7F
  5
34D7F
331
34BD9
  5
34BD9
331
33335
  5
33335
331
3305F
  5
3305F
331
347F9
  5
347F9
331
3445D
  5
3445D
331
34AFE
  5
34AED
331
34801
  5
34801
331
34602
  5
34602
331
34811
  5
34811
331
34B9E
  5
34B9E
331
345A3
  5
345A3
331
34ACF
  5
34ACF
331
34AD7
  5
34AD7
331
34BA6
  5
34BA6
331
31A47
  5
31A47
331
32FA8
  5
32FA8
331
34C30
  5
34C30
331
34BE1
  5
34BE1
331
33306
  5
33306
331
3333D
  5
3333D
331
34F44
  5
34F24
331
34C38
  5
34C38
331
34BE9
  5
34BE9
331
34D8F
  5
34D8F
331
33345
  5
33345
331
34F4C
  5
34F0D
331
34C40
  5
34C40
331
34BF1
  5
34BF1
331
34D97
  5
34D97
331
34383
  5
34383
331
33316
  5
33316
331
3334D
  5
3334D
331
34F54
  5
34F55
331
34D9F
  5
34D9F
331
34BF9
  5
34BF9
331
34F05
  5
34F05
331
33355
  5
33355
331
345AB
  5
345AB
331
347E2
  5
347E2
331
34F0D
  5
34F2A
331
347EA
  5
347EA
331
34ADF
  5
34AF5
331
345B3
  5
345B3
331
34BAE
  5
34BAE
331
347F2
  5
347F2
331
345BB
  5
345BB
331
34BB6
  5
34BB6
331
34AEF
  5
34ADC
331
34BBE
  5
34BBE
331
34AF7
  5
34AF4
331
34C01
  5
34C01
331
34BC2
  5
34BC2
331
332E7
  5
332E7
331
3331E
  5
3331E
331
32C1A
  5
32C1A
331
34C09
  5
34C09
331
34BCA
  5
34BCA
331
33326
  5
33326
331
332EF
  5
332EF
331
34C11
  5
34C11
331
34BD2
  5
34BD2
331
34F25
  5
34F40
331
33058
  5
33058
331
34F2D
  5
34F49
331
34BDA
  5
34BDA
331
34D80
  5
34D80
331
341A5
  5
341A5
331
33336
  5
33336
331
332FF
  5
332FF
331
347FA
  5
347FA
331
3445E
  5
3445E
331
34DCF
  5
34DCF
331
34802
  5
34802
331
34AFF
  5
34AE9
331
3458C
  5
3458C
331
34B97
  5
34B97
331
34812
  5
34812
331
34603
  5
34603
331
34AD0
  5
34AD0
331
347DB
  5
347DB
331
345A4
  5
345A4
331
34B9F
  5
34B9F
331
34BA7
  5
34BA7
331
33060
  5
33060
331
32FA9
  5
32FA9
331
34C31
  5
34C31
331
34BE2
  5
34BE2
331
34D88
  5
34D88
331
3333E
  5
3333E
331
33307
  5
33307
331
33070
  5
33070
331
34C39
  5
34C39
331
34BEA
  5
34BEA
331
34D90
  5
34D90
331
341CD
  5
341CD
331
33346
  5
33346
331
34F4D
  5
34F2D
331
34C41
  5
34C41
331
34BF2
  5
34BF2
331
34D98
  5
34D98
331
33317
  5
33317
331
33088
  5
33088
331
3334E
  5
3334E
331
34384
  5
34384
331
34F55
  5
34F54
331
34F06
  5
34F08
331
34DA0
  5
34DA0
331
34BFA
  5
34BFA
331
33356
  5
33356
331
347E3
  5
347E3
331
34F0E
  5
34F2F
331
345AC
  5
345AC
331
34AD8
  5
34AD8
331
34BAF
  5
34BAF
331
347EB
  5
347EB
331
345B4
  5
345B4
331
34AE0
  5
34AF8
331
34BB7
  5
34BB7
331
347F3
  5
347F3
331
345BC
  5
345BC
331
34BBF
  5
34BBF
331
34AF0
  5
34AD9
331
34C02
  5
34C02
331
34BC3
  5
34BC3
331
3331F
  5
3331F
331
332E8
  5
332E8
331
34DB0
  5
34DB0
331
34BCB
  5
34BCB
331
34C0A
  5
34C0A
331
33327
  5
33327
331
332F0
  5
332F0
331
33051
  5
33051
331
34C12
  5
34C12
331
34BD3
  5
34BD3
331
34F26
  5
34F41
331
332F8
  5
332F8
331
33059
  5
33059
331
34F2E
  5
34F4A
331
34BDB
  5
34BDB
331
34D81
  5
34D81
331
33337
  5
33337
331
347FB
  5
347FB
331
34AF8
  5
34AFA
331
34F3E
  5
34F4C
331
3445F
  5
3445F
331
34803
  5
34803
331
3458D
  5
3458D
331
34B98
  5
34B98
331
34BA0
  5
34BA0
331
347DC
  5
347DC
331
345A5
  5
345A5
331
34AD1
  5
34AD1
331
33300
  5
33300
331
33061
  5
33061
331
34D89
  5
34D89
331
34BE3
  5
34BE3
331
3333F
  5
3333F
331
33308
  5
33308
331
34C3A
  5
34C3A
331
34D91
  5
34D91
331
34BEB
  5
34BEB
331
33347
  5
33347
331
341CE
  5
341CE
331
33079
  5
33079
331
34E00
  5
34E00
331
34F4E
  5
34F23
331
34C42
  5
34C42
331
34D99
  5
34D99
331
34BF3
  5
34BF3
331
3334F
  5
3334F
331
34385
  5
34385
331
34F56
  5
34F56
331
34F07
  5
34F0C
331
34DA1
  5
34DA1
331
34BFB
  5
34BFB
331
33357
  5
33357
331
34BA8
  5
34BA8
331
347E4
  5
347E4
331
345AD
  5
345AD
331
34AD9
  5
34ADB
331
34BB0
  5
34BB0
331
347EC
  5
347EC
331
345B5
  5
345B5
331
34AE1
  5
34AFB
331
34BB8
  5
34BB8
331
347F4
  5
347F4
331
345BD
  5
345BD
331
34AE9
  5
34AFC
331
34AF1
  5
34AE0
331
33318
  5
33318
331
34C03
  5
34C03
331
34BC4
  5
34BC4
331
33320
  5
33320
331
32DD3
  5
32DD3
331
34C0B
  5
34C0B
331
34BCC
  5
34BCC
331
33328
  5
33328
331
332F1
  5
332F1
331
33052
  5
33052
331
34BD4
  5
34BD4
331
34C13
  5
34C13
331
34F27
  5
34F43
331
33330
  5
33330
331
332F9
  5
332F9
331
32FA3
  5
32FA3
331
34D82
  5
34D82
331
34BDC
  5
34BDC
331
34F2F
  5
34F4B
331
347FC
  5
347FC
331
345F5
  5
345F5
331
34AF9
  5
34AF7
331
34F3F
  5
34F29
331
34460
  5
34460
331
34804
  5
34804
331
3458E
  5
3458E
331
34B99
  5
34B99
331
3459E
  5
3459E
331
34BA1
  5
34BA1
331
347DD
  5
347DD
331
345A6
  5
345A6
331
34AD2
  5
34AD2
331
33338
  5
33338
331
33301
  5
33301
331
34D8A
  5
34D8A
331
34BE4
  5
34BE4
331
33340
  5
33340
331
34C3B
  5
34C3B
331
34D92
  5
34D92
331
341CF
  5
341CF
331
33311
  5
33311
331
33348
  5
33348
331
34BEC
  5
34BEC
331
34F47
  5
34F4D
331
34F4F
  5
34F09
331
34E01
  5
34E01
331
34C43
  5
34C43
331
34D9A
  5
34D9A
331
33350
  5
33350
331
34386
  5
34386
331
32DBC
  5
32DBC
331
34BF4
  5
34BF4
331
34F00
  5
34F00
331
34DA2
  5
34DA2
331
34BFC
  5
34BFC
331
34F08
  5
34F22
331
34BA9
  5
34BA9
331
347E5
  5
347E5
331
345AE
  5
345AE
331
34ADA
  5
34ADE
331
34BB1
  5
34BB1
331
347ED
  5
347ED
331
345B6
  5
345B6
331
34BB9
  5
34BB9
331
347F5
  5
347F5
331
34AEA
  5
34AFD
331
34AF2
  5
34ADD
331
33358
  5
33358
331
33319
  5
33319
331
32C15
  5
32C15
331
32DC4
  5
32DC4
331
34DAA
  5
34DAA
331
34C04
  5
34C04
331
33321
  5
33321
331
33360
  5
33360
331
34BC5
  5
34BC5
331
34C0C
  5
34C0C
331
33B18
  5
33B18
331
33329
  5
33329
331
34BCD
  5
34BCD
331
34C14
  5
34C14
331
33331
  5
33331
331
341A0
  5
341A0
331
32FA4
  5
32FA4
331
34BD5
  5
34BD5
331
34F28
  5
34F45
331
34D83
  5
34D83
331
34C2C
  5
34C2C
331
34BDD
  5
34BDD
331
34AFA
  5
34AF9
331
34461
  5
34461
331
34805
  5
34805
331
3458F
  5
3458F
331
34B9A
  5
34B9A
331
3459F
  5
3459F
331
34BA2
  5
34BA2
331
34AD3
  5
34AD3
331
345A7
  5
345A7
331
347DE
  5
347DE
331
33302
  5
33302
331
33339
  5
33339
331
32D5D
  5
32D5D
331
34D8B
  5
34D8B
331
34BE5
  5
34BE5
331
34F40
  5
34F0A
331
34F48
  5
34F4E
331
34C3C
  5
34C3C
331
341D0
  5
341D0
331
33312
  5
33312
331
33349
  5
33349
331
3307B
  5
3307B
331
34BED
  5
34BED
331
34D93
  5
34D93
331
34F50
  5
34F06
331
34C44
  5
34C44
331
34D9B
  5
34D9B
331
3308B
  5
3308B
331
33351
  5
33351
331
34387
  5
34387
331
34BF5
  5
34BF5
331
34F01
  5
34F01
331
34F09
  5
34F25
331
34BFD
  5
34BFD
331
34DA3
  5
34DA3
331
34ADB
  5
34AE1
331
347E6
  5
347E6
331
345AF
  5
345AF
331
34BAA
  5
34BAA
331
34BB2
  5
34BB2
331
347EE
  5
347EE
331
345B7
  5
345B7
331
34BBA
  5
34BBA
331
347F6
  5
347F6
331
34501
  5
34501
331
34AF3
  5
34ADA
331
33359
  5
33359
331
3331A
  5
3331A
331
32DC5
  5
32DC5
331
32C16
  5
32C16
331
34C05
  5
34C05
331
33361
  5
33361
331
33322
  5
33322
331
33044
  5
33044
331
34BC6
  5
34BC6
331
34C4C
  5
34C4A
331
34C0D
  5
34C0D
331
33B19
  5
33B19
331
3332A
  5
3332A
331
33054
  5
33054
331
32F1D
  5
32F1D
331
32C26
  5
32C26
331
34BCE
  5
34BCE
331
34F21
  5
34F35
331
34D7C
  5
34D7C
331
34BD6
  5
34BD6
331
34F29
  5
34F47
331
32FA5
  5
32FA5
331
341A1
  5
341A1
331
34C2D
  5
34C2D
331
34BDE
  5
34BDE
331
34D84
  5
34D84
331
34AFB
  5
34AF6
331
34806
  5
34806
331
345FF
  5
345FF
331
34B9B
  5
34B9B
331
345A0
  5
345A0
331
34AD4
  5
34AD4
331
347DF
  5
347DF
331
34BA3
  5
34BA3
331
31A44
  5
31A44
331
3333A
  5
3333A
331
33303
  5
33303
331
34F41
  5
34F07
331
34BE6
  5
34BE6
331
34D8C
  5
34D8C
331
33074
  5
33074
331
32FD5
  5
32FD5
331
32D66
  5
32D66
331
34F49
  5
34F4F
331
34C3D
  5
34C3D
331
34BEE
  5
34BEE
331
34D94
  5
34D94
331
341D1
  5
341D1
331
33313
  5
33313
331
3334A
  5
3334A
331
32DAE
  5
32DAE
331
3307C
  5
3307C
331
34F51
  5
34F28
331
34F02
  5
34F02
331
34C45
  5
34C45
331
34BF6
  5
34BF6
331
34D9C
  5
34D9C
331
33352
  5
33352
331
345A8
  5
345A8
331
34F0A
  5
34F26
331
34DA4
  5
34DA4
331
34BFE
  5
34BFE
331
34BAB
  5
34BAB
331
347E7
  5
347E7
331
345B0
  5
345B0
331
34ADC
  5
34AEC
331
34BB3
  5
34BB3
331
347EF
  5
347EF
331
345B8
  5
345B8
331
34BBB
  5
34BBB
331
347F7
  5
347F7
331
34AEC
  5
34AFE
331
34502
  5
34502
331
34AF4
  5
34AEE
331
3335A
  5
3335A
331
3331B
  5
3331B
331
3302D
  5
3302D
331
32C17
  5
32C17
331
34DAC
  5
34DAC
331
34C4D
  5
34C4C
331
34BC7
  5
34BC7
331
34C06
  5
34C06
331
33362
  5
33362
331
33323
  5
33323
331
332EC
  5
332EC
331
32C1F
  5
32C1F
331
34D75
  5
34D75
331
34C0E
  5
34C0E
331
34BCF
  5
34BCF
331
34F22
  5
34F42
331
33B1A
  5
33B1A
331
3332B
  5
3332B
331
32F1E
  5
32F1E
331
33055
  5
33055
331
34F2A
  5
34F48
331
34BD7
  5
34BD7
331
34D7D
  5
34D7D
331
32FA6
  5
32FA6
331
34D85
  5
34D85
331
34BDF
  5
34BDF
331
34C2E
  5
34C2E
331
347FF
  5
347FF
331
34AFC
  5
34AF3
331
34600
  5
34600
331
34B9C
  5
34B9C
331
345A1
  5
345A1
331
34BA4
  5
34BA4
331
34AD5
  5
34AD5
331
31A45
  5
31A45
331
3333B
  5
3333B
331
33304
  5
33304
331
34D8D
  5
34D8D
331
34BE7
  5
34BE7
331
34F42
  5
34F0E
331
32FD6
  5
32FD6
331
34F4A
  5
34F50
331
34C3E
  5
34C3E
331
34D95
  5
34D95
331
34BEF
  5
34BEF
331
341D2
  5
341D2
331
33314
  5
33314
331
3334B
  5
3334B
331
32DAF
  5
32DAF
331
34F03
  5
34F03
331
34C46
  5
34C46
331
34D9D
  5
34D9D
331
34BF7
  5
34BF7
331
347E0
  5
347E0
331
345A9
  5
345A9
331
34DA5
  5
34DA5
331
34BFF
  5
34BFF
331
34BAC
  5
34BAC
331
347E8
  5
347E8
331
345B1
  5
345B1
331
34ADD
  5
34AEF
331
34BB4
  5
34BB4
331
347F0
  5
347F0
331
345B9
  5
345B9
331
34552
  5
34552
331
34BBC
  5
34BBC
331
34AED
  5
34AFF
331
34503
  5
34503
331
34AF5
  5
34AEA
331
34BC0
  5
34BC0
331
3335B
  5
3335B
331
3331C
  5
3331C
331
332E5
  5
332E5
331
32C18
  5
32C18
331
34C07
  5
34C07
331
34BC8
  5
34BC8
331
33324
  5
33324
331
332ED
  5
332ED
331
34BD0
  5
34BD0
331
34C0F
  5
34C0F
331
34F23
  5
34F3E
331
3332C
  5
3332C
331
33B1B
  5
33B1B
331
34D7E
  5
34D7E
331
34BD8
  5
34BD8
331
33334
  5
33334
331
32FA7
  5
32FA7
331
347F8
  5
347F8
331
34D86
  5
34D86
331
34C2F
  5
34C2F
331
34AFD
  5
34AF0
331
34800
  5
34800
331
34810
  5
34810
331
34601
  5
34601
331
34B9D
  5
34B9D
331
345A2
  5
345A2
331
34ACE
  5
34ACE
331
34BA5
  5
34BA5
331
34AD6
  5
34AD6
  0
SORTENTSTABLE
  5
249E3
102
{ACAD_REACTORS
330
249E2
102
}
330
249E2
100
AcDbSortentsTable
330
249E1
  0
XRECORD
  5
35129
102
{ACAD_REACTORS
330
35128
102
}
330
35128
100
AcDbXrecord
280
     1
102
SHADEPLOT
 70
     0
  0
XRECORD
  5
3512B
102
{ACAD_REACTORS
330
3512A
102
}
330
3512A
100
AcDbXrecord
280
     1
102
SHADEPLOT
 70
     0
  0
LAYOUT
  5
21
102
{ACAD_XDICTIONARY
360
8C0
102
}
102
{ACAD_REACTORS
330
1E
102
}
330
1E
100
AcDbPlotSettings
  1

  2
RICOH imagio MP C3300 RPCS
  4
A4
  6

 40
5.873749732971191
 41
5.873747825622558
 42
5.873748779296875
 43
5.873748779296875
 44
209.9733276367187
 45
296.9259948730469
 46
0.0
 47
0.0
 48
0.0
 49
0.0
140
0.0
141
0.0
142
1.0
143
1.0
 70
     0
 72
     0
 73
     1
 74
     0
  7
monochrome.ctb
 75
     0
147
1.0
148
0.0
149
0.0
100
AcDbLayout
  1
Layout1
 70
     0
 71
     1
 10
-0.2312499519408218
 20
-0.2312499894870548
 11
11.45874984621063
 21
8.035416452903447
 12
0.0
 22
0.0
 32
0.0
 14
1.122749993181603
 24
0.7804166500962629
 34
0.0
 15
10.10474993863444
 25
7.023749850866362
 35
0.0
146
0.0
 13
0.0
 23
0.0
 33
0.0
 16
1.0
 26
0.0
 36
0.0
 17
0.0
 27
1.0
 37
0.0
 76
     0
330
B
331
8B7
1001
ACAD_PSEXT
1000
RICOH imagio MP C3300 RPCS
1000
RICOH imagio MP C3300 RPCS
1000
192.168.2.250@imagio_Neo_C325@
1000
RPCS Driver (Windows 2000/XP/Server 2003/Vista)
1070
     0
  0
LAYOUT
  5
20
102
{ACAD_XDICTIONARY
360
35123
102
}
102
{ACAD_REACTORS
330
1E
102
}
330
1E
100
AcDbPlotSettings
  1

  2
RICOH imagio MP C3300 RPCS
  4
A3
  6

 40
5.873749732971191
 41
5.873747825622558
 42
5.873748779296875
 43
5.873748779296875
 44
296.9259948730469
 45
419.9466552734374
 46
-5.910751819610595
 47
-5.900420665740966
 48
203858.6856909245
 49
8898.08549668135
140
210158.6856909245
141
13353.08549668135
142
1.0
143
15.0
 70
  3236
 72
     1
 73
     1
 74
     4
  7
monochrome.ctb
 75
     0
147
0.0640131304962466
148
-203858.6856909245
149
-8898.08549668135
100
AcDbLayout
  1
Model
 70
     0
 71
     0
 10
0.0
 20
0.0
 11
0.0
 21
0.0
 12
0.0
 22
0.0
 32
0.0
 14
0.0
 24
0.0
 34
0.0
 15
0.0
 25
0.0
 35
0.0
146
0.0
 13
0.0
 23
0.0
 33
0.0
 16
0.0
 26
0.0
 36
0.0
 17
0.0
 27
0.0
 37
0.0
 76
     0
330
A
331
350A2
1001
ACAD_PSEXT
1000
RICOH imagio MP C3300 RPCS
1000
RICOH imagio MP C3300 RPCS
1000
IP_192.168.2.250
1000
RPCS Driver (Windows 2000/XP/Server 2003/2008/Vista/7)
1070
     0
  0
MATERIAL
  5
350A5
102
{ACAD_XDICTIONARY
360
35130
102
}
102
{ACAD_REACTORS
330
7C4
102
}
330
7C4
100
AcDbMaterial
  1
ByBlock
  0
MATERIAL
  5
350A4
102
{ACAD_XDICTIONARY
360
3512E
102
}
102
{ACAD_REACTORS
330
7C4
102
}
330
7C4
100
AcDbMaterial
  1
ByLayer
  0
MATERIAL
  5
A2FC
102
{ACAD_XDICTIONARY
360
3512C
102
}
102
{ACAD_REACTORS
330
7C4
102
}
330
7C4
100
AcDbMaterial
  1
Global
  0
MLINESTYLE
  5
1C
102
{ACAD_REACTORS
330
1B
102
}
330
1B
100
AcDbMlineStyle
  2
STANDARD
 70
     0
  3

 62
     0
 51
90.0
 52
90.0
 71
     2
 49
0.5
 62
   256
  6
BYLAYER
 49
-0.5
 62
   256
  6
BYLAYER
  0
ACDBPLACEHOLDER
  5
1D
102
{ACAD_REACTORS
330
1F
102
}
330
1F
  0
TABLESTYLE
  5
7C7
102
{ACAD_XDICTIONARY
360
35126
102
}
102
{ACAD_REACTORS
330
7C6
102
}
330
7C6
100
AcDbTableStyle
  3
Standard
 70
     0
 71
     0
 40
0.06
 41
0.06
280
     0
281
     0
  7
Standard
140
0.18
170
     2
 62
     0
 63
     7
283
     0
274
    -2
284
     1
 64
     0
275
    -2
285
     1
 65
     0
276
    -2
286
     1
 66
     0
277
    -2
287
     1
 67
     0
278
    -2
288
     1
 68
     0
279
    -2
289
     1
 69
     0
  7
Standard
140
0.25
170
     5
 62
     0
 63
     7
283
     0
274
    -2
284
     1
 64
     0
275
    -2
285
     1
 65
     0
276
    -2
286
     1
 66
     0
277
    -2
287
     1
 67
     0
278
    -2
288
     1
 68
     0
279
    -2
289
     1
 69
     0
  7
Standard
140
0.18
170
     5
 62
     0
 63
     7
283
     0
274
    -2
284
     1
 64
     0
275
    -2
285
     1
 65
     0
276
    -2
286
     1
 66
     0
277
    -2
287
     1
 67
     0
278
    -2
288
     1
 68
     0
279
    -2
289
     1
 69
     0
  0
VISUALSTYLE
  5
350AC
102
{ACAD_REACTORS
330
350A6
102
}
330
350A6
100
AcDbVisualStyle
  2
2dWireframe
 70
     4
 71
     0
 72
     2
 73
     0
 90
        0
 40
-0.6
 41
-30.0
 62
     5
 63
     7
 74
     1
 91
        4
 64
     7
 65
   257
 75
     1
175
     1
 42
1.0
 92
        0
 66
   257
 43
1.0
 76
     1
 77
     6
 78
     2
 67
     7
 79
     5
170
     0
171
     0
290
     0
174
     0
 93
        1
 44
0.0
173
     0
291
     0
 45
0.0
1001
ACAD
1000
AcDbSavedByObjectVersion
1070
     0
  0
VISUALSTYLE
  5
350AE
102
{ACAD_REACTORS
330
350A6
102
}
330
350A6
100
AcDbVisualStyle
  2
3D Hidden
 70
     6
 71
     1
 72
     2
 73
     2
 90
        0
 40
-0.6
 41
-30.0
 62
     5
 63
     7
 74
     2
 91
        2
 64
     7
 65
   257
 75
     2
175
     1
 42
40.0
 92
        0
 66
   257
 43
1.0
 76
     1
 77
     6
 78
     2
 67
     7
 79
     3
170
     0
171
     0
290
     0
174
     0
 93
        1
 44
0.0
173
     0
291
     0
 45
0.0
1001
ACAD
1000
AcDbSavedByObjectVersion
1070
     0
  0
VISUALSTYLE
  5
350AD
102
{ACAD_REACTORS
330
350A6
102
}
330
350A6
100
AcDbVisualStyle
  2
3dWireframe
 70
     5
 71
     0
 72
     2
 73
     0
 90
        0
 40
-0.6
 41
-30.0
 62
     5
 63
     7
 74
     1
 91
        4
 64
     7
 65
   257
 75
     1
175
     1
 42
1.0
 92
        0
 66
   257
 43
1.0
 76
     1
 77
     6
 78
     2
 67
     7
 79
     5
170
     0
171
     0
290
     0
174
     0
 93
        1
 44
0.0
173
     0
291
     0
 45
0.0
1001
ACAD
1000
AcDbSavedByObjectVersion
1070
     0
  0
VISUALSTYLE
  5
350AB
102
{ACAD_REACTORS
330
350A6
102
}
330
350A6
100
AcDbVisualStyle
  2
Basic
 70
     7
 71
     1
 72
     0
 73
     1
 90
        0
 40
-0.6
 41
-30.0
 62
     5
 63
     7
 74
     0
 91
        4
 64
     7
 65
   257
 75
     1
175
     1
 42
1.0
 92
        8
 66
     7
 43
1.0
 76
     1
 77
     6
 78
     2
 67
     7
 79
     5
170
     0
171
     0
290
     0
174
     0
 93
        1
 44
0.0
173
     0
291
     1
 45
0.0
1001
ACAD
1000
AcDbSavedByObjectVersion
1070
     0
  0
VISUALSTYLE
  5
350B2
102
{ACAD_REACTORS
330
350A6
102
}
330
350A6
100
AcDbVisualStyle
  2
Brighten
 70
    12
 71
     2
 72
     2
 73
     0
 90
        0
 40
-0.6
 41
-30.0
 62
     5
 63
     7
 74
     1
 91
        4
 64
     7
 65
   257
 75
     1
175
     1
 42
1.0
 92
        8
 66
     7
 43
1.0
 76
     1
 77
     6
 78
     2
 67
     7
 79
     5
170
     0
171
     0
290
     0
174
     0
 93
        1
 44
50.0
173
     0
291
     1
 45
0.0
1001
ACAD
1000
AcDbSavedByObjectVersion
1070
     0
  0
VISUALSTYLE
  5
350B6
102
{ACAD_REACTORS
330
350A6
102
}
330
350A6
100
AcDbVisualStyle
  2
ColorChange
 70
    16
 71
     2
 72
     2
 73
     3
 90
        0
 40
-0.6
 41
-30.0
 62
     5
 63
     8
 74
     1
 91
        4
 64
     7
 65
   257
 75
     1
175
     1
 42
1.0
 92
        8
 66
     8
 43
1.0
 76
     1
 77
     6
 78
     2
 67
     7
 79
     5
170
     0
171
     0
290
     0
174
     0
 93
        1
 44
0.0
173
     0
291
     1
 45
0.0
1001
ACAD
1000
AcDbSavedByObjectVersion
1070
     0
  0
VISUALSTYLE
  5
350AF
102
{ACAD_REACTORS
330
350A6
102
}
330
350A6
100
AcDbVisualStyle
  2
Conceptual
 70
     9
 71
     3
 72
     2
 73
     0
 90
        0
 40
-0.6
 41
-30.0
 62
     5
 63
     7
 74
     2
 91
        2
 64
     7
 65
   257
 75
     1
175
     1
 42
40.0
 92
        8
 66
     7
 43
1.0
 76
     1
 77
     6
 78
     2
 67
     7
 79
     3
170
     0
171
     0
290
     0
174
     0
 93
        1
 44
0.0
173
     0
291
     0
 45
0.0
1001
ACAD
1000
AcDbSavedByObjectVersion
1070
     0
  0
VISUALSTYLE
  5
350B1
102
{ACAD_REACTORS
330
350A6
102
}
330
350A6
100
AcDbVisualStyle
  2
Dim
 70
    11
 71
     2
 72
     2
 73
     0
 90
        0
 40
-0.6
 41
-30.0
 62
     5
 63
     7
 74
     1
 91
        4
 64
     7
 65
   257
 75
     1
175
     1
 42
1.0
 92
        8
 66
     7
 43
1.0
 76
     1
 77
     6
 78
     2
 67
     7
 79
     5
170
     0
171
     0
290
     0
174
     0
 93
        1
 44
-50.0
173
     0
291
     1
 45
0.0
1001
ACAD
1000
AcDbSavedByObjectVersion
1070
     0
  0
VISUALSTYLE
  5
350B5
102
{ACAD_REACTORS
330
350A6
102
}
330
350A6
100
AcDbVisualStyle
  2
Facepattern
 70
    15
 71
     2
 72
     2
 73
     0
 90
        0
 40
-0.6
 41
-30.0
 62
     5
 63
     7
 74
     1
 91
        4
 64
     7
 65
   257
 75
     1
175
     1
 42
1.0
 92
        8
 66
     7
 43
1.0
 76
     1
 77
     6
 78
     2
 67
     7
 79
     5
170
     0
171
     0
290
     0
174
     0
 93
        1
 44
0.0
173
     0
291
     1
 45
0.0
1001
ACAD
1000
AcDbSavedByObjectVersion
1070
     0
  0
VISUALSTYLE
  5
350A7
102
{ACAD_REACTORS
330
350A6
102
}
330
350A6
100
AcDbVisualStyle
  2
Flat
 70
     0
 71
     2
 72
     1
 73
     1
 90
        2
 40
-0.6
 41
30.0
 62
     5
 63
     7
 74
     0
 91
        4
 64
     7
 65
   257
 75
     1
175
     1
 42
1.0
 92
        8
 66
     7
 43
1.0
 76
     1
 77
     6
 78
     2
 67
     7
 79
     5
170
     0
171
     0
290
     0
174
     0
 93
       13
 44
0.0
173
     0
291
     1
 45
0.0
1001
ACAD
1000
AcDbSavedByObjectVersion
1070
     0
  0
VISUALSTYLE
  5
350A8
102
{ACAD_REACTORS
330
350A6
102
}
330
350A6
100
AcDbVisualStyle
  2
FlatWithEdges
 70
     1
 71
     2
 72
     1
 73
     1
 90
        2
 40
-0.6
 41
30.0
 62
     5
 63
     7
 74
     1
 91
        4
 64
     7
 65
   257
 75
     1
175
     1
 42
1.0
 92
        0
 66
   257
 43
1.0
 76
     1
 77
     6
 78
     2
 67
     7
 79
     5
170
     0
171
     0
290
     0
174
     0
 93
       13
 44
0.0
173
     0
291
     1
 45
0.0
1001
ACAD
1000
AcDbSavedByObjectVersion
1070
     0
  0
VISUALSTYLE
  5
350A9
102
{ACAD_REACTORS
330
350A6
102
}
330
350A6
100
AcDbVisualStyle
  2
Gouraud
 70
     2
 71
     2
 72
     2
 73
     1
 90
        2
 40
-0.6
 41
30.0
 62
     5
 63
     7
 74
     0
 91
        4
 64
     7
 65
   257
 75
     1
175
     1
 42
1.0
 92
        0
 66
     7
 43
1.0
 76
     1
 77
     6
 78
     2
 67
     7
 79
     5
170
     0
171
     0
290
     0
174
     0
 93
       13
 44
0.0
173
     0
291
     1
 45
0.0
1001
ACAD
1000
AcDbSavedByObjectVersion
1070
     0
  0
VISUALSTYLE
  5
350AA
102
{ACAD_REACTORS
330
350A6
102
}
330
350A6
100
AcDbVisualStyle
  2
GouraudWithEdges
 70
     3
 71
     2
 72
     2
 73
     1
 90
        2
 40
-0.6
 41
30.0
 62
     5
 63
     7
 74
     1
 91
        4
 64
     7
 65
   257
 75
     1
175
     1
 42
1.0
 92
        0
 66
   257
 43
1.0
 76
     1
 77
     6
 78
     2
 67
     7
 79
     5
170
     0
171
     0
290
     0
174
     0
 93
       13
 44
0.0
173
     0
291
     1
 45
0.0
1001
ACAD
1000
AcDbSavedByObjectVersion
1070
     0
  0
VISUALSTYLE
  5
350B4
102
{ACAD_REACTORS
330
350A6
102
}
330
350A6
100
AcDbVisualStyle
  2
Linepattern
 70
    14
 71
     2
 72
     2
 73
     0
 90
        0
 40
-0.6
 41
-30.0
 62
     5
 63
     7
 74
     1
 91
        4
 64
     7
 65
   257
 75
     7
175
     7
 42
1.0
 92
        8
 66
     7
 43
1.0
 76
     1
 77
     6
 78
     2
 67
     7
 79
     5
170
     0
171
     0
290
     0
174
     0
 93
        1
 44
0.0
173
     0
291
     1
 45
0.0
1001
ACAD
1000
AcDbSavedByObjectVersion
1070
     0
  0
VISUALSTYLE
  5
350B0
102
{ACAD_REACTORS
330
350A6
102
}
330
350A6
100
AcDbVisualStyle
  2
Realistic
 70
     8
 71
     2
 72
     2
 73
     0
 90
        0
 40
-0.6
 41
-30.0
 62
     5
 63
     7
 74
     1
 91
        0
 64
     7
 65
   257
 75
     1
175
     1
 42
1.0
 92
        8
 66
     8
 43
1.0
 76
     1
 77
     6
 78
     2
 67
     7
 79
     5
170
     0
171
     0
290
     0
174
     0
 93
       13
 44
0.0
173
     0
291
     0
 45
0.0
1001
ACAD
1000
AcDbSavedByObjectVersion
1070
     0
  0
VISUALSTYLE
  5
350B3
102
{ACAD_REACTORS
330
350A6
102
}
330
350A6
100
AcDbVisualStyle
  2
Thicken
 70
    13
 71
     2
 72
     2
 73
     0
 90
        0
 40
-0.6
 41
-30.0
 62
     5
 63
     7
 74
     1
 91
        4
 64
     7
 65
   257
 75
     1
175
     1
 42
1.0
 92
       12
 66
     7
 43
1.0
 76
     1
 77
     6
 78
     2
 67
     7
 79
     5
170
     0
171
     0
290
     0
174
     0
 93
        1
 44
0.0
173
     0
291
     1
 45
0.0
1001
ACAD
1000
AcDbSavedByObjectVersion
1070
     0
  0
DICTIONARYVAR
  5
890
102
{ACAD_REACTORS
330
88F
102
}
330
88F
100
DictionaryVariables
280
     0
  1
STANDARD
  0
DICTIONARYVAR
  5
8CC
102
{ACAD_REACTORS
330
88F
102
}
330
88F
100
DictionaryVariables
280
     0
  1
1
  0
DICTIONARYVAR
  5
350EB
102
{ACAD_REACTORS
330
88F
102
}
330
88F
100
DictionaryVariables
280
     0
  1
0
  0
DICTIONARYVAR
  5
8CD
102
{ACAD_REACTORS
330
88F
102
}
330
88F
100
DictionaryVariables
280
     0
  1

  0
DICTIONARYVAR
  5
34FEE
102
{ACAD_REACTORS
330
88F
102
}
330
88F
100
DictionaryVariables
280
     0
  1
96
  0
DICTIONARY
  5
8C0
330
21
100
AcDbDictionary
280
     1
281
     1
  3
ACAD_XREC_ROUNDTRIP
360
35125
  3
ADSK_XREC_LAYOUTTHUMBNAIL
360
8C1
  0
DICTIONARY
  5
35123
330
20
100
AcDbDictionary
280
     1
281
     1
  3
ACAD_XREC_ROUNDTRIP
360
35124
  0
DICTIONARY
  5
35130
330
350A5
100
AcDbDictionary
280
     1
281
     1
  3
ACAD_XREC_ROUNDTRIP
360
35131
  0
DICTIONARY
  5
3512E
330
350A4
100
AcDbDictionary
280
     1
281
     1
  3
ACAD_XREC_ROUNDTRIP
360
3512F
  0
DICTIONARY
  5
3512C
330
A2FC
100
AcDbDictionary
280
     1
281
     1
  3
ACAD_XREC_ROUNDTRIP
360
3512D
  0
DICTIONARY
  5
35126
330
7C7
100
AcDbDictionary
280
     1
281
     1
  3
ACAD_XREC_ROUNDTRIP
360
35127
  0
XRECORD
  5
35125
102
{ACAD_REACTORS
330
8C0
102
}
330
8C0
100
AcDbXrecord
280
     1
102
SHADEPLOT
 70
     0
102
SHADEPLOTRESLEVEL
 70
     2
102
SHADEPLOTCUSTOMDPI
 70
   300
  0
XRECORD
  5
8C1
102
{ACAD_REACTORS
330
8C0
102
}
330
8C0
100
AcDbXrecord
280
     1
310
28000000B40000007F00000001000800000000004C590000000000000000000000010000000000000000000000000000FFFFFF000000000000000000000000000000000000000000000000000000000000000000330000006600000099000000CC000000FF00000000330000333300006633000099330000CC330000FF3300
310
0000660000336600006666000099660000CC660000FF66000000990000339900006699000099990000CC990000FF99000000CC000033CC000066CC000099CC0000CCCC0000FFCC000000FF000033FF000066FF000099FF0000CCFF0000FFFF000000003300330033006600330099003300CC003300FF003300003333003333
310
33006633330099333300CC333300FF33330000663300336633006666330099663300CC663300FF66330000993300339933006699330099993300CC993300FF99330000CC330033CC330066CC330099CC3300CCCC3300FFCC330000FF330033FF330066FF330099FF3300CCFF3300FFFF330000006600330066006600660099
310
006600CC006600FF00660000336600333366006633660099336600CC336600FF33660000666600336666006666660099666600CC666600FF66660000996600339966006699660099996600CC996600FF99660000CC660033CC660066CC660099CC6600CCCC6600FFCC660000FF660033FF660066FF660099FF6600CCFF6600
310
FFFF660000009900330099006600990099009900CC009900FF00990000339900333399006633990099339900CC339900FF33990000669900336699006666990099669900CC669900FF66990000999900339999006699990099999900CC999900FF99990000CC990033CC990066CC990099CC9900CCCC9900FFCC990000FF99
310
0033FF990066FF990099FF9900CCFF9900FFFF99000000CC003300CC006600CC009900CC00CC00CC00FF00CC000033CC003333CC006633CC009933CC00CC33CC00FF33CC000066CC003366CC006666CC009966CC00CC66CC00FF66CC000099CC003399CC006699CC009999CC00CC99CC00FF99CC0000CCCC0033CCCC0066CC
310
CC0099CCCC00CCCCCC00FFCCCC0000FFCC0033FFCC0066FFCC0099FFCC00CCFFCC00FFFFCC000000FF003300FF006600FF009900FF00CC00FF00FF00FF000033FF003333FF006633FF009933FF00CC33FF00FF33FF000066FF003366FF006666FF009966FF00CC66FF00FF66FF000099FF003399FF006699FF009999FF00CC
310
99FF00FF99FF0000CCFF0033CCFF0066CCFF0099CCFF00CCCCFF00FFCCFF0000FFFF0033FFFF0066FFFF0099FFFF00CCFFFF00FFFFFF00000000000D0D0D001A1A1A00282828003535350043434300505050005D5D5D006B6B6B00787878008686860093939300A1A1A100AEAEAE00BBBBBB00C9C9C900D6D6D600E4E4E400
310
F1F1F100FFFFFF0000000000000000000000000000000000000000000000000000000000000000000000000000000000F5F5F5F5F5F5F5F5F5F5F5F5F5F5F5F5F5F5F5F5F5F5F5F5F5F5F5F5F5F5F5F5F5F5F5F5F5F5F5F5F5F5F5F5F5F5F5F5F5F5F5F5F5F5F5F5F5F5F5F5F5F5F5F5F5F5F5F5F5F5F5F5F5F5F5F5F5F5F5
310
F5F5F5F5F5F5F5F5F5F5F5F5F5F5F5F5F5F5F5F5F5F5F5F5F5F5F5F5F5F5F5F5F5F5F5F5F5F5F5F5F5F5F5F5F5F5F5F5F5F5F5F5F5F5F5F5F5F5F5F5F5F5F5F5F5F5F5F5F5F5F5F5F5F5F5F5F5F5F5F5F5F5F5F5F5F5F5F5F5F5F5F5F5F5F5F5F5F5F5F5F5F5E2E2E2E2E2E2E2E2E2E2E2E2E2E2E2E2E2E2E2E2E2E2E2E2E2
310
E2E2E2E2E2E2E2E2E2E2E2E2E2E2E2E2E2E2E2E2E2E2E2E2E2E2E2E2E2E2E2E2E2E2E2E2E2E2E2E2E2E2E2E2E2E2E2E2E2E2E2E2E2E2E2E2E2E2E2E2E2E2E2E2E2E2E2E2E2E2E2E2E2E2E2E2E2E2E2E2E2E2E2E2E2E2E2E2E2E2E2E2E2E2E2E2E2E2E2E2E2E2E2E2E2E2E2E2E2E2E2E2E2E2E2E2E2E2E2E2E2E2E2E2E2E2E2
310
E2E2E2E2E2E2E2E2E2E2E2E2E2E2E2E2E2E2E2E2E2E2E2E2E2E2F5F5E2E2E2E2E2E2E2E2E2E2E2E2E2E2E2E2E2E2E2E2E2E2E2E2E2E2E2E2E2E2E2E2E2E2E2E2E2E2E2E2E2E2E2E2E2E2E2E2E2E2E2E2E2E2E2E2E2E2E2E2E2E2E2E2E2E2E2E2E2E2E2E2E2E2E2E2E2E2E2E2E2E2E2E2E2E2E2E2E2E2E2E2E2E2E2E2E2E2E2
310
E2E2E2E2E2E2E2E2E2E2E2E2E2E2E2E2E2E2E2E2E2E2E2E2E2E2E2E2E2E2E2E2E2E2E2E2E2E2E2E2E2E2E2E2E2E2E2E2E2E2E2E2E2E2E2E2E2E2E2E2E2E2E2E2E2E2E2E2E2E2E2E2E2E2E2E2E2E2E2F5F5E2E2E2E2E2E2E2E2E2E2E2E2E2E2E2E2E2E2E2E2E2E2E2E2E2E2E2E2E2E2E2E2E2E2E2E2E2E2E2E2E2E2E2E2E2E2
310
E2E2E2E2E2E2E2E2E2E2E2E2E2E2E2E2E2E2E2E2E2E2E2E2E2E2E2E2E2E2E2E2E2E2E2E2E2E2E2E2E2E2E2E2E2E2E2E2E2E2E2E2E2E2E2E2E2E2E2E2E2E2E2E2E2E2E2E2E2E2E2E2E2E2E2E2E2E2E2E2E2E2E2E2E2E2E2E2E2E2E2E2E2E2E2E2E2E2E2E2E2E2E2E2E2E2E2E2E2E2E2E2E2E2E2E2E2E2E2E2E2E2E2E2E2E2E2
310
E2E2E2E2E2F5F5E2E2E2F5F5F5F5F5F5F5F5E2E2E2E2E2E2E2E2E2F5F5F5F5F5F5F5F5F5F5F5F5F5F5F5F5E2E2E2E2E2E2E2E2E2F5F5F5F5F5F5F5F5F5F5F5F5F5F5F5E2E2E2E2E2E2E2E2E2F5F5F5F5F5F5F5F5F5F5F5F5F5F5F5F5E2E2E2E2E2E2E2E2F5F5F5F5F5F5F5F5F5F5F5F5F5F5F5F5E2E2E2E2E2E2E2E2E2F5F5
310
F5F5F5F5F5F5F5F5F5F5F5F5F5E2E2E2E2E2E2E2E2E2F5F5F5F5F5F5F5F5F5F5F5F5F5F5F5F5E2E2E2E2E2E2E2E2E2F5F5F5F5F5F5F5F5E2E2E2F5F5E2E2E2F5E2E2E2E2E2E2E2E2E2E2E2E2E2E2E2E2E2E2E2E2E2E2E2E2E2E2E2E2E2E2E2E2E2E2E2E2E2E2E2E2E2E2E2E2E2E2E2E2E2E2E2E2E2E2E2E2E2E2E2E2E2E2E2
310
E2E2E2E2E2E2E2E2E2E2E2E2E2E2E2E2E2E2E2E2E2E2E2E2E2E2E2E2E2E2E2E2E2E2E2E2E2E2E2E2E2E2E2E2E2E2E2E2E2E2E2E2E2E2E2E2E2E2E2E2E2E2E2E2E2E2E2E2E2E2E2E2E2E2E2E2E2E2E2E2E2E2E2E2E2E2E2E2E2E2E2E2E2E2E2E2E2E2E2E2E2E2E2E2E2E2E2F5E2E2E2F5F5E2E2E2F5E2E2E2E2E2E2E2E2E2E2
310
E2E2E2E2E2E2E2E2E2E2E2E2E2E2E2E2E2E2E2E2E2E2E2E2E2E2E2E2E2E2E2E2E2E2E2E2E2E2E2E2E2E2E2E2E2E2E2E2E2E2E2E2E2E2E2E2E2E2E2E2E2E2E2E2E2E2E2E2E2E2E2E2E2E2E2E2E2E2E2E2E2E2E2E2E2E2E2E2E2E2E2E2E2E2E2E2E2E2E2E2E2E2E2E2E2E2E2E2E2E2E2E2E2E2E2E2E2E2E2E2E2E2E2E2E2E2E2
310
E2E2E2E2E2E2E2E2E2E2E2E2E2E2E2E2E2E2E2E2E2E2E2E2E2E2E2E2E2E2E2E2E2F5E2E2E2F5F5E2E2E2F5E2E2E2E2E2E2E2E2E2E2E2E2E2E2E2E2E2E2E2E2E2E2E2E2E2E2E2E2E2E2E2E2E2E2E2E2E2E2E2E2E2E2E2E2E2E2E2E2E2E2E2E2E2E2E2E2E2E2E2E2E2E2E2E2E2E2E2E2E2E2E2E2E2E2E2E2E2E2E2E2E2E2E2E2
310
E2E2E2E2E2E2E2E2E2E2E2E2E2E2E2E2E2E2E2E2E2E2E2E2E2E2E2E2E2E2E2E2E2E2E2E2E2E2E2E2E2E2E2E2E2E2E2E2E2E2E2E2E2E2E2E2E2E2E2E2E2E2E2E2E2E2E2E2E2E2E2E2E2E2E2E2E2E2E2E2E2E2E2E2E2E2F5E2E2E2F5F5E2E2E2F5E2E2E2E2E2E2E2E2E2E2E2E2E2E2E2E2E2E2E2E2E2E2E2E2E2E2E2E2E2E2E2
310
E2E2E2E2E2E2E2E2E2E2E2E2E2E2E2E2E2E2E2E2E2E2E2E2E2E2E2E2E2E2E2E2E2E2E2E2E2E2E2E2E2E2E2E2E2E2E2E2E2E2E2E2E2E2E2E2E2E2E2E2E2E2E2E2E2E2E2E2E2E2E2E2E2E2E2E2E2E2E2E2E2E2E2E2E2E2E2E2E2E2E2E2E2E2E2E2E2E2E2E2E2E2E2E2E2E2E2E2E2E2E2E2E2E2E2E2E2E2E2E2E2E2E2E2E2E2E2
310
E2E2E2E2E2E2E2E2E2E2E2E2F5E2E2E2F5F5E2E2E2F5E2E2E2E2E2E2E2E2E2E2E2E2E2E2E2E2E2E2E2E2E2E2E2E2E2E2E2E2E2E2E2E2E2E2E2E2E2E2E2E2E2E2E2E2E2E2E2E2E2E2E2E2E2E2E2E2E2E2E2E2E2E2E2E2E2E2E2E2E2E2E2E2E2E2E2E2E2E2E2E2E2E2E2E2E2E2E2E2E2E2E2E2E2E2E2E2E2E2E2E2E2E2E2E2E2
310
E2E2E2E2E2E2E2E2E2E2E2E2E2E2E2E2E2E2E2E2E2E2E2E2E2E2E2E2E2E2E2E2E2E2E2E2E2E2E2E2E2E2E2E2E2E2E2E2E2E2E2E2E2E2E2E2E2E2E2E2E2E2E2E2E2F5E2E2E2F5F5E2E2E2F5E2E2E2E2E2E2E2E2E2E2E2E2E2E2E2E2E2E2E2E2E2E2E2E2E2E2E2E2E2E2E2E2E2E2E2E2E2E2E2E2E2E2E2E2E2E2E2E2E2E2E2E2
310
E2E2E2E2E2E2E2E2E2E2E2E2E2E2E2E2E2E2E2E2E2E2E2E2E2E2E2E2E2E2E2E2E2E2E2E2E2E2E2E2E2E2E2E2E2E2E2E2E2E2E2E2E2E2E2E2E2E2E2E2E2E2E2E2E2E2E2E2E2E2E2E2E2E2E2E2E2E2E2E2E2E2E2E2E2E2E2E2E2E2E2E2E2E2E2E2E2E2E2E2E2E2E2E2E2E2E2E2E2E2E2E2E2E2E2E2E2E2F5E2E2E2F5F5E2E2E2
310
F5E2E2E2E2E2E2E2E2E2E2E2E2E2E2E2E2E2E2E2E2E2E2E2E2E2E2E2E2E2E2E2E2E2E2E2E2E2E2E2E2E2E2E2E2E2E2E2E2E2E2E2E2E2E2E2E2E2E2E2E2E2E2E2E2E2E2E2E2E2E2E2E2E2E2E2E2E2E2E2E2E2E2E2E2E2E2E2E2E2E2E2E2E2E2E2E2E2E2E2E2E2E2E2E2E2E2E2E2E2E2E2E2E2E2E2E2E2E2E2E2E2E2E2E2E2E2
310
E2E2E2E2E2E2E2E2E2E2E2E2E2E2E2E2E2E2E2E2E2E2E2E2E2E2E2E2E2E2E2E2E2E2E2E2E2E2E2E2E2E2E2E2F5E2E2E2F5F5E2E2E2E2E2E2E2E2E2E2E2E2E2E2E2E2E2E2E2E2E2E2E2E2E2E2E2E2E2E2E2E2E2E2E2E2E2E2E2E2E2E2E2E2E2E2E2E2E2E2E2E2E2E2E2E2E2E2E2E2E2E2E2E2E2E2E2E2E2E2E2E2E2E2E2E2E2
310
E2E2E2E2E2E2E2E2E2E2E2E2E2E2E2E2E2E2E2E2E2E2E2E2E2E2E2E2E2E2E2E2E2E2E2E2E2E2E2E2E2E2E2E2E2E2E2E2E2E2E2E2E2E2E2E2E2E2E2E2E2E2E2E2E2E2E2E2E2E2E2E2E2E2E2E2E2E2E2E2E2E2E2E2E2E2E2E2E2E2E2E2E2E2E2E2E2E2E2E2E2F5F5E2E2E2E2E2E2E2E2E2E2E2E2E2E2E2E2E2E2E2E2E2E2E2E2
310
E2E2E2E2E2E2E2E2E2E2E2E2E2E2E2E2E2E2E2E2E2E2E2E2E2E2E2E2E2E2E2E2E2E2E2E2E2E2E2E2E2E2E2E2E2E2E2E2E2E2E2E2E2E2E2E2E2E2E2E2E2E2E2E2E2E2E2E2E2E2E2E2E2E2E2E2E2E2E2E2E2E2E2E2E2E2E2E2E2E2E2E2E2E2E2E2E2E2E2E2E2E2E2E2E2E2E2E2E2E2E2E2E2E2E2E2E2E2E2E2E2E2E2E2E2E2E2
310
E2E2E2E2E2E2E2E2E2E2E2E2E2E2E2E2E2E2E2E2E2E2E2E2E2E2E2F5F5E2E2E2E2E2E2E2E2E2E2E2E2E2E2E2E2E2E2E2E2E2E2E2E2E2E2E2E2E2E2E2E2E2E2E2E2E2E2E2E2E2E2E2E2E2E2E2E2E2E2E2E2E2E2E2E2E2E2E2E2E2E2E2E2E2E2E2E2E2E2E2E2E2E2E2E2E2E2E2E2E2E2E2E2E2E2E2E2E2E2E2E2E2E2E2E2E2E2
310
E2E2E2E2E2E2E2E2E2E2E2E2E2E2E2E2E2E2E2E2E2E2E2E2E2E2E2E2E2E2E2E2E2E2E2E2E2E2E2E2E2E2E2E2E2E2E2E2E2E2E2E2E2E2E2E2E2E2E2E2E2E2E2E2E2E2E2E2E2E2E2E2E2E2E2E2E2E2E2E2F5F5E2E2E2E2E2E2E2E2E2E2E2E2E2E2E2E2E2E2E2E2F5F5F5F5F5F5F5F5F5F5F5F5F5F5F5F5F5F5F5F5F5F5F5F5F5
310
F5F5F5F5F5F5F5F5F5F5F5F5F5F5F5F5F5F5F5F5F5F5F5F5F5F5F5F5F5F5F5F5F5F5F5F5F5F5F5F5F5F5F5F5F5F5F5F5F5F5F5F5F5F5F5F5F5F5F5F5F5F5F5F5F5F5F5F5F5F5F5F5F5F5F5F5F5F5F5F5F5F5F5F5F5F5F5F5F5F5F5F5F5F5F5F5F5F5F5F5F5F5F5F5F5F5F5F5F5F5F5F5F5E2E2E2E2E2E2E2E2E2E2E2E2E2E2
310
E2E2E2E2E2E2F5F5E2E2E2E2E2E2E2E2E2E2E2E2E2E2E2E2E2E2E2E2F5E2DCDCDCDCDCDCDCDCDCDCDCDCDCDCDCDCDCDCDCDCDCDCDCDCDCDCDCDCDCDCDCDCDCDCDCDCDCDCDCDCDCDCDCDCDCDCDCDCDCDCDCDCDCDCDCDCDCDCDCDCDCDCDCDCDCDCDCDCDCDCDCDCDCDCDCDCDCDCDCDCDCDCDCDCDCDCDCDCDCDCDCDCDCDCDCDCDC
310
DCDCDCDCDCDCDCDCDCDCDCDCDCDCDCDCDCDCDCDCDCDCDCDCDCDCDCDCDCDCDCDCDCDCDCDCDCE2F5E2E2E2E2E2E2E2E2E2E2E2E2E2E2E2E2E2E2E2E2F5F5E2E2E2E2E2E2E2E2E2E2E2E2E2E2E2E2E2E2E2E2F5E2DCE2E2E2E2E2E2E2E2E2E2E2E2E2E2E2E2E2E2E2E2E2E2E2E2E2E2E2E2E2E2E2E2E2E2E2E2E2E2E2E2E2E2E2
310
E2E2E2E2E2E2E2E2E2E2E2E2E2E2E2E2E2E2E2E2E2E2E2E2E2E2E2E2E2E2E2E2E2E2E2E2E2E2E2E2E2E2E2E2E2E2E2E2E2E2E2E2E2E2E2E2E2E2E2E2E2E2E2E2E2E2E2E2E2E2E2E2E2E2E2E2E2E2E2E2E2E2E2E2E2E2E2E2E2DCE2F5E2E2E2E2E2E2E2E2E2E2E2E2E2E2E2E2E2E2E2E2F5F5E2E2E2E2E2E2E2E2E2E2E2E2E2
310
E2E2E2E2E2E2E2F5E2DCE2E2E2E2E2E2E2E2E2E2E2E2E2E2E2E2E2E2E2E2E2E2E2E2E2E2E2E2E2E2E2E2E2E2E2E2E2E2E2E2E2E2E2E2E2E2E2E2E2E2E2E2E2E2E2E2E2E2E2E2E2E2E2E2E2E2E2E2E2E2E2E2E2E2E2E2E2E2E2E2E2E2E2E2E2E2E2E2E2E2E2E2E2E2E2E2E2E2E2E2E2E2E2E2E2E2E2E2E2E2E2E2E2E2E2E2E2
310
E2E2E2E2E2E2E2E2E2E2E2E2E2E2E2DCE2F5E2E2E2E2E2E2E2E2E2E2E2E2E2E2E2E2E2E2E2E2F5F5E2E2E2E2E2E2E2E2E2E2E2E2E2E2E2E2E2E2E2E2F5E2DCE2E2E2E2E2E2E2E2E2E2E2E2E2E2E2E2E2E2E2E2E2E2E2E2E2E2E2E2E2E2E2E2E2E2E2E2E2E2E2E2E2E2E2E2E2E2E2E2E2E2E2E2E2E2E2E2E2E2E2E2E2E2E2E2
310
E2E2E2E2E2E2E2E2E2E2E2E2E2E2E2E2E2E2E2E2E2E2E2E2E2E2E2E2E2E2E2E2E2E2E2E2E2E2E2E2E2E2E2E2E2E2E2E2E2E2E2E2E2E2E2E2E2E2E2E2E2E2E2E2E2E2E2E2DCE2F5E2E2E2E2E2E2E2E2E2E2E2E2E2E2E2E2E2E2E2E2F5F5E2E2E2F5E2E2E2E2E2E2E2E2E2E2E2E2E2E2E2E2F5E2DCE2E2E2E2E2E2E2E2E2E2E2
310
E2E2E2E2E2E2E2E2E2E2E2E2E2E2E2E2E2E2E2E2E2E2E2E2E2E2E2E2E2E2E2E2E2E2E2E2E2E2E2E2E2E2E2E2E2E2E2E2E2E2E2E2E2E2E2E2E2E2E2E2E2E2E2E2E2E2E2E2E2E2E2E2E2E2E2E2E2E2E2E2E2E2E2E2E2E2E2E2E2E2E2E2E2E2E2E2E2E2E2E2E2E2E2E2E2E2E2E2E2E2E2E2E2E2E2E2E2E2E2E2E2DCE2F5E2E2E2
310
E2E2E2E2E2E2E2E2E2E2E2E2E2F5E2E2E2F5F5E2E2E2F5E2E2E2E2E2E2E2E2E2E2E2E2E2E2E2E2F5E2DCE2E2E2E2E2E2E2E2E2E2E2E2E2E2E2E2E2E2E2E2E2E2E2E2E2E2E2E2E2E2E2E2E2E2E2E2E2E2E2E2E2E2E2E2E2E2E2E2E2E2E2E2E2E2E2E2E2E2E2E2E2E2E2E2E2E2E2E2E2E2E2E2E2E2E2E2E2E2E2E2E2E2E2E2E2
310
E2E2E2E2E2E2E2E2E2E2E2E2E2E2E2E2E2E2E2E2E2E2E2E2E2E2E2E2E2E2E2E2E2E2E2E2E2E2E2E2E2E2E2E2E2E2E2DCE2F5E2E2E2E2E2E2E2E2E2E2E2E2E2E2E2E2F5E2E2E2F5F5E2E2E2F5E2E2E2E2E2E2E2E2E2E2E2E2E2E2E2E2F5E2DCE2E2E2E2E2E2E2E2E2E2E2E2E2E2E2E2E2E2E2E2E2E2E2E2E2E2E2E2E2E2E2E2
310
E2E2E2E2E2E2E2E2E2E2E2E2E2E2E2E2E2E2E2E2E2E2E2E2E2E2E2E2E2E2E2E2E2E2E2E2E2E2E2E2E2E2E2E2E2E2E2E2E2E2E2E2E2E2E2E2E2E2E2E2E2E2E2E2E2E2E2E2E2E2E2E2E2E2E2E2E2E2E2E2E2E2E2E2E2E2E2E2E2E2E2E2E2E2E2E2E2E2E2E2DCE2F5E2E2E2E2E2E2E2E2E2E2E2E2E2E2E2E2F5E2E2E2F5F5E2E2
310
E2F5E2E2E2E2E2E2E2E2E2E2E2E2E2E2E2E2F5E2DCE2E2E2E2E2DCDCDCDCDCDCDCDCDCDCDCDCDCDCDCDCDCDCDCDCDCDCDCDCDCDCDCDCDCDCDCDCDCDCDCDCDCDCDCDCDCDCDCDCDCDCDCDCDCDCDCDCDCDCDCDCDCDCDCDCDCDCDCDCDCDCDCDCDCDCDCDCDCDCDCDCDCDCDCDCDCDCDCDCDCDCDCDCDCDCDCDCDCDCDCDCDCDCDCDCDC
310
DCDCDCDCDCDCDCDCDCDCDCDCDCDCDCDCDCDCDCDCDCE2E2E2E2E2DCE2F5E2E2E2E2E2E2E2E2E2E2E2E2E2E2E2E2F5E2E2E2F5F5E2E2E2F5E2E2E2E2E2E2E2E2E2E2E2E2E2E2E2E2F5E2DCE2E2E2E2E2DCE2E2E2E2E2E2E2E2E2E2E2E2E2E2E2E2E2E2E2E2E2E2E2E2E2E2E2E2E2E2E2E2E2E2E2E2E2E2E2E2E2E2E2E2E2E2E2
310
E2E2E2E2E2E2E2E2E2E2E2E2E2E2E2E2E2E2E2E2E2E2E2E2E2E2E2E2E2E2E2E2E2E2E2E2E2E2E2E2E2E2E2E2E2E2E2E2E2E2E2E2E2E2E2E2E2E2E2E2E2E2E2E2E2E2E2E2E2E2E2E2E2DCE2E2E2E2E2DCE2F5E2E2E2E2E2E2E2E2E2E2E2E2E2E2E2E2F5E2E2E2F5F5E2E2E2F5E2E2E2E2E2E2E2E2E2E2E2E2E2E2E2E2F5E2DC
310
E2E2E2E2E2DCE2E2E2E2E2E2E2E2E2E2E2E2E2E2E2E2E2E2E2E2E2E2E2E2E2E2E2E2E2E2E2E2E2E2E2E2E2E2E2E2E2E2E2E2E2E2E2E2E2E2E2E2E2E2E2E2E2E2E2E2E2E2E2E2E2E2E2E2E2E2E2E2E2E2E2E2E2E2E2E2E2E2E2E2E2E2E2E2E2E2E2E2E2E2E2E2E2E2E2E2E2E2E2E2E2E2E2E2E2E2E2E2E2E2E2E2E2E2E2E2DC
310
E2E2E2E2E2DCE2F5E2E2E2E2E2E2E2E2E2E2E2E2E2E2E2E2F5E2E2E2F5F5E2E2E2F5E2E2E2E2E2E2E2E2E2E2E2E2E2E2E2E2F5E2DCE2E2E2E2E2DCE2E2E2E2E2E2E2E2E2E2E2E2E2E2E2E2E2E2E2E2E2E2E2E2E2E2E2E2E2E2E2E2E2E2E2E2E2E2E2E2E2E2E2E2E2E2E2E2E2E2E2E2E2E2E2E2E2E2E2E2E2E2E2E2E2E2E2E2
310
E2E2E2E2E2E2E2E2E2E2E2E2E2E2E2E2E2E2E2E2E2E2E2E2E2E2E2E2E2E2E2E2E2E2E2E2E2E2E2E2E2E2E2E2E2E2E2E2E2E2E2E2DCE2E2E2E2E2DCE2F5E2E2E2E2E2E2E2E2E2E2E2E2E2E2E2E2F5E2E2E2F5F5E2E2E2F5E2E2E2E2E2E2E2E2E2E2E2E2E2E2E2E2F5E2DCE2E2E2E2E2DCE2E2E2E2E2E2E2E2E2E2E2E2E2E2E2
310
E2E2E2E2E2E2E2E2E2E2E2E2E2E2E2E2E2E2E2E2E2E2E2E2E2E2E2E2E2E2E2E2E2E2E2E2E2E2E2E2E2E2E2E2E2E2E2E2E2E2E2E2E2E2E2E2E2E2E2E2E2E2E2E2E2E2E2E2E2E2E2E2E2E2E2E2E2E2E2E2E2E2E2E2E2E2E2E2E2E2E2E2E2E2E2E2E2E2E2E2E2E2E2E2E2DCE2E2E2E2E2DCE2F5E2E2E2E2E2E2E2E2E2E2E2E2E2
310
E2E2E2F5E2E2E2F5F5E2E2E2F5E2E2E2E2E2E2E2E2E2E2E2E2E2E2E2E2F5E2DCE2E2E2E2E2DCE2E2E2E2E2E2E2E2E2E2E2E2E2E2E2E2E2E2E2E2E2E2E2E2E2E2E2E2E2E2E2E2E2E2E2E2E2E2E2E2E2E2E2E2E2E2E2E2E2E2E2E2E2E2E2E2E2E2E2E2E2E2E2E2E2E2E2E2E2E2E2E2E2E2E2E2E2E2E2E2E2E2E2E2E2E2E2E2E2
310
E2E2E2E2E2E2E2E2E2E2E2E2E2E2E2E2E2E2E2E2E2E2E2E2E2E2E2E2E2E2E2DCE2E2E2E2E2DCE2F5E2E2E2E2E2E2E2E2E2E2E2E2E2E2E2E2F5E2E2E2F5F5E2E2E2F5E2E2E2E2E2E2E2E2E2E2E2E2E2E2E2E2F5E2DCE2E2E2E2E2DCE2E2E2E2E2E2E2E2E2E2E2E2E2E2E2E2E2E2E2E2E2E2E2E2E2E2E2E2E2E2E2E2E2E2E2E2
310
E2E2E2E2E2E2E2E2E2E2E2E2E2E2E2E2E2E2E2E2E2E2E2E2E2E2E2E2E2E2E2E2E2E2E2E2E2E2E2E2E2E2E2E2E2E2E2E2E2E2E2E2E2E2E2E2E2E2E2E2E2E2E2E2E2E2E2E2E2E2E2E2E2E2E2E2E2E2E2E2E2E2E2E2DCE2E2E2E2E2DCE2F5E2E2E2E2E2E2E2E2E2E2E2E2E2E2E2E2F5E2E2E2F5F5E2E2E2F5E2E2E2E2E2E2E2E2
310
E2E2E2E2E2E2E2E2F5E2DCE2E2E2E2E2DCE2E2E2E2E2E2E2E2E2E2E2E2E2E2E2E2E2E2E2E2E2E2E2E2E2E2E2E2E2E2E2E2E2E2E2E2E2E2E2E2E2E2E2E2E2E2E2E2E2E2E2E2E2E2E2E2E2E2E2E2E2E2E2E2E2E2E2E2E2E2E2E2E2E2E2E2E2E2E2E2E2E2E2E2E2E2E2E2E2E2E2E2E2E2E2E2E2E2E2E2E2E2E2E2E2E2E2E2E2E2
310
E2E2E2E2E2E2E2E2E2E2DCE2E2E2E2E2DCE2F5E2E2E2E2E2E2E2E2E2E2E2E2E2E2E2E2F5E2E2E2F5F5E2E2E2F5E2E2E2E2E2E2E2E2E2E2E2E2E2E2E2E2F5E2DCE2E2E2E2E2DCE2E2E2E2E2E2E2E2E2E2E2E2E2E2E2E2E2E2E2E2E2E2E2E2E2E2E2E2E2E2E2E2E2E2E2E2E2E2E2E2E2E2E2E2E2E2E2E2E2E2E2E2E2E2E2E2E2
310
E2E2E2E2E2E2E2E2E2E2E2E2E2E2E2E2E2E2E2E2E2E2E2E2E2E2E2E2E2E2E2E2E2E2E2E2E2E2E2E2E2E2E2E2E2E2E2E2E2E2E2E2E2E2E2E2E2E2E2E2E2E2E2DCE2E2E2E2E2DCE2F5E2E2E2E2E2E2E2E2E2E2E2E2E2E2E2E2F5E2E2E2F5F5E2E2E2F5E2E2E2E2E2E2E2E2E2E2E2E2E2E2E2E2F5E2DCE2E2E2E2E2DCE2E2E2E2
310
E2E2E2E2E2E2E2E2E2E2E2E2E2E2E2E2E2E2E2E2E2E2E2E2E2E2E2E2E2E2E2E2E2E2E2E2E2E2E2E2E2E2E2E2E2E2E2E2E2E2E2E2E2E2E2E2E2E2E2E2E2E2E2E2E2E2E2E2E2E2E2E2E2E2E2E2E2E2E2E2E2E2E2E2E2E2E2E2E2E2E2E2E2E2E2E2E2E2E2E2E2E2E2E2E2E2E2E2E2E2E2E2E2E2E2E2DCE2E2E2E2E2DCE2F5E2E2
310
E2E2E2E2E2E2E2E2E2E2E2E2E2E2F5E2E2E2F5F5E2E2E2F5E2E2E2E2E2E2E2E2E2E2E2E2E2E2E2E2F5E2DCE2E2E2E2E2DCE2E2E2E2E2E2E2E2E2E2E2E2E2E2E2E2E2E2E2E2E2E2E2E2E2E2E2E2E2E2E2E2E2E2E2E2E2E2E2E2E2E2E2E2E2E2E2E2E2E2E2E2E2E2E2E2E2E2E2E2E2E2E2E2E2E2E2E2E2E2E2E2E2E2E2E2E2E2
310
E2E2E2E2E2E2E2E2E2E2E2E2E2E2E2E2E2E2E2E2E2E2E2E2E2E2E2E2E2E2E2E2E2E2E2E2E2E2E2E2E2E2DCE2E2E2E2E2DCE2F5E2E2E2E2E2E2E2E2E2E2E2E2E2E2E2E2F5E2E2E2F5F5E2E2E2F5E2E2E2E2E2E2E2E2E2E2E2E2E2E2E2E2F5E2DCE2E2E2E2E2DCE2E2E2E2E2E2E2E2E2E2E2E2E2E2E2E2E2E2E2E2E2E2E2E2E2
310
E2E2E2E2E2E2E2E2E2E2E2E2E2E2E2E2E2E2E2E2E2E2E2E2E2E2E2E2E2E2E2E2E2E2E2E2E2E2E2E2E2E2E2E2E2E2E2E2E2E2E2E2E2E2E2E2E2E2E2E2E2E2E2E2E2E2E2E2E2E2E2E2E2E2E2E2E2E2E2E2E2E2E2E2E2E2E2E2E2E2E2E2E2E2E2DCE2E2E2E2E2DCE2F5E2E2E2E2E2E2E2E2E2E2E2E2E2E2E2E2F5E2E2E2F5F5E2
310
E2E2E2E2E2E2E2E2E2E2E2E2E2E2E2E2E2E2E2F5E2DCE2E2E2E2E2DCE2E2E2E2E2E2E2E2E2E2E2E2E2E2E2E2E2E2E2E2E2E2E2E2E2E2E2E2E2E2E2E2E2E2E2E2E2E2E2E2E2E2E2E2E2E2E2E2E2E2E2E2E2E2E2E2E2E2E2E2E2E2E2E2E2E2E2E2E2E2E2E2E2E2E2E2E2E2E2E2E2E2E2E2E2E2E2E2E2E2E2E2E2E2E2E2E2E2E2
310
E2E2E2E2E2E2E2E2E2E2E2E2E2E2E2E2E2E2E2E2E2DCE2E2E2E2E2DCE2F5E2E2E2E2E2E2E2E2E2E2E2E2E2E2E2E2E2E2E2E2F5F5E2E2E2E2E2E2E2E2E2E2E2E2E2E2E2E2E2E2E2E2F5E2DCE2E2E2E2E2DCE2E2E2E2E2E2E2E2E2E2E2E2E2E2E2E2E2E2E2E2E2E2E2E2E2E2E2E2E2E2E2E2E2E2E2E2E2E2E2E2E2E2E2E2E2E2
310
E2E2E2E2E2E2E2E2E2E2E2E2E2E2E2E2E2E2E2E2E2E2E2E2E2E2E2E2E2E2E2E2E2E2E2E2E2E2E2E2E2E2E2E2E2E2E2E2E2E2E2E2E2E2E2E2E2E2E2E2E2E2E2E2E2E2E2E2E2E2E2E2E2E2DCE2E2E2E2E2DCE2F5E2E2E2E2E2E2E2E2E2E2E2E2E2E2E2E2E2E2E2E2F5F5E2E2E2E2E2E2E2E2E2E2E2E2E2E2E2E2E2E2E2E2F5E2
310
DCE2E2E2E2E2DCE2E2E2E2E2E2E2E2E2E2E2E2E2E2E2E2E2E2E2E2E2E2E2E2E2E2E2E2E2E2E2E2E2E2E2E2E2E2E2E2E2E2E2E2E2E2E2E2E2E2E2E2E2E2E2E2E2E2E2E2E2E2E2E2E2E2E2E2E2E2E2E2E2E2E2E2E2E2E2E2E2E2E2E2E2E2E2E2E2E2E2E2E2E2E2E2E2E2E2E2E2E2E2E2E2E2E2E2E2E2E2E2E2E2E2E2E2E2E2E2
310
DCE2E2E2E2E2DCE2F5E2E2E2E2E2E2E2E2E2E2E2E2E2E2E2E2E2E2E2E2F5F5E2E2E2E2E2E2E2E2E2E2E2E2E2E2E2E2E2E2E2E2F5E2DCE2E2E2E2E2DCE2E2E2E2E2E2E2E2E2E2E2E2E2E2E2E2E2E2E2E2E2E2E2E2E2E2E2E2E2E2E2E2E2E2E2E2E2E2E2E2E2E2E2E2E2E2E2E2E2E2E2E2E2E2E2E2E2E2E2E2E2E2E2E2E2E2E2
310
E2E2E2E2E2E2E2E2E2E2E2E2E2E2E2E2E2E2E2E2E2E2E2E2E2E2E2E2E2E2E2E2E2E2E2E2E2E2E2E2E2E2E2E2E2E2E2E2E2E2E2E2E2DCE2E2E2E2E2DCE2F5E2E2E2E2E2E2E2E2E2E2E2E2E2E2E2E2E2E2E2E2F5F5E2E2E2E2E2E2E2E2E2E2E2E2E2E2E2E2E2E2E2E2F5E2DCE2E2E2E2E2DCE2E2E2E2E2E2E2E2E2E2E2E2E2E2
310
E2E2E2E2E2E2E2E2E2E2E2E2E2E2E2E2E2E2E2E2E2E2E2E2E2E2E2E2E2E2E2E2E2E2E2E2E2E2E2E2E2E2E2E2E2E2E2E2E2E2E2E2E2E2E2E2E2E2E2E2E2E2E2E2E2E2E2E2E2E2E2E2E2E2E2E2E2E2E2E2E2E2E2E2E2E2E2E2E2E2E2E2E2E2E2E2E2E2E2E2E2E2E2E2E2E2DCE2E2E2E2E2DCE2F5E2E2E2E2E2E2E2E2E2E2E2E2
310
E2E2E2E2E2E2E2E2F5F5E2E2E2E2E2E2E2E2E2E2E2E2E2E2E2E2E2E2E2E2F5E2DCE2E2E2E2E2DCE2E2E2E2E2E2E2E2E2E2E2E2E2E2E2E2E2E2E2E2E2E2E2E2E2E2E2E2E2E2E2E2E2E2E2E2E2E2E2E2E2E2E2E2E2E2E2E2E2E2E2E2E2E2E2E2E2E2E2E2E2E2E2E2E2E2E2E2E2E2E2E2E2E2E2E2E2E2E2E2E2E2E2E2E2E2E2E2
310
E2E2E2E2E2E2E2E2E2E2E2E2E2E2E2E2E2E2E2E2E2E2E2E2E2E2E2E2E2E2E2E2DCE2E2E2E2E2DCE2F5E2E2E2E2E2E2E2E2E2E2E2E2E2E2E2E2E2E2E2E2F5F5E2E2E2E2E2E2E2E2E2E2E2E2E2E2E2E2E2E2E2E2F5E2DCE2E2E2E2E2DCE2E2E2E2E2E2E2E2E2E2E2E2E2E2E2E2E2E2E2E2E2E2E2E2E2E2E2E2E2E2E2E2E2E2E2
310
E2E2E2E2E2E2E2E2E2E2E2E2E2E2E2E2E2E2E2E2E2E2E2E2E2E2E2E2E2E2E2E2E2E2E2E2E2E2E2E2E2E2E2E2E2E2E2E2E2E2E2E2E2E2E2E2E2E2E2E2E2E2E2E2E2E2E2E2E2E2E2E2E2E2E2E2E2E2E2E2E2E2E2E2E2DCE2E2E2E2E2DCE2F5E2E2E2E2E2E2E2E2E2E2E2E2E2E2E2E2E2E2E2E2F5F5E2E2E2E2E2E2E2E2E2E2E2
310
E2E2E2E2E2E2E2E2E2F5E2DCE2E2E2E2E2DCE2E2E2E2E2E2E2E2E2E2E2E2E2E2E2E2E2E2E2E2E2E2E2E2E2E2E2E2E2E2E2E2E2E2E2E2E2E2E2E2E2E2E2E2E2E2E2E2E2E2E2E2E2E2E2E2E2E2E2E2E2E2E2E2E2E2E2E2E2E2E2E2E2E2E2E2E2E2E2E2E2E2E2E2E2E2E2E2E2E2E2E2E2E2E2E2E2E2E2E2E2E2E2E2E2E2E2E2E2
310
E2E2E2E2E2E2E2E2E2E2E2DCE2E2E2E2E2DCE2F5E2E2E2E2E2E2E2E2E2E2E2E2E2E2E2E2E2E2E2E2F5F5E2E2E2E2E2E2E2E2E2E2E2E2E2E2E2E2E2E2E2E2F5E2DCE2E2E2E2E2DCE2E2E2E2E2E2E2E2E2E2E2E2E2E2E2E2E2E2E2E2E2E2E2E2E2E2E2E2E2E2E2E2E2E2E2E2E2E2E2E2E2E2E2E2E2E2E2E2E2E2E2E2E2E2E2E2
310
E2E2E2E2E2E2E2E2E2E2E2E2E2E2E2E2E2E2E2E2E2E2E2E2E2E2E2E2E2E2E2E2E2E2E2E2E2E2E2E2E2E2E2E2E2E2E2E2E2E2E2E2E2E2E2E2E2E2E2E2E2E2E2E2DCE2E2E2E2E2DCE2F5E2E2E2E2E2E2E2E2E2E2E2E2E2E2E2E2E2E2E2E2F5F5E2E2E2F5E2E2E2E2E2E2E2E2E2E2E2E2E2E2E2E2F5E2DCE2E2E2E2E2DCE2E2E2
310
E2E2E2E2E2E2E2E2E2E2E2E2E2E2E2E2E2E2E2E2E2E2E2E2E2E2E2E2E2E2E2E2E2E2E2E2E2E2E2E2E2E2E2E2E2E2E2E2E2E2E2E2E2E2E2E2E2E2E2E2E2E2E2E2E2E2E2E2E2E2E2E2E2E2E2E2E2E2E2E2E2E2E2E2E2E2E2E2E2E2E2E2E2E2E2E2E2E2E2E2E2E2E2E2E2E2E2E2E2E2E2E2E2E2E2E2E2DCE2E2E2E2E2DCE2F5E2
310
E2E2E2E2E2E2E2E2E2E2E2E2E2E2E2F5E2E2E2F5F5E2E2E2F5E2E2E2E2E2E2E2E2E2E2E2E2E2E2E2E2F5E2DCE2E2E2E2E2DCE2E2E2E2E2E2E2E2E2E2E2E2E2E2E2E2E2E2E2E2E2E2E2E2E2E2E2E2E2E2E2E2E2E2E2E2E2E2E2E2E2E2E2E2E2E2E2E2E2E2E2E2E2E2E2E2E2E2E2E2E2E2E2E2E2E2E2E2E2E2E2E2E2E2E2E2E2
310
E2E2E2E2E2E2E2E2E2E2E2E2E2E2E2E2E2E2E2E2E2E2E2E2E2E2E2E2E2E2E2E2E2E2E2E2E2E2E2E2E2E2E2DCE2E2E2E2E2DCE2F5E2E2E2E2E2E2E2E2E2E2E2E2E2E2E2E2F5E2E2E2F5F5E2E2E2F5E2E2E2E2E2E2E2E2E2E2E2E2E2E2E2E2F5E2DCE2E2E2E2E2DCE2E2E2E2E2E2E2E2E2E2E2E2E2E2E2E2E2E2E2E2E2E2E2E2
310
E2E2E2E2E2E2E2E2E2E2E2E2E2E2E2E2E2E2E2E2E2E2E2E2E2E2E2E2E2E2E2E2E2E2E2E2E2E2E2E2E2E2E2E2E2E2E2E2E2E2E2E2E2E2E2E2E2E2E2E2E2E2E2E2E2E2E2E2E2E2E2E2E2E2E2E2E2E2E2E2E2E2E2E2E2E2E2E2E2E2E2E2E2E2E2E2DCE2E2E2E2E2DCE2F5E2E2E2E2E2E2E2E2E2E2E2E2E2E2E2E2F5E2E2E2F5F5
310
E2E2E2F5E2E2E2E2E2E2E2E2E2E2E2E2E2E2E2E2F5E2DCE2E2E2E2E2DCE2E2E2E2E2E2E2E2E2E2E2E2E2E2E2E2E2E2E2E2E2E2E2E2E2E2E2E2E2E2E2E2E2E2E2E2E2E2E2E2E2E2E2E2E2E2E2E2E2E2E2E2E2E2E2E2E2E2E2E2E2E2E2E2E2E2E2E2E2E2E2E2E2E2E2E2E2E2E2E2E2E2E2E2E2E2E2E2E2E2E2E2E2E2E2E2E2E2
310
E2E2E2E2E2E2E2E2E2E2E2E2E2E2E2E2E2E2E2E2E2E2DCE2E2E2E2E2DCE2F5E2E2E2E2E2E2E2E2E2E2E2E2E2E2E2E2F5E2E2E2F5F5E2E2E2F5E2E2E2E2E2E2E2E2E2E2E2E2E2E2E2E2F5E2DCE2E2E2E2E2DCE2E2E2E2E2E2E2E2E2E2E2E2E2E2E2E2E2E2E2E2E2E2E2E2E2E2E2E2E2E2E2E2E2E2E2E2E2E2E2E2E2E2E2E2E2
310
E2E2E2E2E2E2E2E2E2E2E2E2E2E2E2E2E2E2E2E2E2E2E2E2E2E2E2E2E2E2E2E2E2E2E2E2E2E2E2E2E2E2E2E2E2E2E2E2E2E2E2E2E2E2E2E2E2E2E2E2E2E2E2E2E2E2E2E2E2E2E2E2E2E2E2DCE2E2E2E2E2DCE2F5E2E2E2E2E2E2E2E2E2E2E2E2E2E2E2E2F5E2E2E2F5F5E2E2E2F5E2E2E2E2E2E2E2E2E2E2E2E2E2E2E2E2F5
310
E2DCE2E2E2E2E2DCE2E2E2E2E2E2E2E2E2E2E2E2E2E2E2E2E2E2E2E2E2E2E2E2E2E2E2E2E2E2E2E2E2E2E2E2E2E2E2E2E2E2E2E2E2E2E2E2E2E2E2E2E2E2E2E2E2E2E2E2E2E2E2E2E2E2E2E2E2E2E2E2E2E2E2E2E2E2E2E2E2E2E2E2E2E2E2E2E2E2E2E2E2E2E2E2E2E2E2E2E2E2E2E2E2E2E2E2E2E2E2E2E2E2E2E2E2E2E2
310
E2DCE2E2E2E2E2DCE2F5E2E2E2E2E2E2E2E2E2E2E2E2E2E2E2E2F5E2E2E2F5F5E2E2E2F5E2E2E2E2E2E2E2E2E2E2E2E2E2E2E2E2F5E2DCE2E2E2E2E2DCE2E2E2E2E2E2E2E2E2E2E2E2E2E2E2E2E2E2E2E2E2E2E2E2E2E2E2E2E2E2E2E2E2E2E2E2E2E2E2E2E2E2E2E2E2E2E2E2E2E2E2E2E2E2E2E2E2E2E2E2E2E2E2E2E2E2
310
E2E2E2E2E2E2E2E2E2E2E2E2E2E2E2E2E2E2E2E2E2E2E2E2E2E2E2E2E2E2E2E2E2E2E2E2E2E2E2E2E2E2E2E2E2E2E2E2E2E2E2E2E2E2DCE2E2E2E2E2DCE2F5E2E2E2E2E2E2E2E2E2E2E2E2E2E2E2E2F5E2E2E2F5F5E2E2E2F5E2E2E2E2E2E2E2E2E2E2E2E2E2E2E2E2F5E2DCE2E2E2E2E2DCE2E2E2E2E2E2E2E2E2E2E2E2E2
310
E2E2E2E2E2E2E2E2E2E2E2E2E2E2E2E2E2E2E2E2E2E2E2E2E2E2E2E2E2E2E2E2E2E2E2E2E2E2E2E2E2E2E2E2E2E2E2E2E2E2E2E2E2E2E2E2E2E2E2E2E2E2E2E2E2E2E2E2E2E2E2E2E2E2E2E2E2E2E2E2E2E2E2E2E2E2E2E2E2E2E2E2E2E2E2E2E2E2E2E2E2E2E2E2E2E2E2DCE2E2E2E2E2DCE2F5E2E2E2E2E2E2E2E2E2E2E2
310
E2E2E2E2E2F5E2E2E2F5F5E2E2E2F5E2E2E2E2E2E2E2E2E2E2E2E2E2E2E2E2F5E2DCE2E2E2E2E2DCE2E2E2E2E2E2E2E2E2E2E2E2E2E2E2E2E2E2E2E2E2E2E2E2E2E2E2E2E2E2E2E2E2E2E2E2E2E2E2E2E2E2E2E2E2E2E2E2E2E2E2E2E2E2E2E2E2E2E2E2E2E2E2E2E2E2E2E2E2E2E2E2E2E2E2E2E2E2E2E2E2E2E2E2E2E2E2
310
E2E2E2E2E2E2E2E2E2E2E2E2E2E2E2E2E2E2E2E2E2E2E2E2E2E2E2E2E2E2E2E2E2DCE2E2E2E2E2DCE2F5E2E2E2E2E2E2E2E2E2E2E2E2E2E2E2E2F5E2E2E2F5F5E2E2E2F5E2E2E2E2E2E2E2E2E2E2E2E2E2E2E2E2F5E2DCE2E2E2E2E2DCE2E2E2E2E2E2E2E2E2E2E2E2E2E2E2E2E2E2E2E2E2E2E2E2E2E2E2E2E2E2E2E2E2E2
310
E2E2E2E2E2E2E2E2E2E2E2E2E2E2E2E2E2E2E2E2E2E2E2E2E2E2E2E2E2E2E2E2E2E2E2E2E2E2E2E2E2E2E2E2E2E2E2E2E2E2E2E2E2E2E2E2E2E2E2E2E2E2E2E2E2E2E2E2E2E2E2E2E2E2E2E2E2E2E2E2E2E2E2E2E2E2DCE2E2E2E2E2DCE2F5E2E2E2E2E2E2E2E2E2E2E2E2E2E2E2E2F5E2E2E2F5F5E2E2E2F5E2E2E2E2E2E2
310
E2E2E2E2E2E2E2E2E2E2F5E2DCE2E2E2E2E2DCE2E2E2E2E2E2E2E2E2E2E2E2E2E2E2E2E2E2E2E2E2E2E2E2E2E2E2E2E2E2E2E2E2E2E2E2E2E2E2E2E2E2E2E2E2E2E2E2E2E2E2E2E2E2E2E2E2E2E2E2E2E2E2E2E2E2E2E2E2E2E2E2E2E2E2E2E2E2E2E2E2E2E2E2E2E2E2E2E2E2E2E2E2E2E2E2E2E2E2E2E2E2E2E2E2E2E2E2
310
E2E2E2E2E2E2E2E2E2E2E2E2DCE2E2E2E2E2DCE2F5E2E2E2E2E2E2E2E2E2E2E2E2E2E2E2E2F5E2E2E2F5F5E2E2E2F5E2E2E2E2E2E2E2E2E2E2E2E2E2E2E2E2F5E2DCE2E2E2E2E2DCE2E2E2E2E2E2E2E2E2E2E2E2E2E2E2E2E2E2E2E2E2E2E2E2E2E2E2E2E2E2E2E2E2E2E2E2E2E2E2E2E2E2E2E2E2E2E2E2E2E2E2E2E2E2E2
310
E2E2E2E2E2E2E2E2E2E2E2E2E2E2E2E2E2E2E2E2E2E2E2E2E2E2E2E2E2E2E2E2E2E2E2E2E2E2E2E2E2E2E2E2E2E2E2E2E2E2E2E2E2E2E2E2E2E2E2E2E2E2E2E2E2DCE2E2E2E2E2DCE2F5E2E2E2E2E2E2E2E2E2E2E2E2E2E2E2E2F5E2E2E2F5F5E2E2E2F5E2E2E2E2E2E2E2E2E2E2E2E2E2E2E2E2F5E2DCE2E2E2E2E2DCE2E2
310
E2E2E2E2E2E2E2E2E2E2E2E2E2E2E2E2E2E2E2E2E2E2E2E2E2E2E2E2E2E2E2E2E2E2E2E2E2E2E2E2E2E2E2E2E2E2E2E2E2E2E2E2E2E2E2E2E2E2E2E2E2E2E2E2E2E2E2E2E2E2E2E2E2E2E2E2E2E2E2E2E2E2E2E2E2E2E2E2E2E2E2E2E2E2E2E2E2E2E2E2E2E2E2E2E2E2E2E2E2E2E2E2E2E2E2E2E2E2DCE2E2E2E2E2DCE2F5
310
E2E2E2E2E2E2E2E2E2E2E2E2E2E2E2E2F5E2E2E2F5F5E2E2E2F5E2E2E2E2E2E2E2E2E2E2E2E2E2E2E2E2F5E2DCE2E2E2E2E2DCE2E2E2E2E2E2E2E2E2E2E2E2E2E2E2E2E2E2E2E2E2E2E2E2E2E2E2E2E2E2E2E2E2E2E2E2E2E2E2E2E2E2E2E2E2E2E2E2E2E2E2E2E2E2E2E2E2E2E2E2E2E2E2E2E2E2E2E2E2E2E2E2E2E2E2E2
310
E2E2E2E2E2E2E2E2E2E2E2E2E2E2E2E2E2E2E2E2E2E2E2E2E2E2E2E2E2E2E2E2E2E2E2E2E2E2E2E2E2E2E2E2DCE2E2E2E2E2DCE2F5E2E2E2E2E2E2E2E2E2E2E2E2E2E2E2E2F5E2E2E2F5F5E2E2E2F5E2E2E2E2E2E2E2E2E2E2E2E2E2E2E2E2F5E2DCE2E2E2E2E2DCE2E2E2E2E2E2E2E2E2E2E2E2E2E2E2E2E2E2E2E2E2E2E2
310
E2E2E2E2E2E2E2E2E2E2E2E2E2E2E2E2E2E2E2E2E2E2E2E2E2E2E2E2E2E2E2E2E2E2E2E2E2E2E2E2E2E2E2E2E2E2E2E2E2E2E2E2E2E2E2E2E2E2E2E2E2E2E2E2E2E2E2E2E2E2E2E2E2E2E2E2E2E2E2E2E2E2E2E2E2E2E2E2E2E2E2E2E2E2E2E2E2DCE2E2E2E2E2DCE2F5E2E2E2E2E2E2E2E2E2E2E2E2E2E2E2E2F5E2E2E2F5
310
F5E2E2E2E2E2E2E2E2E2E2E2E2E2E2E2E2E2E2E2E2F5E2DCE2E2E2E2E2DCE2E2E2E2E2E2E2E2E2E2E2E2E2E2E2E2E2E2E2E2E2E2E2E2E2E2E2E2E2E2E2E2E2E2E2E2E2E2E2E2E2E2E2E2E2E2E2E2E2E2E2E2E2E2E2E2E2E2E2E2E2E2E2E2E2E2E2E2E2E2E2E2E2E2E2E2E2E2E2E2E2E2E2E2E2E2E2E2E2E2E2E2E2E2E2E2E2
310
E2E2E2E2E2E2E2E2E2E2E2E2E2E2E2E2E2E2E2E2E2E2E2DCE2E2E2E2E2DCE2F5E2E2E2E2E2E2E2E2E2E2E2E2E2E2E2E2E2E2E2E2F5F5E2E2E2E2E2E2E2E2E2E2E2E2E2E2E2E2E2E2E2E2F5E2DCE2E2E2E2E2DCE2E2E2E2E2E2E2E2E2E2E2E2E2E2E2E2E2E2E2E2E2E2E2E2E2E2E2E2E2E2E2E2E2E2E2E2E2E2E2E2E2E2E2E2
310
E2E2E2E2E2E2E2E2E2E2E2E2E2E2E2E2E2E2E2E2E2E2E2E2E2E2E2E2E2E2E2E2E2E2E2E2E2E2E2E2E2E2E2E2E2E2E2E2E2E2E2E2E2E2E2E2E2E2E2E2E2E2E2E2E2E2E2E2E2E2E2E2E2E2E2E2DCE2E2E2E2E2DCE2F5E2E2E2E2E2E2E2E2E2E2E2E2E2E2E2E2E2E2E2E2F5F5E2E2E2E2E2E2E2E2E2E2E2E2E2E2E2E2E2E2E2E2
310
F5E2DCE2E2E2E2E2DCE2E2E2E2E2E2E2E2E2E2E2E2E2E2E2E2E2E2E2E2E2E2E2E2E2E2E2E2E2E2E2E2E2E2E2E2E2E2E2E2E2E2E2E2E2E2E2E2E2E2E2E2E2E2E2E2E2E2E2E2E2E2E2E2E2E2E2E2E2E2E2E2E2E2E2E2E2E2E2E2E2E2E2E2E2E2E2E2E2E2E2E2E2E2E2E2E2E2E2E2E2E2E2E2E2E2E2E2E2E2E2E2E2E2E2E2E2E2
310
E2E2DCE2E2E2E2E2DCE2F5E2E2E2E2E2E2E2E2E2E2E2E2E2E2E2E2E2E2E2E2F5F5E2E2E2E2E2E2E2E2E2E2E2E2E2E2E2E2E2E2E2E2F5E2DCE2E2E2E2E2DCE2E2E2E2E2E2E2E2E2E2E2E2E2E2E2E2E2E2E2E2E2E2E2E2E2E2E2E2E2E2E2E2E2E2E2E2E2E2E2E2E2E2E2E2E2E2E2E2E2E2E2E2E2E2E2E2E2E2E2E2E2E2E2E2E2
310
E2E2E2E2E2E2E2E2E2E2E2E2E2E2E2E2E2E2E2E2E2E2E2E2E2E2E2E2E2E2E2E2E2E2E2E2E2E2E2E2E2E2E2E2E2E2E2E2E2E2E2E2E2E2E2DCE2E2E2E2E2DCE2F5E2E2E2E2E2E2E2E2E2E2E2E2E2E2E2E2E2E2E2E2F5F5E2E2E2E2E2E2E2E2E2E2E2E2E2E2E2E2E2E2E2E2F5E2DCE2E2E2E2E2DCE2E2E2E2E2E2E2E2E2E2E2E2
310
E2E2E2E2E2E2E2E2E2E2E2E2E2E2E2E2E2E2E2E2E2E2E2E2E2E2E2E2E2E2E2E2E2E2E2E2E2E2E2E2E2E2E2E2E2E2E2E2E2E2E2E2E2E2E2E2E2E2E2E2E2E2E2E2E2E2E2E2E2E2E2E2E2E2E2E2E2E2E2E2E2E2E2E2E2E2E2E2E2E2E2E2E2E2E2E2E2E2E2E2E2E2E2E2E2E2E2E2DCE2E2E2E2E2DCE2F5E2E2E2E2E2E2E2E2E2E2
310
E2E2E2E2E2E2E2E2E2E2F5F5E2E2E2E2E2E2E2E2E2E2E2E2E2E2E2E2E2E2E2E2F5E2DCE2E2E2E2E2DCE2E2E2E2E2E2E2E2E2E2E2E2E2E2E2E2E2E2E2E2E2E2E2E2E2E2E2E2E2E2E2E2E2E2E2E2E2E2E2E2E2E2E2E2E2E2E2E2E2E2E2E2E2E2E2E2E2E2E2E2E2E2E2E2E2E2E2E2E2E2E2E2E2E2E2E2E2E2E2E2E2E2E2E2E2E2
310
E2E2E2E2E2E2E2E2E2E2E2E2E2E2E2E2E2E2E2E2E2E2E2E2E2E2E2E2E2E2E2E2E2E2DCE2E2E2E2E2DCE2F5E2E2E2E2E2E2E2E2E2E2E2E2E2E2E2E2E2E2E2E2F5F5E2E2E2E2E2E2E2E2E2E2E2E2E2E2E2E2E2E2E2E2F5E2DCE2E2E2E2E2DCE2E2E2E2E2E2E2E2E2E2E2E2E2E2E2E2E2E2E2E2E2E2E2E2E2E2E2E2E2E2E2E2E2
310
E2E2E2E2E2E2E2E2E2E2E2E2E2E2E2E2E2E2E2E2E2E2E2E2E2E2E2E2E2E2E2E2E2E2E2E2E2E2E2E2E2E2E2E2E2E2E2E2E2E2E2E2E2E2E2E2E2E2E2E2E2E2E2E2E2E2E2E2E2E2E2E2E2E2E2E2E2E2E2E2E2E2E2E2E2E2E2DCE2E2E2E2E2DCE2F5E2E2E2E2E2E2E2E2E2E2E2E2E2E2E2E2E2E2E2E2F5F5E2E2E2E2E2E2E2E2E2
310
E2E2E2E2E2E2E2E2E2E2E2F5E2DCE2E2E2E2E2DCE2E2E2E2E2E2E2E2E2E2E2E2E2E2E2E2E2E2E2E2E2E2E2E2E2E2E2E2E2E2E2E2E2E2E2E2E2E2E2E2E2E2E2E2E2E2E2E2E2E2E2E2E2E2E2E2E2E2E2E2E2E2E2E2E2E2E2E2E2E2E2E2E2E2E2E2E2E2E2E2E2E2E2E2E2E2E2E2E2E2E2E2E2E2E2E2E2E2E2E2E2E2E2E2E2E2E2
310
E2E2E2E2E2E2E2E2E2E2E2E2E2DCE2E2E2E2E2DCE2F5E2E2E2E2E2E2E2E2E2E2E2E2E2E2E2E2E2E2E2E2F5F5E2E2E2F5E2E2E2E2E2E2E2E2E2E2E2E2E2E2E2E2F5E2DCE2E2E2E2E2DCE2E2E2E2E2E2E2E2E2E2E2E2E2E2E2E2E2E2E2E2E2E2E2E2E2E2E2E2E2E2E2E2E2E2E2E2E2E2E2E2E2E2E2E2E2E2E2E2E2E2E2E2E2E2
310
E2E2E2E2E2E2E2E2E2E2E2E2E2E2E2E2E2E2E2E2E2E2E2E2E2E2E2E2E2E2E2E2E2E2E2E2E2E2E2E2E2E2E2E2E2E2E2E2E2E2E2E2E2E2E2E2E2E2E2E2E2E2E2E2E2E2DCE2E2E2E2E2DCE2F5E2E2E2E2E2E2E2E2E2E2E2E2E2E2E2E2F5E2E2E2F5F5E2E2E2F5E2E2E2E2E2E2E2E2E2E2E2E2E2E2E2E2F5E2DCE2E2E2E2E2DCE2
310
E2E2E2E2E2E2E2E2E2E2E2E2E2E2E2E2E2E2E2E2E2E2E2E2E2E2E2E2E2E2E2E2E2E2E2E2E2E2E2E2E2E2E2E2E2E2E2E2E2E2E2E2E2E2E2E2E2E2E2E2E2E2E2E2E2E2E2E2E2E2E2E2E2E2E2E2E2E2E2E2E2E2E2E2E2E2E2E2E2E2E2E2E2E2E2E2E2E2E2E2E2E2E2E2E2E2E2E2E2E2E2E2E2E2E2E2E2E2E2DCE2E2E2E2E2DCE2
310
F5E2E2E2E2E2E2E2E2E2E2E2E2E2E2E2E2F5E2E2E2F5F5E2E2E2F5E2E2E2E2E2E2E2E2E2E2E2E2E2E2E2E2F5E2DCE2E2E2E2E2DCE2E2E2E2E2E2E2E2E2E2E2E2E2E2E2E2E2E2E2E2E2E2E2E2E2E2E2E2E2E2E2E2E2E2E2E2E2E2E2E2E2E2E2E2E2E2E2E2E2E2E2E2E2E2E2E2E2E2E2E2E2E2E2E2E2E2E2E2E2E2E2E2E2E2E2
310
E2E2E2E2E2E2E2E2E2E2E2E2E2E2E2E2E2E2E2E2E2E2E2E2E2E2E2E2E2E2E2E2E2E2E2E2E2E2E2E2E2E2E2E2E2DCE2E2E2E2E2DCE2F5E2E2E2E2E2E2E2E2E2E2E2E2E2E2E2E2F5E2E2E2F5F5E2E2E2F5E2E2E2E2E2E2E2E2E2E2E2E2E2E2E2E2F5E2DCE2E2E2E2E2DCE2E2E2E2E2E2E2E2E2E2E2E2E2E2E2E2E2E2E2E2E2E2
310
E2E2E2E2E2E2E2E2E2E2E2E2E2E2E2E2E2E2E2E2E2E2E2E2E2E2E2E2E2E2E2E2E2E2E2E2E2E2E2E2E2E2E2E2E2E2E2E2E2E2E2E2E2E2E2E2E2E2E2E2E2E2E2E2E2E2E2E2E2E2E2E2E2E2E2E2E2E2E2E2E2E2E2E2E2E2E2E2E2E2E2E2E2E2E2E2E2E2DCE2E2E2E2E2DCE2F5E2E2E2E2E2E2E2E2E2E2E2E2E2E2E2E2F5E2E2E2
310
F5F5E2E2E2F5E2E2E2E2E2E2E2E2E2E2E2E2E2E2E2E2F5E2DCE2E2E2E2E2DCE2E2E2E2E2E2E2E2E2E2E2E2E2E2E2E2E2E2E2E2E2E2E2E2E2E2E2E2E2E2E2E2E2E2E2E2E2E2E2E2E2E2E2E2E2E2E2E2E2E2E2E2E2E2E2E2E2E2E2E2E2E2E2E2E2E2E2E2E2E2E2E2E2E2E2E2E2E2E2E2E2E2E2E2E2E2E2E2E2E2E2E2E2E2E2E2
310
E2E2E2E2E2E2E2E2E2E2E2E2E2E2E2E2E2E2E2E2E2E2E2E2DCE2E2E2E2E2DCE2F5E2E2E2E2E2E2E2E2E2E2E2E2E2E2E2E2F5E2E2E2F5F5E2E2E2F5E2E2E2E2E2E2E2E2E2E2E2E2E2E2E2E2F5E2DCE2E2E2E2E2DCE2E2E2E2E2E2E2E2E2E2E2E2E2E2E2E2E2E2E2E2E2E2E2E2E2E2E2E2E2E2E2E2E2E2E2E2E2E2E2E2E2E2E2
310
E2E2E2E2E2E2E2E2E2E2E2E2E2E2E2E2E2E2E2E2E2E2E2E2E2E2E2E2E2E2E2E2E2E2E2E2E2E2E2E2E2E2E2E2E2E2E2E2E2E2E2E2E2E2E2E2E2E2E2E2E2E2E2E2E2E2E2E2E2E2E2E2E2E2E2E2E2DCE2E2E2E2E2DCE2F5E2E2E2E2E2E2E2E2E2E2E2E2E2E2E2E2F5E2E2E2F5F5E2E2E2F5E2E2E2E2E2E2E2E2E2E2E2E2E2E2E2
310
E2F5E2DCE2E2E2E2E2DCE2E2E2E2E2E2E2E2E2E2E2E2E2E2E2E2E2E2E2E2E2E2E2E2E2E2E2E2E2E2E2E2E2E2E2E2E2E2E2E2E2E2E2E2E2E2E2E2E2E2E2E2E2E2E2E2E2E2E2E2E2E2E2E2E2E2E2E2E2E2E2E2E2E2E2E2E2E2E2E2E2E2E2E2E2E2E2E2E2E2E2E2E2E2E2E2E2E2E2E2E2E2E2E2E2E2E2E2E2E2E2E2E2E2E2E2E2
310
E2E2E2DCE2E2E2E2E2DCE2F5E2E2E2E2E2E2E2E2E2E2E2E2E2E2E2E2F5E2E2E2F5F5E2E2E2F5E2E2E2E2E2E2E2E2E2E2E2E2E2E2E2E2F5E2DCE2E2E2E2E2DCE2E2E2E2E2E2E2E2E2E2E2E2E2E2E2E2E2E2E2E2E2E2E2E2E2E2E2E2E2E2E2E2E2E2E2E2E2E2E2E2E2E2E2E2E2E2E2E2E2E2E2E2E2E2E2E2E2E2E2E2E2E2E2E2
310
E2E2E2E2E2E2E2E2E2E2E2E2E2E2E2E2E2E2E2E2E2E2E2E2E2E2E2E2E2E2E2E2E2E2E2E2E2E2E2E2E2E2E2E2E2E2E2E2E2E2E2E2E2E2E2E2DCE2E2E2E2E2DCE2F5E2E2E2E2E2E2E2E2E2E2E2E2E2E2E2E2F5E2E2E2F5F5E2E2E2F5E2E2E2E2E2E2E2E2E2E2E2E2E2E2E2E2F5E2DCE2E2E2E2E2DCE2E2E2E2E2E2E2E2E2E2E2
310
E2E2E2E2E2E2E2E2E2E2E2E2E2E2E2E2E2E2E2E2E2E2E2E2E2E2E2E2E2E2E2E2E2E2E2E2E2E2E2E2E2E2E2E2E2E2E2E2E2E2E2E2E2E2E2E2E2E2E2E2E2E2E2E2E2E2E2E2E2E2E2E2E2E2E2E2E2E2E2E2E2E2E2E2E2E2E2E2E2E2E2E2E2E2E2E2E2E2E2E2E2E2E2E2E2E2E2E2E2DCE2E2E2E2E2DCE2F5E2E2E2E2E2E2E2E2E2
310
E2E2E2E2E2E2E2F5E2E2E2F5F5E2E2E2F5E2E2E2E2E2E2E2E2E2E2E2E2E2E2E2E2F5E2DCE2E2E2E2E2DCE2E2E2E2E2E2E2E2E2E2E2E2E2E2E2E2E2E2E2E2E2E2E2E2E2E2E2E2E2E2E2E2E2E2E2E2E2E2E2E2E2E2E2E2E2E2E2E2E2E2E2E2E2E2E2E2E2E2E2E2E2E2E2E2E2E2E2E2E2E2E2E2E2E2E2E2E2E2E2E2E2E2E2E2E2
310
E2E2E2E2E2E2E2E2E2E2E2E2E2E2E2E2E2E2E2E2E2E2E2E2E2E2E2E2E2E2E2E2E2E2E2DCE2E2E2E2E2DCE2F5E2E2E2E2E2E2E2E2E2E2E2E2E2E2E2E2F5E2E2E2F5F5E2E2E2F5E2E2E2E2E2E2E2E2E2E2E2E2E2E2E2E2F5E2DCE2E2E2E2E2DCE2E2E2E2E2E2E2E2E2E2E2E2E2E2E2E2E2E2E2E2E2E2E2E2E2E2E2E2E2E2E2E2
310
E2E2E2E2E2E2E2E2E2E2E2E2E2E2E2E2E2E2E2E2E2E2E2E2E2E2E2E2E2E2E2E2E2E2E2E2E2E2E2E2E2E2E2E2E2E2E2E2E2E2E2E2E2E2E2E2E2E2E2E2E2E2E2E2E2E2E2E2E2E2E2E2E2E2E2E2E2E2E2E2E2E2E2E2E2E2E2E2DCE2E2E2E2E2DCE2F5E2E2E2E2E2E2E2E2E2E2E2E2E2E2E2E2F5E2E2E2F5F5E2E2E2F5E2E2E2E2
310
E2E2E2E2E2E2E2E2E2E2E2E2F5E2DCE2E2E2E2E2DCE2E2E2E2E2E2E2E2E2E2E2E2E2E2E2E2E2E2E2E2E2E2E2E2E2E2E2E2E2E2E2E2E2E2E2E2E2E2E2E2E2E2E2E2E2E2E2E2E2E2E2E2E2E2E2E2E2E2E2E2E2E2E2E2E2E2E2E2E2E2E2E2E2E2E2E2E2E2E2E2E2E2E2E2E2E2E2E2E2E2E2E2E2E2E2E2E2E2E2E2E2E2E2E2E2E2
310
E2E2E2E2E2E2E2E2E2E2E2E2E2E2DCE2E2E2E2E2DCE2F5E2E2E2E2E2E2E2E2E2E2E2E2E2E2E2E2F5E2E2E2F5F5E2E2E2F5E2E2E2E2E2E2E2E2E2E2E2E2E2E2E2E2F5E2DCE2E2E2E2E2DCE2E2E2E2E2E2E2E2E2E2E2E2E2E2E2E2E2E2E2E2E2E2E2E2E2E2E2E2E2E2E2E2E2E2E2E2E2E2E2E2E2E2E2E2E2E2E2E2E2E2E2E2E2
310
E2E2E2E2E2E2E2E2E2E2E2E2E2E2E2E2E2E2E2E2E2E2E2E2E2E2E2E2E2E2E2E2E2E2E2E2E2E2E2E2E2E2E2E2E2E2E2E2E2E2E2E2E2E2E2E2E2E2E2E2E2E2E2E2E2E2E2DCE2E2E2E2E2DCE2F5E2E2E2E2E2E2E2E2E2E2E2E2E2E2E2E2F5E2E2E2F5F5E2E2E2F5E2E2E2E2E2E2E2E2E2E2E2E2E2E2E2E2F5E2DCE2E2E2E2E2DC
310
E2E2E2E2E2E2E2E2E2E2E2E2E2E2E2E2E2E2E2E2E2E2E2E2E2E2E2E2E2E2E2E2E2E2E2E2E2E2E2E2E2E2E2E2E2E2E2E2E2E2E2E2E2E2E2E2E2E2E2E2E2E2E2E2E2E2E2E2E2E2E2E2E2E2E2E2E2E2E2E2E2E2E2E2E2E2E2E2E2E2E2E2E2E2E2E2E2E2E2E2E2E2E2E2E2E2E2E2E2E2E2E2E2E2E2E2E2E2E2E2DCE2E2E2E2E2DC
310
E2F5E2E2E2E2E2E2E2E2E2E2E2E2E2E2E2E2F5E2E2E2F5F5E2E2E2F5E2E2E2E2E2E2E2E2E2E2E2E2E2E2E2E2F5E2DCE2E2E2E2E2DCE2E2E2E2E2E2E2E2E2E2E2E2E2E2E2E2E2E2E2E2E2E2E2E2E2E2E2E2E2E2E2E2E2E2E2E2E2E2E2E2E2E2E2E2E2E2E2E2E2E2E2E2E2E2E2E2E2E2E2E2E2E2E2E2E2E2E2E2E2E2E2E2E2E2
310
E2E2E2E2E2E2E2E2E2E2E2E2E2E2E2E2E2E2E2E2E2E2E2E2E2E2E2E2E2E2E2E2E2E2E2E2E2E2E2E2E2E2E2E2E2E2DCE2E2E2E2E2DCE2F5E2E2E2E2E2E2E2E2E2E2E2E2E2E2E2E2F5E2E2E2F5F5E2E2E2E2E2E2E2E2E2E2E2E2E2E2E2E2E2E2E2E2F5E2DCE2E2E2E2E2DCE2E2E2E2E2E2E2E2E2E2E2E2E2E2E2E2E2E2E2E2E2
310
E2E2E2E2E2E2E2E2E2E2E2E2E2E2E2E2E2E2E2E2E2E2E2E2E2E2E2E2E2E2E2E2E2E2E2E2E2E2E2E2E2E2E2E2E2E2E2E2E2E2E2E2E2E2E2E2E2E2E2E2E2E2E2E2E2E2E2E2E2E2E2E2E2E2E2E2E2E2E2E2E2E2E2E2E2E2E2E2E2E2E2E2E2E2E2E2E2E2E2DCE2E2E2E2E2DCE2F5E2E2E2E2E2E2E2E2E2E2E2E2E2E2E2E2E2E2E2
310
E2F5F5E2E2E2E2E2E2E2E2E2E2E2E2E2E2E2E2E2E2E2E2F5E2DCE2E2E2E2E2DCE2E2E2E2E2E2E2E2E2E2E2E2E2E2E2E2E2E2E2E2E2E2E2E2E2E2E2E2E2E2E2E2E2E2E2E2E2E2E2E2E2E2E2E2E2E2E2E2E2E2E2E2E2E2E2E2E2E2E2E2E2E2E2E2E2E2E2E2E2E2E2E2E2E2E2E2E2E2E2E2E2E2E2E2E2E2E2E2E2E2E2E2E2E2E2
310
E2E2E2E2E2E2E2E2E2E2E2E2E2E2E2E2E2E2E2E2E2E2E2E2E2DCE2E2E2E2E2DCE2F5E2E2E2E2E2E2E2E2E2E2E2E2E2E2E2E2E2E2E2E2F5F5E2E2E2E2E2E2E2E2E2E2E2E2E2E2E2E2E2E2E2E2F5E2DCE2E2E2E2E2DCE2E2E2E2E2E2E2E2E2E2E2E2E2E2E2E2E2E2E2E2E2E2E2E2E2E2E2E2E2E2E2E2E2E2E2E2E2E2E2E2E2E2
310
E2E2E2E2E2E2E2E2E2E2E2E2E2E2E2E2E2E2E2E2E2E2E2E2E2E2E2E2E2E2E2E2E2E2E2E2E2E2E2E2E2E2E2E2E2E2E2E2E2E2E2E2E2E2E2E2E2E2E2E2E2E2E2E2E2E2E2E2E2E2E2E2E2E2E2E2E2E2DCE2E2E2E2E2DCE2F5E2E2E2E2E2E2E2E2E2E2E2E2E2E2E2E2E2E2E2E2F5F5E2E2E2E2E2E2E2E2E2E2E2E2E2E2E2E2E2E2
310
E2E2F5E2DCE2E2E2E2E2DCE2E2E2E2E2E2E2E2E2E2E2E2E2E2E2E2E2E2E2E2E2E2E2E2E2E2E2E2E2E2E2E2E2E2E2E2E2E2E2E2E2E2E2E2E2E2E2E2E2E2E2E2E2E2E2E2E2E2E2E2E2E2E2E2E2E2E2E2E2E2E2E2E2E2E2E2E2E2E2E2E2E2E2E2E2E2E2E2E2E2E2E2E2E2E2E2E2E2E2E2E2E2E2E2E2E2E2E2E2E2E2E2E2E2E2E2
310
E2E2E2E2DCE2E2E2E2E2DCE2F5E2E2E2E2E2E2E2E2E2E2E2E2E2E2E2E2E2E2E2E2F5F5E2E2E2E2E2E2E2E2E2E2E2E2E2E2E2E2E2E2E2E2F5E2DCE2E2E2E2E2DCE2E2E2E2E2E2E2E2E2E2E2E2E2E2E2E2E2E2E2E2E2E2E2E2E2E2E2E2E2E2E2E2E2E2E2E2E2E2E2E2E2E2E2E2E2E2E2E2E2E2E2E2E2E2E2E2E2E2E2E2E2E2E2
310
E2E2E2E2E2E2E2E2E2E2E2E2E2E2E2E2E2E2E2E2E2E2E2E2E2E2E2E2E2E2E2E2E2E2E2E2E2E2E2E2E2E2E2E2E2E2E2E2E2E2E2E2E2E2E2E2E2DCE2E2E2E2E2DCE2F5E2E2E2E2E2E2E2E2E2E2E2E2E2E2E2E2E2E2E2E2F5F5E2E2E2E2E2E2E2E2E2E2E2E2E2E2E2E2E2E2E2E2F5E2DCE2E2E2E2E2DCE2E2E2E2E2E2E2E2E2E2
310
E2E2E2E2E2E2E2E2E2E2E2E2E2E2E2E2E2E2E2E2E2E2E2E2E2E2E2E2E2E2E2E2E2E2E2E2E2E2E2E2E2E2E2E2E2E2E2E2E2E2E2E2E2E2E2E2E2E2E2E2E2E2E2E2E2E2E2E2E2E2E2E2E2E2E2E2E2E2E2E2E2E2E2E2E2E2E2E2E2E2E2E2E2E2E2E2E2E2E2E2E2E2E2E2E2E2E2E2E2E2DCE2E2E2E2E2DCE2F5E2E2E2E2E2E2E2E2
310
E2E2E2E2E2E2E2E2E2E2E2E2F5F5E2E2E2E2E2E2E2E2E2E2E2E2E2E2E2E2E2E2E2E2F5E2DCE2E2E2E2E2DCE2E2E2E2E2E2E2E2E2E2E2E2E2E2E2E2E2E2E2E2E2E2E2E2E2E2E2E2E2E2E2E2E2E2E2E2E2E2E2E2E2E2E2E2E2E2E2E2E2E2E2E2E2E2E2E2E2E2E2E2E2E2E2E2E2E2E2E2E2E2E2E2E2E2E2E2E2E2E2E2E2E2E2E2
310
E2E2E2E2E2E2E2E2E2E2E2E2E2E2E2E2E2E2E2E2E2E2E2E2E2E2E2E2E2E2E2E2E2E2E2E2DCE2E2E2E2E2DCE2F5E2E2E2E2E2E2E2E2E2E2E2E2E2E2E2E2E2E2E2E2F5F5E2E2E2E2E2E2E2E2E2E2E2E2E2E2E2E2E2E2E2E2F5E2DCE2E2E2E2E2DCE2E2E2E2E2E2E2E2E2E2E2E2E2E2E2E2E2E2E2E2E2E2E2E2E2E2E2E2E2E2E2
310
E2E2E2E2E2E2E2E2E2E2E2E2E2E2E2E2E2E2E2E2E2E2E2E2E2E2E2E2E2E2E2E2E2E2E2E2E2E2E2E2E2E2E2E2E2E2E2E2E2E2E2E2E2E2E2E2E2E2E2E2E2E2E2E2E2E2E2E2E2E2E2E2E2E2E2E2E2E2E2E2E2E2E2E2E2E2E2E2E2DCE2E2E2E2E2DCE2F5E2E2E2E2E2E2E2E2E2E2E2E2E2E2E2E2E2E2E2E2F5F5E2E2E2E2E2E2E2
310
E2E2E2E2E2E2E2E2E2E2E2E2E2F5E2DCE2E2E2E2E2DCE2E2E2E2E2E2E2E2E2E2E2E2E2E2E2E2E2E2E2E2E2E2E2E2E2E2E2E2E2E2E2E2E2E2E2E2E2E2E2E2E2E2E2E2E2E2E2E2E2E2E2E2E2E2E2E2E2E2E2E2E2E2E2E2E2E2E2E2E2E2E2E2E2E2E2E2E2E2E2E2E2E2E2E2E2E2E2E2E2E2E2E2E2E2E2E2E2E2E2E2E2E2E2E2E2
310
E2E2E2E2E2E2E2E2E2E2E2E2E2E2E2DCE2E2E2E2E2DCE2F5E2E2E2E2E2E2E2E2E2E2E2E2E2E2E2E2E2E2E2E2F5F5E2E2E2F5E2E2E2E2E2E2E2E2E2E2E2E2E2E2E2E2F5E2DCE2E2E2E2E2DCE2E2E2E2E2E2E2E2E2E2E2E2E2E2E2E2E2E2E2E2E2E2E2E2E2E2E2E2E2E2E2E2E2E2E2E2E2E2E2E2E2E2E2E2E2E2E2E2E2E2E2E2
310
E2E2E2E2E2E2E2E2E2E2E2E2E2E2E2E2E2E2E2E2E2E2E2E2E2E2E2E2E2E2E2E2E2E2E2E2E2E2E2E2E2E2E2E2E2E2E2E2E2E2E2E2E2E2E2E2E2E2E2E2E2E2E2E2E2E2E2E2DCE2E2E2E2E2DCE2F5E2E2E2E2E2E2E2E2E2E2E2E2E2E2E2E2F5E2E2E2F5F5E2E2E2F5E2E2E2E2E2E2E2E2E2E2E2E2E2E2E2E2F5E2DCE2E2E2E2E2
310
DCE2E2E2E2E2E2E2E2E2E2E2E2E2E2E2E2E2E2E2E2E2E2E2E2E2E2E2E2E2E2E2E2E2E2E2E2E2E2E2E2E2E2E2E2E2E2E2E2E2E2E2E2E2E2E2E2E2E2E2E2E2E2E2E2E2E2E2E2E2E2E2E2E2E2E2E2E2E2E2E2E2E2E2E2E2E2E2E2E2E2E2E2E2E2E2E2E2E2E2E2E2E2E2E2E2E2E2E2E2E2E2E2E2E2E2E2E2E2E2E2DCE2E2E2E2E2
310
DCE2F5E2E2E2E2E2E2E2E2E2E2E2E2E2E2E2E2F5E2E2E2F5F5E2E2E2F5E2E2E2E2E2E2E2E2E2E2E2E2E2E2E2E2F5E2DCE2E2E2E2E2DCE2E2E2E2E2E2E2E2E2E2E2E2E2E2E2E2E2E2E2E2E2E2E2E2E2E2E2E2E2E2E2E2E2E2E2E2E2E2E2E2E2E2E2E2E2E2E2E2E2E2E2E2E2E2E2E2E2E2E2E2E2E2E2E2E2E2E2E2E2E2E2E2E2
310
E2E2E2E2E2E2E2E2E2E2E2E2E2E2E2E2E2E2E2E2E2E2E2E2E2E2E2E2E2E2E2E2E2E2E2E2E2E2E2E2E2E2E2E2E2E2E2DCE2E2E2E2E2DCE2F5E2E2E2E2E2E2E2E2E2E2E2E2E2E2E2E2F5E2E2E2F5F5E2E2E2F5E2E2E2E2E2E2E2E2E2E2E2E2E2E2E2E2F5E2DCE2E2E2E2E2DCE2E2E2E2E2E2E2E2E2E2E2E2E2E2E2E2E2E2E2E2
310
E2E2E2E2E2E2E2E2E2E2E2E2E2E2E2E2E2E2E2E2E2E2E2E2E2E2E2E2E2E2E2E2E2E2E2E2E2E2E2E2E2E2E2E2E2E2E2E2E2E2E2E2E2E2E2E2E2E2E2E2E2E2E2E2E2E2E2E2E2E2E2E2E2E2E2E2E2E2E2E2E2E2E2E2E2E2E2E2E2E2E2E2E2E2E2E2E2E2E2E2DCE2E2E2E2E2DCE2F5E2E2E2E2E2E2E2E2E2E2E2E2E2E2E2E2F5E2
310
E2E2F5F5E2E2E2F5E2E2E2E2E2E2E2E2E2E2E2E2E2E2E2E2F5E2DCE2E2E2E2E2DCE2E2E2E2E2E2E2E2E2E2E2E2E2E2E2E2E2E2E2E2E2E2E2E2E2E2E2E2E2E2E2E2E2E2E2E2E2E2E2E2E2E2E2E2E2E2E2E2E2E2E2E2E2E2E2E2E2E2E2E2E2E2E2E2E2E2E2E2E2E2E2E2E2E2E2E2E2E2E2E2E2E2E2E2E2E2E2E2E2E2E2E2E2E2
310
E2E2E2E2E2E2E2E2E2E2E2E2E2E2E2E2E2E2E2E2E2E2E2E2E2E2DCE2E2E2E2E2DCE2F5E2E2E2E2E2E2E2E2E2E2E2E2E2E2E2E2F5E2E2E2F5F5E2E2E2F5E2E2E2E2E2E2E2E2E2E2E2E2E2E2E2E2F5E2DCE2E2E2E2E2DCE2E2E2E2E2E2E2E2E2E2E2E2E2E2E2E2E2E2E2E2E2E2E2E2E2E2E2E2E2E2E2E2E2E2E2E2E2E2E2E2E2
310
E2E2E2E2E2E2E2E2E2E2E2E2E2E2E2E2E2E2E2E2E2E2E2E2E2E2E2E2E2E2E2E2E2E2E2E2E2E2E2E2E2E2E2E2E2E2E2E2E2E2E2E2E2E2E2E2E2E2E2E2E2E2E2E2E2E2E2E2E2E2E2E2E2E2E2E2E2E2E2DCE2E2E2E2E2DCE2F5E2E2E2E2E2E2E2E2E2E2E2E2E2E2E2E2F5E2E2E2F5F5E2E2E2F5E2E2E2E2E2E2E2E2E2E2E2E2E2
310
E2E2E2F5E2DCE2E2E2E2E2DCE2E2E2E2E2E2E2E2E2E2E2E2E2E2E2E2E2E2E2E2E2E2E2E2E2E2E2E2E2E2E2E2E2E2E2E2E2E2E2E2E2E2E2E2E2E2E2E2E2E2E2E2E2E2E2E2E2E2E2E2E2E2E2E2E2E2E2E2E2E2E2E2E2E2E2E2E2E2E2E2E2E2E2E2E2E2E2E2E2E2E2E2E2E2E2E2E2E2E2E2E2E2E2E2E2E2E2E2E2E2E2E2E2E2E2
310
E2E2E2E2E2DCE2E2E2E2E2DCE2F5E2E2E2E2E2E2E2E2E2E2E2E2E2E2E2E2F5E2E2E2F5F5E2E2E2F5E2E2E2E2E2E2E2E2E2E2E2E2E2E2E2E2F5E2DCE2E2E2E2E2DCE2E2E2E2E2E2E2E2E2E2E2E2E2E2E2E2E2E2E2E2E2E2E2E2E2E2E2E2E2E2E2E2E2E2E2E2E2E2E2E2E2E2E2E2E2E2E2E2E2E2E2E2E2E2E2E2E2E2E2E2E2E2
310
E2E2E2E2E2E2E2E2E2E2E2E2E2E2E2E2E2E2E2E2E2E2E2E2E2E2E2E2E2E2E2E2E2E2E2E2E2E2E2E2E2E2E2E2E2E2E2E2E2E2E2E2E2E2E2E2E2E2DCE2E2E2E2E2DCE2F5E2E2E2E2E2E2E2E2E2E2E2E2E2E2E2E2F5E2E2E2F5F5E2E2E2F5E2E2E2E2E2E2E2E2E2E2E2E2E2E2E2E2F5E2DCE2E2E2E2E2DCE2E2E2E2E2E2E2E2E2
310
E2E2E2E2E2E2E2E2E2E2E2E2E2E2E2E2E2E2E2E2E2E2E2E2E2E2E2E2E2E2E2E2E2E2E2E2E2E2E2E2E2E2E2E2E2E2E2E2E2E2E2E2E2E2E2E2E2E2E2E2E2E2E2E2E2E2E2E2E2E2E2E2E2E2E2E2E2E2E2E2E2E2E2E2E2E2E2E2E2E2E2E2E2E2E2E2E2E2E2E2E2E2E2E2E2E2E2E2E2E2E2DCE2E2E2E2E2DCE2F5E2E2E2E2E2E2E2
310
E2E2E2E2E2E2E2E2E2F5E2E2E2F5F5E2E2E2F5E2E2E2E2E2E2E2E2E2E2E2E2E2E2E2E2F5E2DCE2E2E2E2E2DCE2E2E2E2E2E2E2E2E2E2E2E2E2E2E2E2E2E2E2E2E2E2E2E2E2E2E2E2E2E2E2E2E2E2E2E2E2E2E2E2E2E2E2E2E2E2E2E2E2E2E2E2E2E2E2E2E2E2E2E2E2E2E2E2E2E2E2E2E2E2E2E2E2E2E2E2E2E2E2E2E2E2E2
310
E2E2E2E2E2E2E2E2E2E2E2E2E2E2E2E2E2E2E2E2E2E2E2E2E2E2E2E2E2E2E2E2E2E2E2E2E2DCE2E2E2E2E2DCE2F5E2E2E2E2E2E2E2E2E2E2E2E2E2E2E2E2F5E2E2E2F5F5E2E2E2F5E2E2E2E2E2E2E2E2E2E2E2E2E2E2E2E2F5E2DCE2E2E2E2E2DCE2E2E2E2E2E2E2E2E2E2E2E2E2E2E2E2E2E2E2E2E2E2E2E2E2E2E2E2E2E2
310
E2E2E2E2E2E2E2E2E2E2E2E2E2E2E2E2E2E2E2E2E2E2E2E2E2E2E2E2E2E2E2E2E2E2E2E2E2E2E2E2E2E2E2E2E2E2E2E2E2E2E2E2E2E2E2E2E2E2E2E2E2E2E2E2E2E2E2E2E2E2E2E2E2E2E2E2E2E2E2E2E2E2E2E2E2E2E2E2E2E2DCE2E2E2E2E2DCE2F5E2E2E2E2E2E2E2E2E2E2E2E2E2E2E2E2F5E2E2E2F5F5E2E2E2F5E2E2
310
E2E2E2E2E2E2E2E2E2E2E2E2E2E2F5E2DCE2E2E2E2E2DCDCDCDCDCDCDCDCDCDCDCDCDCDCDCDCDCDCDCDCDCDCDCDCDCDCDCDCDCDCDCDCDCDCDCDCDCDCDCDCDCDCDCDCDCDCDCDCDCDCDCDCDCDCDCDCDCDCDCDCDCDCDCDCDCDCDCDCDCDCDCDCDCDCDCDCDCDCDCDCDCDCDCDCDCDCDCDCDCDCDCDCDCDCDCDCDCDCDCDCDCDCDCDCDC
310
DCDCDCDCDCDCDCDCDCDCDCDCDCDCDCDCDCE2E2E2E2E2DCE2F5E2E2E2E2E2E2E2E2E2E2E2E2E2E2E2E2F5E2E2E2F5F5E2E2E2F5E2E2E2E2E2E2E2E2E2E2E2E2E2E2E2E2F5E2DCE2E2E2E2E2E2E2E2E2E2E2E2E2E2E2E2E2E2E2E2E2E2E2E2E2E2E2E2E2E2E2E2E2E2E2E2E2E2E2E2E2E2E2E2E2E2E2E2E2E2E2E2E2E2E2E2E2
310
E2E2E2E2E2E2E2E2E2E2E2E2E2E2E2E2E2E2E2E2E2E2E2E2E2E2E2E2E2E2E2E2E2E2E2E2E2E2E2E2E2E2E2E2E2E2E2E2E2E2E2E2E2E2E2E2E2E2E2E2E2E2E2E2E2E2E2E2E2E2E2E2E2E2E2DCE2F5E2E2E2E2E2E2E2E2E2E2E2E2E2E2E2E2F5E2E2E2F5F5E2E2E2F5E2E2E2E2E2E2E2E2E2E2E2E2E2E2E2E2F5E2DCE2E2E2E2
310
E2E2E2E2E2E2E2E2E2E2E2E2E2E2E2E2E2E2E2E2E2E2E2E2E2E2E2E2E2E2E2E2E2E2E2E2E2E2E2E2E2E2E2E2E2E2E2E2E2E2E2E2E2E2E2E2E2E2E2E2E2E2E2E2E2E2E2E2E2E2E2E2E2E2E2E2E2E2E2E2E2E2E2E2E2E2E2E2E2E2E2E2E2E2E2E2E2E2E2E2E2E2E2E2E2E2E2E2E2E2E2E2E2E2E2E2E2E2E2E2E2E2E2E2E2E2E2
310
E2DCE2F5E2E2E2E2E2E2E2E2E2E2E2E2E2E2E2E2F5E2E2E2F5F5E2E2E2F5E2E2E2E2E2E2E2E2E2E2E2E2E2E2E2E2F5E2DCE2E2E2E2E2E2E2E2E2E2E2E2E2E2E2E2E2E2E2E2E2E2E2E2E2E2E2E2E2E2E2E2E2E2E2E2E2E2E2E2E2E2E2E2E2E2E2E2E2E2E2E2E2E2E2E2E2E2E2E2E2E2E2E2E2E2E2E2E2E2E2E2E2E2E2E2E2E2
310
E2E2E2E2E2E2E2E2E2E2E2E2E2E2E2E2E2E2E2E2E2E2E2E2E2E2E2E2E2E2E2E2E2E2E2E2E2E2E2E2E2E2E2E2E2E2E2E2E2E2E2E2E2E2DCE2F5E2E2E2E2E2E2E2E2E2E2E2E2E2E2E2E2F5E2E2E2F5F5E2E2E2E2E2E2E2E2E2E2E2E2E2E2E2E2E2E2E2E2F5E2DCE2E2E2E2E2E2E2E2E2E2E2E2E2E2E2E2E2E2E2E2E2E2E2E2E2
310
E2E2E2E2E2E2E2E2E2E2E2E2E2E2E2E2E2E2E2E2E2E2E2E2E2E2E2E2E2E2E2E2E2E2E2E2E2E2E2E2E2E2E2E2E2E2E2E2E2E2E2E2E2E2E2E2E2E2E2E2E2E2E2E2E2E2E2E2E2E2E2E2E2E2E2E2E2E2E2E2E2E2E2E2E2E2E2E2E2E2E2E2E2E2E2E2E2E2E2E2E2E2E2E2E2E2E2DCE2F5E2E2E2E2E2E2E2E2E2E2E2E2E2E2E2E2E2
310
E2E2E2F5F5E2E2E2E2E2E2E2E2E2E2E2E2E2E2E2E2E2E2E2E2F5E2DCE2E2E2E2E2E2E2E2E2E2E2E2E2E2E2E2E2E2E2E2E2E2E2E2E2E2E2E2E2E2E2E2E2E2E2E2E2E2E2E2E2E2E2E2E2E2E2E2E2E2E2E2E2E2E2E2E2E2E2E2E2E2E2E2E2E2E2E2E2E2E2E2E2E2E2E2E2E2E2E2E2E2E2E2E2E2E2E2E2E2E2E2E2E2E2E2E2E2E2
310
E2E2E2E2E2E2E2E2E2E2E2E2E2E2E2E2E2E2E2E2E2E2E2E2E2E2E2E2E2E2E2E2E2DCE2F5E2E2E2E2E2E2E2E2E2E2E2E2E2E2E2E2E2E2E2E2F5F5E2E2E2E2E2E2E2E2E2E2E2E2E2E2E2E2E2E2E2E2F5E2DCE2E2E2E2E2E2E2E2E2E2E2E2E2E2E2E2E2E2E2E2E2E2E2E2E2E2E2E2E2E2E2E2E2E2E2E2E2E2E2E2E2E2E2E2E2E2
310
E2E2E2E2E2E2E2E2E2E2E2E2E2E2E2E2E2E2E2E2E2E2E2E2E2E2E2E2E2E2E2E2E2E2E2E2E2E2E2E2E2E2E2E2E2E2E2E2E2E2E2E2E2E2E2E2E2E2E2E2E2E2E2E2E2E2E2E2E2E2E2E2E2E2E2E2E2E2E2E2E2E2E2E2E2E2DCE2F5E2E2E2E2E2E2E2E2E2E2E2E2E2E2E2E2E2E2E2E2F5F5E2E2E2E2E2E2E2E2E2E2E2E2E2E2E2E2
310
E2E2E2E2F5E2DCDCDCDCDCDCDCDCDCDCDCDCDCDCDCDCDCDCDCDCDCDCDCDCDCDCDCDCDCDCDCDCDCDCDCDCDCDCDCDCDCDCDCDCDCDCDCDCDCDCDCDCDCDCDCDCDCDCDCDCDCDCDCDCDCDCDCDCDCDCDCDCDCDCDCDCDCDCDCDCDCDCDCDCDCDCDCDCDCDCDCDCDCDCDCDCDCDCDCDCDCDCDCDCDCDCDCDCDCDCDCDCDCDCDCDCDCDCDCDCDC
310
DCDCDCDCDCDCDCDCDCDCDCDCDCE2F5E2E2E2E2E2E2E2E2E2E2E2E2E2E2E2E2E2E2E2E2F5F5E2E2E2E2E2E2E2E2E2E2E2E2E2E2E2E2E2E2E2E2F5F5F5F5F5F5F5F5F5F5F5F5F5F5F5F5F5F5F5F5F5F5F5F5F5F5F5F5F5F5F5F5F5F5F5F5F5F5F5F5F5F5F5F5F5F5F5F5F5F5F5F5F5F5F5F5F5F5F5F5F5F5F5F5F5F5F5F5F5F5
310
F5F5F5F5F5F5F5F5F5F5F5F5F5F5F5F5F5F5F5F5F5F5F5F5F5F5F5F5F5F5F5F5F5F5F5F5F5F5F5F5F5F5F5F5F5F5F5F5F5F5F5F5F5F5F5F5F5F5F5F5F5F5F5F5F5F5F5F5E2E2E2E2E2E2E2E2E2E2E2E2E2E2E2E2E2E2E2E2F5F5E2E2E2E2E2E2E2E2E2E2E2E2E2E2E2E2E2E2E2E2E2E2E2E2E2E2E2E2E2E2E2E2E2E2E2E2E2
310
E2E2E2E2E2E2E2E2E2E2E2E2E2E2E2E2E2E2E2E2E2E2E2E2E2E2E2E2E2E2E2E2E2E2E2E2E2E2E2E2E2E2E2E2E2E2E2E2E2E2E2E2E2E2E2E2E2E2E2E2E2E2E2E2E2E2E2E2E2E2E2E2E2E2E2E2E2E2E2E2E2E2E2E2E2E2E2E2E2E2E2E2E2E2E2E2E2E2E2E2E2E2E2E2E2E2E2E2E2E2E2E2E2E2E2E2E2E2E2E2E2E2E2E2E2E2E2
310
E2E2E2E2E2E2E2E2E2E2E2E2E2E2F5F5E2E2E2E2E2E2E2E2E2E2E2E2E2E2E2E2E2E2E2E2E2E2E2E2E2E2E2E2E2E2E2E2E2E2E2E2E2E2E2E2E2E2E2E2E2E2E2E2E2E2E2E2E2E2E2E2E2E2E2E2E2E2E2E2E2E2E2E2E2E2E2E2E2E2E2E2E2E2E2E2E2E2E2E2E2E2E2E2E2E2E2E2E2E2E2E2E2E2E2E2E2E2E2E2E2E2E2E2E2E2E2
310
E2E2E2E2E2E2E2E2E2E2E2E2E2E2E2E2E2E2E2E2E2E2E2E2E2E2E2E2E2E2E2E2E2E2E2E2E2E2E2E2E2E2E2E2E2E2E2E2E2E2E2E2E2E2E2E2E2E2E2E2E2E2E2E2E2E2E2F5F5E2E2E2E2E2E2E2E2E2E2E2E2E2E2E2E2E2E2E2E2E2E2E2E2E2E2E2E2E2E2E2E2E2E2E2E2E2E2E2E2E2E2E2E2E2E2E2E2E2E2E2E2E2E2E2E2E2E2
310
E2E2E2E2E2E2E2E2E2E2E2E2E2E2E2E2E2E2E2E2E2E2E2E2E2E2E2E2E2E2E2E2E2E2E2E2E2E2E2E2E2E2E2E2E2E2E2E2E2E2E2E2E2E2E2E2E2E2E2E2E2E2E2E2E2E2E2E2E2E2E2E2E2E2E2E2E2E2E2E2E2E2E2E2E2E2E2E2E2E2E2E2E2E2E2E2E2E2E2E2E2E2E2E2E2E2E2E2E2E2E2E2E2E2E2E2E2E2E2E2F5F5E2E2E2F5E2
310
E2E2E2E2E2E2E2E2E2E2E2E2E2E2E2E2E2E2E2E2E2E2E2E2E2E2E2E2E2E2E2E2E2E2E2E2E2E2E2E2E2E2E2E2E2E2E2E2E2E2E2E2E2E2E2E2E2E2E2E2E2E2E2E2E2E2E2E2E2E2E2E2E2E2E2E2E2E2E2E2E2E2E2E2E2E2E2E2E2E2E2E2E2E2E2E2E2E2E2E2E2E2E2E2E2E2E2E2E2E2E2E2E2E2E2E2E2E2E2E2E2E2E2E2E2E2E2
310
E2E2E2E2E2E2E2E2E2E2E2E2E2E2E2E2E2E2E2E2E2E2E2E2E2E2E2E2E2E2E2E2E2E2E2E2E2E2E2E2E2E2F5E2E2E2F5F5E2E2E2F5E2E2E2E2E2E2E2E2E2E2E2E2E2E2E2E2E2E2E2E2E2E2E2E2E2E2E2E2E2E2E2E2E2E2E2E2E2E2E2E2E2E2E2E2E2E2E2E2E2E2E2E2E2E2E2E2E2E2E2E2E2E2E2E2E2E2E2E2E2E2E2E2E2E2E2
310
E2E2E2E2E2E2E2E2E2E2E2E2E2E2E2E2E2E2E2E2E2E2E2E2E2E2E2E2E2E2E2E2E2E2E2E2E2E2E2E2E2E2E2E2E2E2E2E2E2E2E2E2E2E2E2E2E2E2E2E2E2E2E2E2E2E2E2E2E2E2E2E2E2E2E2E2E2E2E2E2E2E2E2E2E2E2E2E2E2E2E2E2E2E2E2F5E2E2E2F5F5E2E2E2F5E2E2E2E2E2E2E2E2E2E2E2E2E2E2E2E2E2E2E2E2E2E2
310
E2E2E2E2E2E2E2E2E2E2E2E2E2E2E2E2E2E2E2E2E2E2E2E2E2E2E2E2E2E2E2E2E2E2E2E2E2E2E2E2E2E2E2E2E2E2E2E2E2E2E2E2E2E2E2E2E2E2E2E2E2E2E2E2E2E2E2E2E2E2E2E2E2E2E2E2E2E2E2E2E2E2E2E2E2E2E2E2E2E2E2E2E2E2E2E2E2E2E2E2E2E2E2E2E2E2E2E2E2E2E2E2E2E2E2E2E2E2E2E2E2E2E2E2E2E2E2
310
E2E2E2E2E2E2E2E2E2E2E2E2E2E2E2E2E2E2E2E2E2F5E2E2E2F5F5E2E2E2F5E2E2E2E2E2E2E2E2E2E2E2E2E2E2E2E2E2E2E2E2E2E2E2E2E2E2E2E2E2E2E2E2E2E2E2E2E2E2E2E2E2E2E2E2E2E2E2E2E2E2E2E2E2E2E2E2E2E2E2E2E2E2E2E2E2E2E2E2E2E2E2E2E2E2E2E2E2E2E2E2E2E2E2E2E2E2E2E2E2E2E2E2E2E2E2E2
310
E2E2E2E2E2E2E2E2E2E2E2E2E2E2E2E2E2E2E2E2E2E2E2E2E2E2E2E2E2E2E2E2E2E2E2E2E2E2E2E2E2E2E2E2E2E2E2E2E2E2E2E2E2E2E2E2E2E2E2E2E2E2E2E2E2E2E2E2E2E2E2E2E2E2F5E2E2E2F5F5E2E2E2F5E2E2E2E2E2E2E2E2E2E2E2E2E2E2E2E2E2E2E2E2E2E2E2E2E2E2E2E2E2E2E2E2E2E2E2E2E2E2E2E2E2E2E2
310
E2E2E2E2E2E2E2E2E2E2E2E2E2E2E2E2E2E2E2E2E2E2E2E2E2E2E2E2E2E2E2E2E2E2E2E2E2E2E2E2E2E2E2E2E2E2E2E2E2E2E2E2E2E2E2E2E2E2E2E2E2E2E2E2E2E2E2E2E2E2E2E2E2E2E2E2E2E2E2E2E2E2E2E2E2E2E2E2E2E2E2E2E2E2E2E2E2E2E2E2E2E2E2E2E2E2E2E2E2E2E2E2E2E2E2E2E2E2E2E2E2E2E2E2E2E2E2
310
F5E2E2E2F5F5E2E2E2F5E2E2E2E2E2E2E2E2E2E2E2E2E2E2E2E2E2E2E2E2E2E2E2E2E2E2E2E2E2E2E2E2E2E2E2E2E2E2E2E2E2E2E2E2E2E2E2E2E2E2E2E2E2E2E2E2E2E2E2E2E2E2E2E2E2E2E2E2E2E2E2E2E2E2E2E2E2E2E2E2E2E2E2E2E2E2E2E2E2E2E2E2E2E2E2E2E2E2E2E2E2E2E2E2E2E2E2E2E2E2E2E2E2E2E2E2E2
310
E2E2E2E2E2E2E2E2E2E2E2E2E2E2E2E2E2E2E2E2E2E2E2E2E2E2E2E2E2E2E2E2E2E2E2E2E2E2E2E2E2E2E2E2E2E2E2E2E2E2E2E2E2F5E2E2E2F5F5E2E2E2F5E2E2E2E2E2E2E2E2E2E2E2E2E2E2E2E2E2E2E2E2E2E2E2E2E2E2E2E2E2E2E2E2E2E2E2E2E2E2E2E2E2E2E2E2E2E2E2E2E2E2E2E2E2E2E2E2E2E2E2E2E2E2E2E2
310
E2E2E2E2E2E2E2E2E2E2E2E2E2E2E2E2E2E2E2E2E2E2E2E2E2E2E2E2E2E2E2E2E2E2E2E2E2E2E2E2E2E2E2E2E2E2E2E2E2E2E2E2E2E2E2E2E2E2E2E2E2E2E2E2E2E2E2E2E2E2E2E2E2E2E2E2E2E2E2E2E2E2E2E2E2E2E2E2E2E2E2E2E2E2E2E2E2E2E2E2E2E2E2E2E2E2F5E2E2E2F5F5E2E2E2F5F5F5F5F5F5F5F5E2E2E2E2
310
E2E2E2E2E2F5F5F5F5F5F5F5F5F5F5F5F5F5F5F5F5E2E2E2E2E2E2E2E2E2F5F5F5F5F5F5F5F5F5F5F5F5F5F5F5E2E2E2E2E2E2E2E2E2F5F5F5F5F5F5F5F5F5F5F5F5F5F5F5F5E2E2E2E2E2E2E2E2F5F5F5F5F5F5F5F5F5F5F5F5F5F5F5F5E2E2E2E2E2E2E2E2E2F5F5F5F5F5F5F5F5F5F5F5F5F5F5F5E2E2E2E2E2E2E2E2E2
310
F5F5F5F5F5F5F5F5F5F5F5F5F5F5F5F5E2E2E2E2E2E2E2E2E2F5F5F5F5F5F5F5F5E2E2E2F5F5E2E2E2E2E2E2E2E2E2E2E2E2E2E2E2E2E2E2E2E2E2E2E2E2E2E2E2E2E2E2E2E2E2E2E2E2E2E2E2E2E2E2E2E2E2E2E2E2E2E2E2E2E2E2E2E2E2E2E2E2E2E2E2E2E2E2E2E2E2E2E2E2E2E2E2E2E2E2E2E2E2E2E2E2E2E2E2E2E2
310
E2E2E2E2E2E2E2E2E2E2E2E2E2E2E2E2E2E2E2E2E2E2E2E2E2E2E2E2E2E2E2E2E2E2E2E2E2E2E2E2E2E2E2E2E2E2E2E2E2E2E2E2E2E2E2E2E2E2E2E2E2E2E2E2E2E2E2E2E2E2E2E2E2E2E2E2E2E2E2E2E2E2E2E2E2E2E2E2E2F5F5E2E2E2E2E2E2E2E2E2E2E2E2E2E2E2E2E2E2E2E2E2E2E2E2E2E2E2E2E2E2E2E2E2E2E2E2
310
E2E2E2E2E2E2E2E2E2E2E2E2E2E2E2E2E2E2E2E2E2E2E2E2E2E2E2E2E2E2E2E2E2E2E2E2E2E2E2E2E2E2E2E2E2E2E2E2E2E2E2E2E2E2E2E2E2E2E2E2E2E2E2E2E2E2E2E2E2E2E2E2E2E2E2E2E2E2E2E2E2E2E2E2E2E2E2E2E2E2E2E2E2E2E2E2E2E2E2E2E2E2E2E2E2E2E2E2E2E2E2E2E2E2E2E2E2E2E2E2E2E2E2E2E2E2E2
310
E2E2E2E2E2E2E2E2E2E2E2E2E2E2E2F5F5E2E2E2E2E2E2E2E2E2E2E2E2E2E2E2E2E2E2E2E2E2E2E2E2E2E2E2E2E2E2E2E2E2E2E2E2E2E2E2E2E2E2E2E2E2E2E2E2E2E2E2E2E2E2E2E2E2E2E2E2E2E2E2E2E2E2E2E2E2E2E2E2E2E2E2E2E2E2E2E2E2E2E2E2E2E2E2E2E2E2E2E2E2E2E2E2E2E2E2E2E2E2E2E2E2E2E2E2E2E2
310
E2E2E2E2E2E2E2E2E2E2E2E2E2E2E2E2E2E2E2E2E2E2E2E2E2E2E2E2E2E2E2E2E2E2E2E2E2E2E2E2E2E2E2E2E2E2E2E2E2E2E2E2E2E2E2E2E2E2E2E2E2E2E2E2E2E2E2E2F5F5F5F5F5F5F5F5F5F5F5F5F5F5F5F5F5F5F5F5F5F5F5F5F5F5F5F5F5F5F5F5F5F5F5F5F5F5F5F5F5F5F5F5F5F5F5F5F5F5F5F5F5F5F5F5F5F5F5
310
F5F5F5F5F5F5F5F5F5F5F5F5F5F5F5F5F5F5F5F5F5F5F5F5F5F5F5F5F5F5F5F5F5F5F5F5F5F5F5F5F5F5F5F5F5F5F5F5F5F5F5F5F5F5F5F5F5F5F5F5F5F5F5F5F5F5F5F5F5F5F5F5F5F5F5F5F5F5F5F5F5F5F5F5F5F5F5F5F5F5F5F5F5F5F5F5F5F5F5F5F5F5F5F5F5F5F5F5F5F5F5F5F5F5F5F5F5F5F5F5F5F5EFEFEFEFEF
310
EFEFEFEFEFEFEFEFEFEFEFEFEFEFEFEFEFEFEFEFEFEFEFEFEFEFEFEFEFEFEFEFEFEFEFEFEFEFEFEFEFEFEFEFEFEFEFEFEFEFEFEFEFEFEFEFEFEFEFEFEFEFEFEFEFEFEFEFEFEFEFEFEFEFEFEFEFEFEFEFEFEFEFEFEFEFEFEFEFEFEFEFEFEFEFEFEFEFEFEFEFEFEFEFEFEFEFEFEFEFEFEFEFEFEFEFEFEFEFEFEFEFEFEFEFEFEF
310
EFEFEFEFEFEFEFEFEFEFEFEFEFEFEFEFEFEFEFEFEFEFEFEFEFEFEFEFEFEFEFEFEFEFEFEFEFEFEFEFEFEFEFEFEFEFEFEF
  0
XRECORD
  5
35124
102
{ACAD_REACTORS
330
35123
102
}
330
35123
100
AcDbXrecord
280
     1
102
SHADEPLOT
 70
     1
102
SHADEPLOTRESLEVEL
 70
     2
102
SHADEPLOTCUSTOMDPI
 70
   300
  0
XRECORD
  5
35131
102
{ACAD_REACTORS
330
35130
102
}
330
35130
100
AcDbXrecord
280
     1
102
MATERIAL
148
0.0
149
0.0
149
0.0
 93
        0
 94
       63
282
     0
 72
     1
 77
     1
171
     1
175
     1
179
     1
273
     0
  0
XRECORD
  5
3512F
102
{ACAD_REACTORS
330
3512E
102
}
330
3512E
100
AcDbXrecord
280
     1
102
MATERIAL
148
0.0
149
0.0
149
0.0
 93
        0
 94
       63
282
     0
 72
     1
 77
     1
171
     1
175
     1
179
     1
273
     0
  0
XRECORD
  5
3512D
102
{ACAD_REACTORS
330
3512C
102
}
330
3512C
100
AcDbXrecord
280
     1
102
MATERIAL
148
0.0
149
0.0
149
0.0
 93
        0
 94
       63
282
     0
 72
     1
 77
     1
171
     1
175
     1
179
     1
273
     0
  0
XRECORD
  5
35127
102
{ACAD_REACTORS
330
35126
102
}
330
35126
100
AcDbXrecord
280
     1
102
ACAD_ROUNDTRIP_PRE2007_TABLESTYLE
 90
        4
 91
        0
  1

 92
        4
 93
        0
  2

 94
        4
 95
        0
  3

  0
ENDSEC
  0
EOF
